osu file format v5

[General]
AudioFilename: 01 - Gingerbread Coffin.mp3
AudioLeadIn: 0
PreviewTime: -1
Countdown: 1
SampleSet: Soft
StackLeniency: 0.7
Mode: 0
LetterboxInBreaks: 1
EditorBookmarks: 40034,71534,109784,163784

[Metadata]
Title:Gingerbread Coffin
Artist:Rasputina
Creator:Mogsworth
Version:Hard
Source:
Tags:

[Difficulty]
HPDrainRate:6
CircleSize:6
OverallDifficulty:6
SliderMultiplier:1.6
SliderTickRate:1

[Events]
//Background and Video events
0,0,"gbcoffin.PNG"
//Break Periods
2,49233,50984
2,89734,109109
2,145984,163109
//Storyboard Layer 0 (Background)
//Storyboard Layer 1 (Failing)
//Storyboard Layer 2 (Passing)
//Storyboard Layer 3 (Foreground)
//Storyboard Sound Samples
//Background Colour Transformations
3,100,163,162,255

[TimingPoints]
40034,750,3,2,0,100,1

[Colours]
Combo1 : 176,0,0
Combo2 : 255,128,0
Combo3 : 0,0,0
Combo4 : 128,64,0

[HitObjects]
80,176,40784,1,0
160,176,41159,2,0,B|199:168|248:176,1,80
239,174,41721,2,0,B|304:200|207:248|288:280,2,120
239,174,43034,1,0
312,136,43409,2,0,B|373:117|408:184,2,80
312,136,44346,1,0
192,160,44909,1,2
112,160,45284,6,0,B|56:144|112:72,1,80
176,96,46034,1,0
176,96,46221,2,0,B|232:72|264:144|312:72,1,120
320,168,47159,1,0
280,240,47534,1,2
224,184,47909,2,2,B|196:192|168:176,1,40
208,104,48471,2,2,B|168:135|234:145|184:248,1,120,2|4
80,296,52034,5,0
88,216,52409,2,0,B|96:176|152:216|176:184,1,80
158,195,52971,1,0
280,184,53534,2,0,B|301:202|303:243|270:226|272:192,1,80
352,200,54284,1,2
424,224,54659,2,0,B|464:248|434:268|384:248,3,80,0|0|0|0
320,280,56159,5,0
320,280,56346,2,0,B|272:256|256:320|256:184,1,120
176,192,57284,1,0
96,192,57659,1,0
96,192,57846,2,0,B|43:179|112:248,1,80
208,296,58784,1,2
288,296,59159,2,2,B|264:256|328:264|304:216,1,80
308,226,59721,2,2,B|268:242|247:221|248:288,1,80
248,266,60284,5,0
168,264,60659,1,0
88,264,61034,1,0
8,264,61409,1,2
88,264,61784,1,0
168,264,62159,5,0
168,264,62534,2,0,B|264:261|271:78|206:169|206:169|232:216,1,240,0|0
231,214,64034,1,2
231,214,64409,1,0
232,216,64784,2,0,B|328:213|335:30|270:121|270:121|296:168,1,240,0|0
295,166,66284,1,2
295,166,66659,1,0
295,166,67034,2,0,C|296:32|296:32|294:328|294:328|294:272|294:272|346:272|346:272|216:272,1,800,0|2
144,280,71159,2,0,C|98:280|96:328,1,80
168,344,71909,6,0,C|232:352|248:336,1,80
243,343,72471,2,0,C|267:293|320:328,1,120
318,327,73409,1,0
400,328,73784,2,2,L|416:288|392:256,1,80
352,256,74346,2,2,L|320:294|368:360,1,120
361,350,75096,1,2
464,288,75659,1,0
496,216,76034,1,2
496,136,76409,6,0,B|440:104|448:144|400:152,1,80
344,168,77159,1,0
344,168,77346,2,0,B|360:232|328:272,2,80
344,168,78284,1,2
280,216,78659,1,2
208,248,79034,2,2,B|184:272|152:224,1,40
256,192,79409,12,4,80534
472,48,80909,6,0,B|424:72|448:128,1,80
443,114,81471,2,0,B|448:264,1,120
446,233,82409,1,0
376,272,82784,2,2,L|336:256|304:280,1,80
304,320,83346,2,2,L|342:352|408:304,1,120
398,311,84096,1,2
480,224,84659,1,0
504,144,85034,1,2
456,80,85409,6,2,B|416:80|448:120|448:120|400:152,1,80
428,132,85971,2,2,B|392:160|424:176|424:176|400:208,1,80
328,192,86721,2,2,B|386:154|280:208|272:120,1,120
256,192,87659,12,4,89534
88,88,110159,6,0,B|64:128|136:144|88:176,1,80
176,128,110909,2,0,B|209:137|216:208,1,80
214,193,111565,1,0
288,224,111846,2,0,B|379:200|182:397|312:360,1,200
368,320,113159,2,2,B|336:288|400:288|360:240,1,80
366,248,113721,2,2,B|424:280|472:216,1,120,2|2
464,136,114659,6,0,B|416:104|376:144,1,80
389,132,115221,2,0,B|373:92|396:99|396:99|368:144|336:128,1,80
371,126,115784,2,0,B|320:128|211:183|370:169|376:152,1,160
369,156,116909,1,0
368,232,117284,2,2,B|312:256|264:248,1,80
208,248,118034,1,2
208,248,118221,2,2,B|99:202|160:304|112:280,1,120
64,344,119159,5,0
144,344,119534,1,0
64,344,119909,1,2
144,344,120284,1,0
224,336,120659,5,0
224,336,121034,2,0,B|320:333|327:150|304:266|304:266|344:336,1,240,0|0
338,325,122534,1,2
416,328,122909,1,0
416,328,123284,2,0,B|419:232|602:225|486:248|486:248|416:208,1,240,0|0
426,213,124784,1,2
426,213,125159,2,4,B|384:248|328:200,1,80
192,224,126284,5,0
192,224,126659,2,0,B|136:200|240:192|144:160,1,80
165,168,127221,2,0,B|176:120|264:176|304:168,1,120
352,160,128159,1,2
352,160,128346,2,2,B|256:221|376:216,1,120
440,240,129284,1,2
440,240,129471,2,2,B|376:197|464:320|424:344,1,120,2|2
352,336,130409,6,0,B|304:304|296:368,1,80
296,361,130971,2,0,B|232:328|321:272|248:288,1,100
262,285,131627,1,0
144,272,132284,2,0,B|128:297|73:277|114:339,1,80
184,344,133034,1,2
264,344,133409,2,2,B|201:311|328:336,1,80
294,329,133971,2,2,B|296:288|360:328|320:368|408:344,1,120
390,348,134909,5,0
328,288,135284,1,0
390,348,135659,1,2
448,288,136034,1,0
448,288,136409,5,0
448,288,136784,2,0,B|352:285|345:102|410:193|410:193|384:240,1,240,0|0
385,238,138284,1,2
385,238,138659,1,0
384,240,139034,2,0,B|288:237|281:54|346:145|346:145|320:192,1,240,0|0
321,190,140534,1,2
321,190,140909,1,0
321,190,141284,2,0,C|320:56|320:56|322:352|322:352|322:296|322:296|270:296|270:296|400:296,1,800,0|2
472,304,145409,2,0,C|475:339|501:354|480:400,1,80,0|4
344,40,164159,6,0,C|280:32|264:48,1,80
269,41,164721,2,0,C|245:91|192:56,1,120
194,57,165659,1,0
128,96,166034,2,2,L|144:56|120:24,1,80
80,24,166596,2,2,L|48:62|96:128,1,120
89,118,167346,1,2
192,176,167909,1,0
248,232,168284,1,2
232,312,168659,6,0,B|176:368|168:328|216:320,1,80
136,272,169409,1,0
136,272,169596,2,0,B|120:208|152:168,2,80
136,272,170534,1,2
200,224,170909,1,2
272,192,171284,2,2,B|296:168|328:216,1,40
256,192,171659,12,4,172784
40,336,173159,6,0,B|88:312|64:256,1,80
69,270,173721,2,0,B|107:248|192:320,1,120
176,307,174659,1,0
256,320,175034,2,2,L|240:280|264:248,1,80
304,248,175596,2,2,L|336:286|288:352,1,120
295,342,176346,1,2
408,312,176909,1,0
464,256,177284,1,2
432,184,177659,6,2,B|432:224|392:192|392:192|360:240,1,80
380,212,178221,2,2,B|352:248|336:216|336:216|304:240,1,80
240,240,178971,2,2,B|298:202|192:256|184:168,1,120
256,192,179909,12,4,181784
456,184,182159,6,0,B|408:168|424:256|360:224,1,80
397,228,182721,2,0,B|428:265|368:240|368:240|376:328,1,120
373,299,183659,1,0
304,336,184034,2,2,L|320:296|296:264,1,80
256,264,184596,2,2,L|224:302|272:368,1,120
265,358,185346,1,2
144,336,185909,1,0
80,280,186284,1,2
64,200,186659,6,0,B|128:184|104:240|168:232,1,80
216,224,187409,1,2
216,224,187596,2,2,B|256:168|216:120,2,80
216,224,188534,2,2,B|264:224|208:296,1,80
217,283,189096,2,2,B|280:280|256:336|320:312,1,80
256,192,189846,12,4,190784
48,48,191159,6,0,B|24:112|88:104,1,80
75,104,191721,2,0,B|56:168|109:171|64:224,1,120
72,215,192659,1,0
152,224,193034,2,2,L|136:184|160:152,1,80
200,152,193596,2,2,L|232:190|184:256,1,120
191,246,194346,1,2
256,344,194909,1,0
256,344,195284,1,2
256,344,195659,6,2,L|257:198|257:198|256:304|256:304|302:302|302:302|184:304,1,400
256,192,197909,12,4,199784
