osu file format v5

[General]
AudioFilename: Rascal Flatts - What Hurts the Most(good version).mp3
AudioLeadIn: 0
PreviewTime: -1
Countdown: 0
SampleSet: Normal
StackLeniency: 0.7
Mode: 0
LetterboxInBreaks: 1
EditorDistanceSpacing: 1

[Metadata]
Title:What Hurts the Most
Artist:Rascal Flatts
Creator:Rolled
Version:Normal
Source:
Tags:

[Difficulty]
HPDrainRate:5
CircleSize:4
OverallDifficulty:5
SliderMultiplier:1
SliderTickRate:2

[Events]
//Background and Video events
0,0,"gloom.png"
//Break Periods
2,72948,78387
2,141110,155151
//Storyboard Layer 0 (Background)
//Storyboard Layer 1 (Failing)
//Storyboard Layer 2 (Passing)
//Storyboard Layer 3 (Foreground)
//Storyboard Sound Samples
//Background Colour Transformations
3,100,0,0,0

[TimingPoints]
1499,441.176204379562,4,2,1,70,1,0
29501,-100,4,1,1,54,0,0
29844,-100,4,1,1,40,0,0
34807,-100,4,2,1,71,0,0
36572,-100,4,1,1,53,0,0
36903,-100,4,1,1,40,0,0
41535,-100,4,1,1,40,0,0
41755,-100,4,1,1,50,0,0
41976,-100,4,1,1,55,0,0
42748,-100,4,1,1,64,0,0
43741,-100,4,1,1,70,0,0
43961,-100,4,1,1,60,0,0
46388,-100,4,1,1,80,0,0
46940,-100,4,1,1,60,0,0
49918,-100,4,1,1,80,0,0
50359,-100,4,1,1,60,0,0
57859,-100,4,1,1,80,0,0
58190,-100,4,1,1,60,0,0
61388,-100,4,1,1,70,0,0
61608,-100,4,1,1,60,0,0
65910,-100,4,1,1,50,0,0
72598,-100,4,2,1,40,0,0
78704,-100,4,2,1,80,0,0
93153,-100,4,1,1,64,0,0
93373,-100,4,1,1,50,0,0
97565,-100,4,1,1,53,0,0
103741,-100,4,1,1,47,0,0
103961,-100,4,1,1,55,0,0
104182,-100,4,1,1,64,0,0
105506,-100,4,1,1,70,0,0
129440,-100,4,1,1,50,0,0
131976,-100,4,1,1,60,0,0
132417,-100,4,1,1,50,0,0
140690,-100,4,1,1,80,0,0
155469,-100,4,1,1,65,0,0
160101,-100,4,1,1,90,0,0
161645,-100,4,1,1,65,0,0
166388,-100,4,1,1,70,0,0
169035,-100,4,1,1,80,0,0
169366,-100,4,1,1,65,0,0
179513,-100,4,1,1,65,0,0
180064,-100,4,1,1,55,0,0
183340,-100,4,2,1,90,0,0
187915,441.176204379562,4,2,1,100,1,0
189329,-200,4,2,1,90,0,0
189770,-100,4,2,1,85,0,0
189990,-100,4,2,1,80,0,0
190210,-100,4,2,1,75,0,0
190430,-100,4,2,1,70,0,0
190650,-100,4,2,1,65,0,0
190870,-100,4,2,1,60,0,0
191090,-100,4,2,1,55,0,0
191310,-100,4,2,1,50,0,0
191530,-100,4,2,1,45,0,0
191750,-100,4,2,1,40,0,0
191970,-100,4,2,1,35,0,0
192190,-100,4,2,1,30,0,0
192410,-100,4,2,1,24,0,0

[Colours]
Combo1 : 113,113,255
Combo2 : 0,0,81
Combo3 : 91,0,183

[HitObjects]
112,112,16498,2,0,B|72:184|120:256,1,150,2|0
118,253,17381,1,0
216,280,17822,1,0
312,264,18263,1,2
408,112,19146,2,0,B|344:16|200:40,1,200,0|2
344,176,20910,5,4
280,232,21351,1,0
192,248,21793,1,4
112,208,22234,1,0
432,240,23116,5,0
384,152,23557,1,2
296,112,23998,1,0
200,144,24440,2,0,B|56:144|64:8,2,200,0|2|0
200,144,26425,1,0
200,144,26646,1,0
288,192,27087,1,2
56,272,28410,5,0
96,184,28851,1,4
168,112,29293,1,0
256,56,29734,2,0,B|336:40|400:112,1,150,4|0
391,102,30616,1,8
448,184,31057,1,0
368,248,31498,6,0,B|304:304|216:280,1,150
228,282,32381,1,8
160,208,32822,1,0
128,112,33263,2,0,B|72:96|32:152,2,100,0|0|8
216,152,34587,1,0
288,216,35028,6,4,B|400:232|448:104,1,200
248,56,36793,5,4
152,96,37234,1,0
112,120,37454,1,0
104,168,37675,1,8
160,248,38116,1,0
256,232,38557,6,0,B|328:256|336:304,1,100
332,291,39219,1,0
332,291,39440,1,8
408,224,39881,1,0
424,128,40322,1,4
136,32,41646,5,0
136,32,41866,1,0
136,32,42087,1,4
80,112,42528,1,0
80,208,42969,1,4
136,288,43410,1,0
232,248,43851,6,0,B|272:160|408:144,1,200
408,48,45175,1,0
312,88,45616,2,6,B|200:152|80:120,1,200
264,264,47381,5,0
360,224,47822,1,0
408,136,48263,1,8
408,32,48704,1,0
304,48,49146,2,6,B|192:80|144:208,1,200
360,224,50690,5,0
360,224,50910,1,0
272,272,51351,1,0
176,248,51793,2,0,B|120:256|56:176,2,100,8|0|0
296,152,53337,1,0
296,152,53557,2,0,B|280:88|200:80,2,100,12|0|4
112,224,55322,5,12
64,136,55763,1,0
128,64,56204,1,0
224,40,56646,2,12,B|312:32|400:104|400:176|384:256,1,300,4|4
216,128,58851,5,8
112,144,59293,1,0
40,208,59734,2,6,B|32:280|120:296|168:264,1,150,6|2
145,274,60616,1,6
256,104,61498,6,0,B|312:88|336:32,2,100,0|0|8
224,144,62601,1,0
192,184,62822,1,0
280,240,63263,2,6,B|384:264|448:192,1,150,6|2
422,215,64146,1,6
400,112,64587,5,0
400,112,64807,1,0
400,112,65028,1,12
96,112,66351,5,0
128,208,66793,1,0
224,240,67234,1,0
296,168,67675,2,0,B|360:120|432:168|424:248|456:280|472:272,1,200,8|4
256,192,69881,12,0,72748
136,88,79587,5,0
64,152,80028,2,0,B|16:232|104:296,1,150,2|0
89,284,80910,1,0
184,256,81351,1,0
280,280,81793,2,0,B|352:280|384:184,1,150,2|0
383,186,82675,1,0
456,120,83116,1,0
144,48,84881,5,0
112,144,85322,1,2
32,208,85763,1,4
216,272,86646,5,0
216,272,86866,1,0
216,272,87087,2,0,B|280:264|304:192,2,100,2|0|0
176,176,88410,1,0
240,96,88851,1,2
296,176,89293,1,0
384,224,89734,2,0,B|480:168|456:40,1,200,0|4
256,280,91940,5,0
256,280,92381,1,2
256,280,92822,1,0
176,224,93263,6,0,B|104:176|120:88,1,150,4|0
118,94,94146,1,8
118,94,94587,1,0
216,120,95028,2,0,B|264:200|360:184,1,150
341,186,95910,1,8
341,186,96351,1,0
408,88,96793,5,4
408,88,97234,1,4
288,248,98116,5,0
192,232,98557,2,0,B|88:216|64:88,2,200,8|4|4
280,184,100763,1,0
280,184,100984,1,0
280,184,101204,1,8
328,96,101645,1,0
400,168,102087,6,0,B|472:232|456:280,1,100
457,248,102748,1,0
457,248,102969,1,8
360,280,103410,1,0
256,192,103851,5,4
256,192,104293,1,4
144,24,105175,5,0
80,104,105616,2,4,B|24:192|56:312,2,200
408,280,108704,5,0
312,240,109145,2,6,B|200:176|80:208,1,200
264,64,110910,5,0
360,104,111351,1,0
408,192,111792,1,8
408,296,112233,1,0
304,280,112675,2,6,B|192:248|144:120,1,200
360,104,114219,5,0
360,104,114439,1,0
272,56,114880,1,0
176,80,115322,2,0,B|120:72|56:152,2,100,8|0|0
296,176,116866,1,0
296,176,117086,2,0,B|280:240|200:248,2,100,12|0|4
112,104,118851,5,12
64,192,119292,1,0
128,264,119733,1,0
224,288,120175,2,12,B|312:296|400:224|400:152|384:72,1,300,4|4
216,200,122380,5,8
112,184,122822,1,0
40,120,123263,2,6,B|32:48|120:32|168:64,1,150,6|2
145,54,124145,1,6
256,224,125027,6,0,B|312:240|336:296,2,100,0|0|8
224,184,126130,1,0
192,144,126351,1,0
280,88,126792,2,6,B|384:64|448:136,1,150,6|2
422,113,127675,1,6
400,216,128116,5,0
400,216,128336,1,0
400,216,128557,1,12
96,216,129880,5,0
128,120,130322,1,0
224,88,130763,1,0
296,160,131204,2,0,B|360:208|432:160|424:80|456:48|472:56,1,200,8|4
144,72,133410,5,0
104,160,133851,2,0,B|104:272|224:280|288:280,1,200,4|4
464,176,135837,1,4
328,32,136719,2,0,B|208:8|64:80|104:224,1,350,4|4
256,192,138484,12,4,140910
176,168,156351,5,0
248,232,156793,2,6,B|320:264|368:248,2,100,6|6|14
248,232,157895,1,0
248,232,158116,1,0
280,136,158557,2,4,B|320:72|424:64,1,150,4|0
406,65,159440,1,8
312,24,159881,1,0
216,88,160322,5,4
216,296,161204,1,4
400,192,161866,5,0
400,192,162087,2,0,B|328:168|280:232|240:184,1,150,4|0
253,196,162969,1,8
160,152,163410,1,0
160,152,163631,1,0
160,152,163851,1,0
136,56,164293,1,0
224,96,164734,6,2,B|296:128|392:136|456:96,1,200,10|2
419,112,165837,1,0
419,112,166057,1,4
456,200,166498,1,0
384,272,166940,1,4
280,280,167381,1,0
208,208,167822,1,4
256,64,168484,5,4
256,64,168704,1,12
256,64,168925,1,4
256,64,169145,1,4
88,248,170248,5,0
128,272,170469,1,8
176,272,170690,1,0
224,256,170910,2,6,B|272:176|408:160,1,200
304,40,172454,5,0
304,40,172675,1,8
208,72,173116,1,0
136,136,173557,1,0
112,232,173998,1,0
208,200,174440,2,6,B|264:144|352:184,1,150,14|2
346,181,175322,1,6
432,232,175763,5,0
472,200,175984,1,0
488,152,176204,1,8
416,72,176645,1,0
312,56,177087,1,0
232,112,177528,1,0
176,192,177969,6,4,B|64:192|40:56,2,200,12|4|12
296,280,180395,1,0
296,280,180616,1,8
368,216,181057,1,0
344,120,181498,2,6,B|280:64|200:96|136:32,1,200
48,272,183484,5,0
48,272,183704,1,0
248,248,184587,5,0
344,216,185028,2,0,B|424:176|432:88,1,150,2|0
430,100,185910,1,0
344,48,186351,1,0
344,48,186792,1,2
56,160,188135,5,0
144,208,188576,1,0
175,48,189238,1,0
175,48,189458,2,0,B|204:35|244:99|308:219|404:219|468:163,1,350,0|0
