osu file format v14

[General]
AudioFilename: stager.mp3
AudioLeadIn: 1500
PreviewTime: 53033
Countdown: 0
SampleSet: Soft
StackLeniency: 0.4
Mode: 0
LetterboxInBreaks: 1
WidescreenStoryboard: 1

[Editor]
DistanceSpacing: 1.6
BeatDivisor: 4
GridSize: 4
TimelineZoom: 1.6

[Metadata]
Title:STAGER (ALL STAGE CLEAR)
TitleUnicode:STAGER (ALL STAGE CLEAR)
Artist:Ras
ArtistUnicode:Ras
Creator:wa_
Version:Extra
Source:BMS
Tags:of fighters bof 2013 groundbreaking tech electro
BeatmapID:460042
BeatmapSetID:165765

[Difficulty]
HPDrainRate:6.5
CircleSize:4.2
OverallDifficulty:9
ApproachRate:9.2
SliderMultiplier:2.2
SliderTickRate:2

[Events]
//Background and Video events
0,0,"bg.jpg",0,0
//Break Periods
//Storyboard Layer 0 (Background)
//Storyboard Layer 1 (Fail)
//Storyboard Layer 2 (Pass)
//Storyboard Layer 3 (Foreground)
//Storyboard Sound Samples

[TimingPoints]
68,413.793103448276,4,2,1,50,1,0
13309,-100,4,2,1,50,0,0
26136,-100,4,2,1,50,0,0
26550,-100,4,2,1,70,0,0
32757,-83.3333333333333,4,2,1,70,0,0
33171,-100,4,2,1,70,0,0
52205,-71.4285714285714,4,2,1,70,0,0
52619,-83.3333333333333,4,2,1,70,0,0
53033,-83.3333333333333,4,2,1,75,0,1
65861,-83.3333333333333,4,2,1,75,0,0
66274,-83.3333333333333,4,2,1,75,0,1
79516,-100,4,2,1,65,0,0
92343,-83.3333333333333,4,2,1,65,0,0
92757,-100,4,2,1,60,0,0
99378,-100,4,2,1,70,0,0
105171,-71.4285714285714,4,2,1,40,0,0
105585,-71.4285714285714,4,2,1,55,0,0
105999,-90.9090909090909,4,2,1,75,0,1
108688,-71.4285714285714,4,2,1,75,0,1
109309,-90.9090909090909,4,2,1,75,0,1
119033,-90.9090909090909,4,2,1,75,0,0
119240,-90.9090909090909,4,2,1,75,0,1
130826,-100,4,2,1,75,0,1
132481,-100,4,2,1,70,0,0
142619,-125,4,2,1,70,0,0

[Colours]
Combo1 : 252,188,230
Combo2 : 38,170,240
Combo3 : 225,225,225
Combo4 : 98,105,191
Combo5 : 126,226,171
Combo6 : 35,86,171

[HitObjects]
312,104,68,6,0,L|432:84,1,110,2|0,0:2|0:0,0:0:0:0:
200,104,378,2,0,L|80:84,1,110,2|0,0:2|0:0,0:0:0:0:
256,180,688,1,2,0:0:0:0:
120,344,1102,2,0,P|56:344|8:308,1,110,2|2,2:0|0:3,0:0:0:0:
90,246,1412,2,0,P|154:246|202:282,1,110,0|0,0:0|0:0,0:0:0:0:
392,344,1723,6,0,P|456:344|504:308,1,110,2|0,0:0|0:0,0:0:0:0:
422,246,2033,2,0,P|358:246|310:282,1,110,2|0,0:0|0:0,0:0:0:0:
392,344,2343,1,2,0:0:0:0:
208,80,2654,5,2,0:3:0:0:
156,164,2757,2,0,P|213:179|276:152,1,110,0|2,0:0|0:3,0:0:0:0:
360,140,3068,2,0,L|420:144,1,55,0|2,0:0|0:0,0:0:0:0:
364,272,3378,6,0,L|255:266,1,110,2|0,0:0|0:0,0:0:0:0:
440,364,3688,2,0,L|499:272,1,110,2|0,0:0|0:0,0:0:0:0:
328,377,3999,1,2,0:0:0:0:
328,377,4412,2,0,P|264:356|204:372,1,110,2|0,0:0|0:0,0:0:0:0:
192,264,4723,2,0,P|137:269|87:249,1,110,2|0,0:0|0:0,0:0:0:0:
60,156,5033,6,0,L|72:44,1,110,2|0,0:0|0:0,0:0:0:0:
256,92,5343,2,0,L|256:216,1,110,2|0,0:0|0:0,0:0:0:0:
452,156,5654,2,0,L|440:44,1,110,2|0,0:0|0:0,0:0:0:0:
356,128,5964,1,0,0:0:0:0:
372,212,6068,2,0,P|412:249|472:252,1,110,2|2,0:3|0:3,0:0:0:0:
281,238,6378,2,0,P|276:210|280:183,1,55,0|0,0:0|0:0,0:0:0:0:
208,304,6688,6,0,P|156:328|96:320,1,110,2|0,0:0|0:0,0:0:0:0:
72,145,6999,2,0,P|124:121|184:129,1,110,2|0,0:0|0:0,0:0:0:0:
140,224,7309,1,2,0:0:0:0:
140,224,7723,1,0,0:0:0:0:
336,256,7930,1,2,0:3:0:0:
408,196,8033,2,0,P|392:136|424:76,1,110,2|0,0:0|0:0,0:0:0:0:
428,284,8343,6,0,P|394:335|344:352,1,110,0|0,0:0|0:0,0:0:0:0:
238,222,8654,2,0,P|299:225|338:260,1,110,0|0,0:0|0:0,0:0:0:0:
260,312,8964,1,2,0:0:0:0:
88,160,9274,5,2,0:0:0:0:
88,160,9378,1,2,0:0:0:0:
238,222,9585,1,2,0:0:0:0:
276,300,9688,1,0,0:0:0:0:
316,380,9792,1,2,0:0:0:0:
332,224,9999,6,0,L|344:108,1,110,2|0,0:0|0:0,0:0:0:0:
444,196,10309,2,0,L|456:80,1,110,2|0,0:0|0:0,0:0:0:0:
416,284,10619,1,2,0:0:0:0:
416,284,11033,2,0,P|356:264|288:288,1,110,2|2,0:2|0:3,0:0:0:0:
244,324,11343,1,0,0:0:0:0:
156,304,11447,1,0,0:0:0:0:
281,74,11654,6,0,L|292:184,1,110,2|0,0:0|0:0,0:0:0:0:
436,268,11964,2,0,L|425:158,1,110,2|0,0:0|0:0,0:0:0:0:
332,276,12274,2,0,L|228:364,1,110,2|0,0:0|0:0,0:0:0:0:
168,384,12585,1,2,0:3:0:0:
84,352,12688,1,2,0:0:0:0:
52,180,12895,1,2,0:0:0:0:
244,56,13102,5,0,0:0:0:0:
328,81,13205,1,0,0:0:0:0:
263,141,13309,1,0,1:0:0:0:
268,148,13619,5,2,0:0:0:0:
268,148,13723,1,2,1:3:0:0:
440,148,13930,2,0,P|380:176|360:224,1,110,2|0,0:0|0:0,0:0:0:0:
188,372,14343,2,0,P|159:319|107:290,1,110,0|2,1:0|1:3,0:0:0:0:
60,228,14654,1,2,0:0:0:0:
80,144,14757,1,0,0:0:0:0:
328,124,14964,6,0,L|216:156,1,110,0|0,1:0|0:0,0:0:0:0:
280,312,15274,2,0,L|385:281,1,110,0|0,0:0|0:0,0:0:0:0:
420,188,15585,1,0,0:0:0:0:
144,204,15792,1,2,0:0:0:0:
144,204,15895,1,2,0:0:0:0:
144,204,15999,2,0,P|128:152|152:92,1,110,0|2,1:0|1:3,0:0:0:0:
224,60,16309,2,0,L|284:64,1,55,0|2,1:0|0:0,0:0:0:0:
313,240,16619,6,0,B|368:256|368:256|420:244,1,110,0|0,1:0|0:0,0:0:0:0:
198,240,16930,2,0,B|144:256|144:256|92:244,1,110,2|0,0:3|0:0,0:0:0:0:
256,172,17240,1,2,0:3:0:0:
420,244,17447,5,2,0:0:0:0:
256,328,17654,1,0,1:0:0:0:
420,244,17861,1,2,1:3:0:0:
500,276,17964,2,0,P|506:231|471:173,1,110,2|0,0:0|0:0,0:0:0:0:
308,240,18274,6,0,P|256:256|204:240,1,110,0|0,1:0|0:0,0:0:0:0:
140,120,18585,2,0,L|116:228,1,110,2|0,0:0|0:0,0:0:0:0:
372,120,18895,2,0,L|396:228,1,110,2|0,0:0|0:0,0:0:0:0:
369,311,19205,1,0,1:0:0:0:
292,352,19309,2,0,P|236:344|176:368,2,110,0|2|0,1:0|3:2|1:0,0:0:0:0:
369,311,19826,1,0,1:0:0:0:
428,244,19930,6,0,P|448:188|428:136,1,110,0|2,0:0|0:0,0:0:0:0:
356,108,20240,1,2,0:0:0:0:
286,157,20343,2,0,P|218:177|162:149,1,110,0|0,0:0|3:0,0:0:0:0:
230,89,20757,1,2,0:0:0:0:
432,142,20964,1,0,1:0:0:0:
256,272,21171,1,2,1:2:0:0:
180,312,21274,1,0,3:0:0:0:
92,292,21378,1,2,0:0:0:0:
262,166,21585,6,0,P|272:219|256:272,1,110,0|2,1:0|0:0,0:0:0:0:
346,162,21895,2,0,P|389:127|442:115,1,110,0|0,0:0|0:0,0:0:0:0:
302,90,22205,1,4,3:2:0:0:
356,344,22412,1,0,0:0:0:0:
444,356,22516,1,0,0:0:0:0:
508,300,22619,2,0,L|492:184,1,110,2|2,1:2|1:3,0:0:0:0:
368,200,22930,2,0,L|376:262,1,55,4|10,1:3|1:3,0:0:0:0:
424,100,23240,6,0,P|400:56|340:28,1,110,0|2,1:0|0:0,0:0:0:0:
264,64,23550,1,0,0:0:0:0:
216,148,23654,2,0,P|240:192|300:220,1,110,0|0,0:0|0:0,0:0:0:0:
180,300,24068,2,0,P|126:292|74:309,2,110,2|0|2,3:2|1:0|1:3,0:0:0:0:
264,332,24585,2,0,P|292:336|324:332,1,55,2|0,3:2|0:0,0:0:0:0:
424,192,24895,5,0,1:0:0:0:
260,4,25102,1,0,0:0:0:0:
237,88,25205,1,0,0:0:0:0:
320,120,25309,2,0,P|348:116|384:124,1,55,2|2,0:0|0:0,0:0:0:0:
424,192,25516,1,0,0:0:0:0:
396,276,25619,1,0,0:0:0:0:
228,344,25826,5,2,0:0:0:0:
228,344,25878,1,0,0:0:0:0:
228,344,25930,2,0,P|194:351|162:347,1,55,0|2,0:0|0:0,0:0:0:0:
11,334,26136,2,0,P|50:296|104:288,1,110,8|4,0:3|0:3,0:0:0:0:
93,375,26447,1,4,0:3:0:0:
290,281,26550,6,0,L|398:305,1,110,4|0,1:0|0:0,0:0:0:0:
356,152,26861,1,2,3:2:0:0:
356,152,26964,2,0,L|248:128,1,110,0|0,1:0|0:0,0:0:0:0:
216,212,27378,1,0,1:0:0:0:
276,44,27585,1,0,0:0:0:0:
440,192,27792,1,0,1:0:0:0:
440,192,27895,1,0,0:0:0:0:
440,192,27999,1,0,0:0:0:0:
216,212,28205,6,0,L|84:200,1,110,2|0,1:2|0:0,0:0:0:0:
64,124,28516,1,0,0:0:0:0:
108,48,28619,1,0,1:0:0:0:
20,200,28826,1,0,0:0:0:0:
164,348,29033,1,2,1:2:0:0:
244,316,29136,1,0,0:0:0:0:
324,356,29240,2,0,P|388:360|436:332,1,110,0|0,0:0|1:0,0:0:0:0:
444,252,29550,1,0,0:0:0:0:
406,172,29654,1,0,0:0:0:0:
152,224,29861,6,0,P|176:168|156:108,1,110,2|0,1:3|0:0,0:0:0:0:
284,132,30171,2,0,L|340:140,1,55,0|0,0:0|1:0,0:0:0:0:
444,252,30481,1,0,0:0:0:0:
256,328,30688,1,0,1:0:0:0:
284,132,30895,1,0,0:0:0:0:
444,252,31102,1,0,1:0:0:0:
444,252,31205,1,0,0:0:0:0:
444,252,31309,1,0,0:0:0:0:
264,120,31516,6,0,L|152:104,1,110,2|2,1:3|0:0,0:0:0:0:
88,164,31826,1,2,0:0:0:0:
60,248,31930,2,0,P|72:272|69:311,1,55,0|0,1:0|0:0,0:0:0:0:
184,360,32136,1,0,0:0:0:0:
260,316,32240,2,0,P|312:296|364:308,1,110,0|0,1:0|0:0,0:0:0:0:
384,320,32499,1,0,0:0:0:0:
404,332,32550,2,0,L|472:340,1,55,0|0,1:0|0:0,0:0:0:0:
500,240,32757,6,0,L|491:173,1,65.9999979858399,0|2,1:0|0:0,0:0:0:0:
408,124,32964,2,0,L|399:57,1,65.9999979858399,0|0,1:0|1:0,0:0:0:0:
328,188,33171,6,0,P|280:204|212:184,1,110,0|2,1:0|0:0,0:0:0:0:
160,76,33481,1,0,1:0:0:0:
160,76,33585,2,0,P|208:60|276:80,1,110,0|0,0:0|1:0,0:0:0:0:
376,304,33999,5,2,1:3:0:0:
376,304,34102,1,0,0:0:0:0:
376,304,34205,2,0,L|349:193,1,110,0|0,0:0|1:0,0:0:0:0:
260,188,34516,1,2,1:2:0:0:
172,176,34619,1,0,0:0:0:0:
372,188,34826,6,0,L|486:199,1,110,0|0,1:0|0:0,0:0:0:0:
418,31,35136,1,0,0:0:0:0:
418,31,35240,2,0,L|303:20,2,110,2|0|0,1:3|0:0|1:0,0:0:0:0:
450,115,35757,1,2,0:0:0:0:
482,199,35861,1,2,0:0:0:0:
197,303,36068,1,0,1:0:0:0:
208,260,36171,1,2,0:0:0:0:
218,217,36274,1,2,0:0:0:0:
399,195,36481,6,0,P|410:248|391:299,1,110,0|2,1:0|0:0,0:0:0:0:
340,128,36792,1,0,1:0:0:0:
400,64,36895,2,0,L|512:56,2,110,0|2|2,0:0|3:2|1:3,0:0:0:0:
256,32,37412,1,2,3:2:0:0:
256,32,37516,1,0,1:0:0:0:
80,180,37723,1,2,1:2:0:0:
52,264,37826,1,0,1:0:0:0:
108,332,37930,1,0,0:0:0:0:
404,332,38136,6,0,P|436:280|436:228,1,110,2|2,1:2|0:0,0:0:0:0:
376,164,38447,1,2,0:0:0:0:
287,254,38550,2,0,P|314:257|342:256,2,55,2|0|2,1:2|0:0|0:0,0:0:0:0:
204,216,38861,1,0,0:0:0:0:
132,264,38964,1,2,1:2:0:0:
56,312,39068,1,2,0:0:0:0:
240,384,39274,5,2,0:0:0:0:
216,208,39481,1,2,0:0:0:0:
192,32,39688,1,2,0:0:0:0:
264,84,39792,6,0,P|312:92|372:64,1,110,4|0,3:2|0:0,0:0:0:0:
470,155,40102,2,0,P|417:148|368:171,1,110,0|0,3:0|0:0,0:0:0:0:
336,256,40412,2,0,L|340:328,1,55,0|2,3:0|0:0,0:0:0:0:
240,376,40619,1,0,3:0:0:0:
200,384,40723,1,2,3:2:0:0:
164,376,40826,1,0,0:0:0:0:
133,352,40930,2,0,B|128:296|128:296|92:252,1,110,0|0,0:0|0:0,0:0:0:0:
8,160,41240,2,0,L|14:230,1,55,0|0,0:0|0:0,0:0:0:0:
96,168,41447,6,0,L|85:48,1,110,0|0,3:0|0:0,0:0:0:0:
204,96,41757,2,0,L|214:205,1,110,2|0,0:0|0:0,0:0:0:0:
296,168,42068,1,2,0:0:0:0:
364,116,42171,1,0,0:0:0:0:
444,148,42274,1,2,3:2:0:0:
440,188,42378,1,2,3:2:0:0:
436,224,42481,1,0,0:0:0:0:
376,300,42585,2,0,P|320:311|267:291,1,110,0|0,0:0|0:0,0:0:0:0:
212,216,42895,1,2,0:0:0:0:
212,216,42999,1,0,0:0:0:0:
212,216,43102,6,0,P|160:200|100:216,1,110,2|2,3:2|0:0,0:0:0:0:
228,128,43412,2,0,P|267:90|284:31,1,110,2|2,3:2|0:0,0:0:0:0:
300,184,43723,2,0,P|296:220|308:256,1,55,2|0,0:0|0:0,0:0:0:0:
364,304,43930,1,0,3:0:0:0:
400,308,44033,1,2,3:2:0:0:
436,312,44136,1,0,0:0:0:0:
472,316,44240,1,0,0:0:0:0:
508,320,44343,2,0,L|504:264,1,55,2|0,3:2|0:0,0:0:0:0:
440,196,44550,2,0,L|436:140,1,55,2|0,0:0|0:0,0:0:0:0:
272,240,44757,5,2,3:0:0:0:
296,212,44861,1,0,3:0:0:0:
320,184,44964,1,2,3:2:0:0:
136,212,45171,1,2,3:2:0:0:
148,246,45275,1,0,3:0:0:0:
160,281,45378,1,2,3:2:0:0:
265,65,45585,5,2,3:2:0:0:
234,22,45688,1,2,3:2:0:0:
184,38,45792,1,2,3:2:0:0:
184,91,45895,1,2,3:2:0:0:
234,107,45999,1,0,3:0:0:0:
444,64,46205,1,2,3:0:0:0:
408,264,46412,5,4,1:2:0:0:
256,336,46619,1,0,0:0:0:0:
216,328,46723,1,2,0:0:0:0:
180,320,46826,2,0,L|168:256,1,55,0|0,0:0|0:0,0:0:0:0:
84,224,47033,2,0,L|73:169,1,55,2|0,3:2|0:0,0:0:0:0:
132,104,47240,5,0,3:0:0:0:
212,148,47343,1,0,0:0:0:0:
300,148,47447,1,2,1:2:0:0:
380,104,47550,1,0,0:0:0:0:
452,160,47654,1,0,0:0:0:0:
440,196,47757,1,2,0:0:0:0:
429,232,47861,1,0,3:0:0:0:
418,268,47964,1,0,3:0:0:0:
403,305,48068,6,0,P|344:324|296:312,1,110,2|0,1:2|0:0,0:0:0:0:
284,148,48378,2,0,P|343:129|391:141,1,110,2|0,3:2|0:0,0:0:0:0:
344,228,48688,1,2,3:2:0:0:
344,228,48792,1,0,0:0:0:0:
344,228,48895,2,0,L|290:232,1,55,2|0,3:0|0:0,0:0:0:0:
176,249,49102,2,0,L|121:252,1,55,2|0,1:2|0:0,0:0:0:0:
43,144,49309,2,0,L|98:141,1,55,0|0,3:0|1:0,0:0:0:0:
212,124,49516,2,0,L|266:120,1,55,2|0,3:0|0:0,0:0:0:0:
390,196,49723,6,0,P|395:250|371:299,1,110,2|0,1:2|0:0,0:0:0:0:
284,304,50033,1,2,0:2:0:0:
200,360,50136,2,0,L|140:356,1,55,2|0,3:2|0:0,0:0:0:0:
72,288,50343,2,0,L|12:284,1,55,2|0,3:2|0:0,0:0:0:0:
108,200,50550,1,2,0:0:0:0:
132,172,50654,1,2,3:2:0:0:
156,144,50757,1,0,0:0:0:0:
180,116,50861,1,0,0:0:0:0:
204,88,50964,2,0,L|264:80,1,55,0|0,1:0|0:0,0:0:0:0:
349,147,51171,2,0,L|404:140,1,55,0|0,1:0|0:0,0:0:0:0:
488,208,51378,5,0,1:0:0:0:
484,248,51481,1,0,0:0:0:0:
480,288,51585,1,2,0:0:0:0:
264,220,51792,5,0,1:0:0:0:
268,180,51896,1,0,0:0:0:0:
272,140,51999,1,2,0:0:0:0:
268,352,52205,6,0,P|228:364|180:360,1,76.9999976501466,2|0,1:2|0:0,0:0:0:0:
0,296,52412,2,0,P|40:284|88:288,1,76.9999976501466,2|0,0:0|0:0,0:0:0:0:
160,288,52619,5,2,0:0:0:0:
176,200,52826,1,2,0:0:0:0:
192,112,53033,6,0,L|340:96,1,131.99999597168,4|2,1:0|0:0,0:0:0:0:
400,136,53343,1,2,0:2:0:0:
436,216,53447,2,0,P|440:248|428:280,1,65.9999979858399,10|0,1:2|0:0,0:0:0:0:
300,360,53654,2,0,P|269:370|236:365,1,65.9999979858399,0|0,0:0|0:0,0:0:0:0:
164,308,53861,5,0,1:0:0:0:
112,232,53964,1,0,0:0:0:0:
124,140,54068,1,0,0:0:0:0:
180,68,54171,2,0,P|247:50|307:74,1,131.99999597168,10|0,1:2|0:0,0:0:0:0:
384,168,54481,2,0,L|377:248,1,65.9999979858399,2|0,1:2|0:0,0:0:0:0:
460,312,54688,6,0,L|472:172,1,131.99999597168,2|0,1:2|0:0,0:0:0:0:
420,100,54999,1,2,0:0:0:0:
332,64,55102,2,0,L|264:56,1,65.9999979858399,8|0,1:2|0:0,0:0:0:0:
320,192,55309,2,0,L|385:199,1,65.9999979858399,2|2,0:0|0:0,0:0:0:0:
244,300,55516,6,0,L|178:292,1,65.9999979858399,0|2,1:0|0:0,0:0:0:0:
96,248,55723,1,2,0:0:0:0:
44,172,55826,2,0,P|76:108|52:40,1,131.99999597168,8|0,1:2|0:0,0:0:0:0:
164,168,56136,2,0,P|195:158|244:160,1,65.9999979858399,0|0,1:0|0:0,0:0:0:0:
312,120,56343,6,0,P|294:57|328:0,1,131.99999597168,0|0,1:0|0:0,0:0:0:0:
484,238,56654,1,2,0:0:0:0:
420,294,56757,1,8,1:2:0:0:
336,270,56861,1,0,0:0:0:0:
312,186,56964,2,0,L|312:110,1,65.9999979858399,2|2,0:0|0:0,0:0:0:0:
146,84,57171,5,0,1:0:0:0:
117,165,57274,1,0,0:0:0:0:
144,248,57378,1,0,0:0:0:0:
224,276,57481,2,0,P|288:280|340:340,1,131.99999597168,10|0,1:2|0:0,0:0:0:0:
436,264,57792,2,0,P|444:228|436:184,1,65.9999979858399,8|0,1:2|0:0,0:0:0:0:
336,72,57999,5,0,1:2:0:0:
259,56,58102,1,0,0:0:0:0:
188,88,58205,2,0,P|152:96|112:92,1,65.9999979858399,2|0,3:2|0:0,0:0:0:0:
328,320,58412,5,8,1:2:0:0:
379,261,58515,1,0,0:0:0:0:
392,184,58619,2,0,P|408:144|424:124,1,65.9999979858399,0|0,3:2|0:0,0:0:0:0:
130,193,58826,5,0,1:0:0:0:
81,271,58930,1,0,0:0:0:0:
139,340,59033,1,2,0:2:0:0:
225,307,59136,1,8,0:2:0:0:
218,215,59240,1,2,1:2:0:0:
52,120,59447,1,10,1:2:0:0:
460,120,59654,5,0,1:0:0:0:
304,292,59861,1,2,0:0:0:0:
348,228,59964,1,2,0:0:0:0:
340,148,60068,1,10,1:2:0:0:
280,96,60171,1,0,0:0:0:0:
200,92,60274,2,0,P|168:100|128:92,1,65.9999979858399,2|0,0:0|0:0,0:0:0:0:
60,252,60481,5,0,1:0:0:0:
136,268,60585,1,0,0:0:0:0:
208,236,60688,1,0,0:0:0:0:
248,168,60792,2,0,P|300:140|384:160,1,131.99999597168,10|0,1:2|0:0,0:0:0:0:
452,232,61102,2,0,P|456:268|441:306,1,65.9999979858399,2|0,1:2|0:0,0:0:0:0:
348,348,61309,6,0,L|280:340,1,65.9999979858399,0|0,1:0|0:0,0:0:0:0:
184,384,61516,1,2,0:0:0:0:
176,300,61619,1,2,0:0:0:0:
172,212,61723,1,10,1:2:0:0:
164,128,61826,1,2,0:0:0:0:
156,44,61930,2,0,P|184:24|236:20,1,65.9999979858399,2|2,0:0|0:0,0:0:0:0:
324,92,62136,6,0,P|296:112|244:116,2,65.9999979858399,2|0|0,1:2|0:0|0:0,0:0:0:0:
444,120,62447,2,0,P|467:179|445:240,1,131.99999597168,10|0,1:2|0:0,0:0:0:0:
360,256,62757,1,10,1:2:0:0:
156,44,62964,6,0,P|92:28|28:56,1,131.99999597168,0|2,1:0|0:0,0:0:0:0:
0,140,63274,1,2,0:0:0:0:
20,232,63378,2,0,L|8:300,1,65.9999979858399,10|2,1:2|0:0,0:0:0:0:
100,316,63585,2,0,L|111:251,1,65.9999979858399,2|0,0:0|0:0,0:0:0:0:
232,188,63792,5,0,1:0:0:0:
316,180,63895,1,0,0:0:0:0:
392,220,63999,1,0,0:0:0:0:
436,292,64102,2,0,P|389:304|320:264,1,131.99999597168,10|0,1:2|0:0,0:0:0:0:
420,379,64412,2,0,P|453:379|484:368,1,65.9999979858399,10|0,1:2|0:0,0:0:0:0:
272,320,64619,5,0,1:0:0:0:
192,296,64722,1,0,0:0:0:0:
108,312,64826,2,0,P|74:248|96:176,1,131.99999597168,2|8,3:2|1:2,0:0:0:0:
128,116,65136,1,0,0:0:0:0:
108,40,65240,1,0,3:2:0:0:
192,296,65447,5,8,1:2:0:0:
243,361,65550,1,2,0:0:0:0:
325,384,65654,1,2,0:2:0:0:
409,368,65757,1,0,0:0:0:0:
468,305,65861,1,4,1:3:0:0:
340,92,66068,1,10,0:3:0:0:
252,228,66274,6,0,P|176:240|112:208,1,131.99999597168,4|0,1:0|0:0,0:0:0:0:
64,140,66585,1,0,0:0:0:0:
128,68,66688,2,0,L|136:0,1,65.9999979858399,10|2,1:2|0:0,0:0:0:0:
8,216,66895,2,0,L|-2:300,1,65.9999979858399,2|2,0:0|0:0,0:0:0:0:
120,336,67102,5,0,1:0:0:0:
204,348,67205,1,0,0:0:0:0:
256,276,67309,1,0,0:0:0:0:
208,192,67412,2,0,P|188:128|220:48,1,131.99999597168,8|0,1:2|0:0,0:0:0:0:
292,20,67723,2,0,P|324:16|360:20,1,65.9999979858399,0|0,1:0|0:0,0:0:0:0:
440,76,67930,6,0,P|457:138|437:200,1,131.99999597168,0|2,1:0|0:0,0:0:0:0:
352,256,68240,1,2,0:0:0:0:
248,228,68343,2,0,L|180:223,1,65.9999979858399,10|2,1:2|0:0,0:0:0:0:
108,320,68550,2,0,L|173:324,1,65.9999979858399,2|2,0:0|0:0,0:0:0:0:
348,296,68757,5,2,1:2:0:0:
372,220,68861,1,0,0:0:0:0:
352,144,68964,1,0,0:0:0:0:
300,84,69068,2,0,L|168:72,1,131.99999597168,10|0,1:2|0:0,0:0:0:0:
60,192,69378,2,0,L|139:199,1,65.9999979858399,2|0,1:2|0:0,0:0:0:0:
226,322,69585,6,0,P|283:290|348:296,1,131.99999597168,0|2,1:0|0:0,0:0:0:0:
436,296,69895,1,2,0:0:0:0:
496,232,69999,2,0,L|488:164,1,65.9999979858399,10|0,1:2|0:0,0:0:0:0:
379,149,70205,2,0,L|372:84,1,65.9999979858399,0|2,0:0|0:0,0:0:0:0:
276,72,70412,5,2,1:2:0:0:
188,96,70516,1,0,0:0:0:0:
132,168,70619,1,0,0:0:0:0:
116,260,70723,2,0,P|140:324|196:360,1,131.99999597168,10|0,1:2|0:0,0:0:0:0:
272,312,71033,1,2,1:3:0:0:
352,356,71136,1,0,0:0:0:0:
428,300,71240,6,0,L|460:240,2,65.9999979858399,0|2|0,1:0|0:0|0:0,0:0:0:0:
188,352,71654,2,0,L|132:312,2,65.9999979858399,0|2|0,1:0|0:0|0:0,0:0:0:0:
264,57,72068,5,2,1:2:0:0:
180,12,72171,1,2,0:0:0:0:
112,79,72274,1,2,1:2:0:0:
153,165,72378,1,2,0:0:0:0:
248,152,72481,1,10,1:3:0:0:
278,29,72688,1,4,0:0:0:0:
416,136,72895,5,0,1:0:0:0:
250,201,73102,1,2,0:2:0:0:
224,284,73205,1,2,0:0:0:0:
272,356,73309,2,0,P|312:352|344:332,1,65.9999979858399,10|2,1:2|0:0,0:0:0:0:
165,213,73516,2,0,P|125:217|93:237,1,65.9999979858399,2|0,0:0|0:0,0:0:0:0:
224,284,73723,2,0,P|264:220|236:148,1,131.99999597168,2|2,1:2|0:0,0:0:0:0:
290,69,74033,2,0,P|343:106|408:104,1,131.99999597168,8|0,1:2|0:0,0:0:0:0:
371,17,74343,1,8,1:2:0:0:
141,17,74550,5,0,1:0:0:0:
84,256,74757,1,2,0:0:0:0:
84,256,74861,1,2,0:0:0:0:
84,256,74964,1,10,1:2:0:0:
160,284,75068,1,2,0:0:0:0:
240,292,75171,1,0,0:0:0:0:
316,276,75274,1,0,0:0:0:0:
376,220,75378,2,0,P|372:189|388:153,2,65.9999979858399,2|2|2,1:2|0:0|0:0,0:0:0:0:
484,252,75688,2,0,P|504:196|480:124,1,131.99999597168,10|0,1:2|0:0,0:0:0:0:
416,11,75999,2,0,P|409:43|416:76,1,65.9999979858399,10|0,1:2|0:0,0:0:0:0:
316,96,76205,6,0,B|252:108|252:108|184:92,1,131.99999597168,0|2,1:0|0:0,0:0:0:0:
104,120,76516,1,2,0:0:0:0:
56,192,76619,2,0,L|64:260,1,65.9999979858399,10|2,1:2|0:0,0:0:0:0:
180,246,76826,2,0,L|188:312,1,65.9999979858399,2|2,0:0|0:0,0:0:0:0:
296,176,77033,2,0,L|306:254,1,65.9999979858399,2|0,1:2|0:0,0:0:0:0:
412,292,77240,1,0,0:0:0:0:
472,224,77343,2,0,L|452:80,1,131.99999597168,10|0,1:2|0:0,0:0:0:0:
384,40,77654,2,0,P|348:32|316:36,1,65.9999979858399,10|0,1:2|0:0,0:0:0:0:
268,112,77861,5,0,1:0:0:0:
263,189,77964,1,0,0:0:0:0:
261,266,78068,2,0,L|240:335,1,65.9999979858399,2|0,0:0|0:0,0:0:0:0:
378,347,78274,5,8,1:2:0:0:
379,269,78378,1,0,0:0:0:0:
381,191,78481,2,0,L|400:125,1,65.9999979858399,2|0,0:0|0:0,0:0:0:0:
120,72,78688,5,8,1:3:0:0:
108,152,78791,1,8,1:3:0:0:
152,220,78895,1,4,1:3:0:0:
140,300,78999,1,4,1:3:0:0:
184,364,79102,1,6,1:2:0:0:
328,20,79309,5,2,0:0:0:0:
184,364,79516,6,0,P|241:338|300:348,1,110,4|2,1:0|0:0,0:0:0:0:
364,328,79826,1,2,1:2:0:0:
420,272,79930,2,0,L|428:152,1,110,0|0,1:0|1:0,0:0:0:0:
260,68,80343,1,2,1:2:0:0:
260,68,80447,1,2,0:0:0:0:
260,68,80550,2,0,L|252:177,1,110,2|2,1:3|1:2,0:0:0:0:
76,248,80861,2,0,L|83:182,1,55,2|2,0:3|0:0,0:0:0:0:
0,312,81171,6,0,P|36:340|104:340,1,110,0|2,1:1|0:0,0:0:0:0:
176,312,81481,1,0,1:2:0:0:
252,344,81585,2,0,L|372:328,1,110,0|0,0:0|1:0,0:0:0:0:
488,176,81999,2,0,L|512:116,2,55,2|0|0,1:3|0:0|1:0,0:0:0:0:
388,280,82412,1,0,1:0:0:0:
316,311,82516,1,2,0:0:0:0:
252,273,82619,1,0,1:0:0:0:
53,138,82826,6,0,L|160:112,1,110,0|2,1:0|0:0,0:0:0:0:
150,221,83136,2,0,L|43:247,1,110,0|2,1:0|0:0,0:0:0:0:
33,358,83447,2,0,L|140:332,2,110,0|2|0,1:0|1:3|1:0,0:0:0:0:
252,244,84068,1,0,1:0:0:0:
252,244,84171,1,0,1:0:0:0:
252,244,84274,1,0,0:0:0:0:
260,64,84481,6,0,P|223:15|172:-1,1,110,0|2,1:0|0:0,0:0:0:0:
334,132,84792,1,2,0:0:0:0:
334,132,84895,2,0,P|357:76|346:23,1,110,0|2,1:0|0:0,0:0:0:0:
320,228,85205,1,0,0:0:0:0:
320,228,85309,2,0,P|380:220|400:208,1,55,0|0,1:0|0:0,0:0:0:0:
228,212,85516,2,0,P|200:207|173:211,1,55,0|0,0:0|0:0,0:0:0:0:
85,234,85723,1,2,1:2:0:0:
68,148,85826,1,0,1:0:0:0:
68,148,85878,1,0,0:0:0:0:
68,148,85930,2,0,L|72:76,1,55,2|0,1:2|1:0,0:0:0:0:
168,16,86136,6,0,L|164:125,1,110,4|0,1:0|0:0,0:0:0:0:
347,125,86447,2,0,L|344:16,1,110,10|0,1:2|0:0,0:0:0:0:
256,200,86757,1,10,1:2:0:0:
84,236,86964,1,0,1:1:0:0:
208,360,87171,1,2,1:3:0:0:
256,200,87378,1,8,1:2:0:0:
236,116,87481,1,0,0:0:0:0:
256,28,87585,1,2,0:0:0:0:
499,195,87792,6,0,P|448:214|396:201,1,110,0|2,1:0|0:0,0:0:0:0:
236,116,88102,2,0,P|278:149|293:201,1,110,8|2,1:2|0:0,0:0:0:0:
291,378,88412,2,0,P|298:324|336:285,1,110,8|0,1:2|1:0,0:0:0:0:
392,224,88723,1,0,0:0:0:0:
356,148,88826,2,0,L|352:32,1,110,2|8,1:2|1:2,0:0:0:0:
264,8,89136,2,0,P|232:4|200:12,1,55,2|2,0:0|0:0,0:0:0:0:
48,144,89447,6,0,B|60:200|60:200|44:264,1,110,0|0,1:0|0:0,0:0:0:0:
152,356,89757,2,0,B|139:304|139:304|151:248,1,110,8|0,1:2|0:0,0:0:0:0:
244,300,90068,1,8,1:2:0:0:
404,328,90274,1,0,1:0:0:0:
404,328,90378,1,0,0:0:0:0:
404,328,90481,2,0,P|380:268|396:216,1,110,0|8,0:0|1:2,0:0:0:0:
440,160,90792,2,0,P|464:100|448:48,1,110,0|0,0:0|0:0,0:0:0:0:
376,32,91102,6,0,L|248:44,1,110,2|0,1:2|0:0,0:0:0:0:
297,129,91412,2,0,L|188:140,1,110,2|0,1:3|0:0,0:0:0:0:
220,228,91723,2,0,L|92:240,1,110,2|0,1:2|0:0,0:0:0:0:
141,325,92033,2,0,L|31:335,1,110,6|0,1:2|0:0,0:0:0:0:
16,244,92343,6,0,L|40:168,1,65.9999979858399,0|0,1:0|1:0,0:0:0:0:
128,144,92550,2,0,L|152:68,1,65.9999979858399,2|0,1:2|0:0,0:0:0:0:
236,32,92757,5,4,1:0:0:0:
320,100,92964,2,0,P|380:112|432:92,1,110,0|2,0:0|0:3,0:0:0:0:
256,170,93274,2,0,P|275:227|318:262,1,110,0|2,0:0|0:0,0:0:0:0:
160,152,93585,2,0,P|119:197|110:252,1,110,0|2,0:0|0:0,0:0:0:0:
125,57,93895,2,0,P|65:45|13:65,1,110,2|2,0:3|0:0,0:0:0:0:
19,60,94205,1,2,0:3:0:0:
224,68,94412,5,0,0:0:0:0:
224,68,94516,2,0,L|336:56,1,110,2|0,0:0|0:0,0:0:0:0:
360,252,94826,2,0,L|293:161,1,110,2|0,0:3|0:0,0:0:0:0:
452,42,95136,2,0,L|406:144,1,110,2|0,0:0|0:0,0:0:0:0:
360,252,95447,6,0,L|400:308,1,55,2|0,0:3|0:0,0:0:0:0:
312,360,95654,2,0,L|280:315,1,55,2|0,0:3|0:0,0:0:0:0:
188,336,95861,1,2,0:3:0:0:
104,312,95964,1,2,0:0:0:0:
48,244,96068,1,2,0:3:0:0:
108,36,96274,6,0,P|158:9|216:23,1,110,2|2,0:0|0:3,0:0:0:0:
198,189,96585,2,0,P|200:131|241:88,1,110,2|0,0:0|0:0,0:0:0:0:
376,204,96895,2,0,P|327:172|310:116,1,110,2|0,0:0|0:0,0:0:0:0:
464,49,97206,2,0,P|413:75|355:61,1,110,2|0,0:3|0:0,0:0:0:0:
288,32,97516,1,2,0:3:0:0:
80,116,97723,5,0,0:0:0:0:
80,116,97826,2,0,P|56:172|72:224,1,110,2|0,0:2|0:0,0:0:0:0:
256,268,98136,2,0,P|280:212|264:160,1,110,2|0,0:3|0:0,0:0:0:0:
246,127,98447,1,2,0:0:0:0:
246,83,98550,1,0,0:0:0:0:
272,47,98654,2,0,B|325:32|325:32|400:55,1,110,0|2,0:0|0:3,0:0:0:0:
440,112,98964,2,0,L|436:184,1,55,0|0,0:0|0:0,0:0:0:0:
352,240,99171,2,0,L|348:294,1,55,2|0,0:3|0:0,0:0:0:0:
240,224,99378,5,4,0:0:0:0:
178,136,99585,1,2,0:0:0:0:
156,106,99688,1,2,0:3:0:0:
288,130,99895,1,2,0:0:0:0:
302,96,99998,1,2,0:3:0:0:
347,214,100205,1,2,0:0:0:0:
384,210,100308,1,2,0:3:0:0:
308,319,100516,1,2,0:0:0:0:
330,348,100619,1,2,0:3:0:0:
205,328,100826,1,2,0:0:0:0:
190,362,100929,1,0,0:0:0:0:
134,248,101136,6,0,P|81:238|32:261,1,110,2|0,0:3|0:0,0:0:0:0:
68,91,101447,2,0,P|121:101|170:78,1,110,2|0,0:3|0:0,0:0:0:0:
309,9,101757,2,0,P|273:51|269:105,1,110,2|0,0:0|0:0,0:0:0:0:
268,256,102068,2,0,P|249:205|204:174,1,110,2|2,0:3|0:3,0:0:0:0:
416,128,102481,1,2,0:3:0:0:
441,91,102585,1,0,0:0:0:0:
447,45,102688,1,0,0:0:0:0:
420,224,102895,6,0,P|460:268|508:276,1,110,2|2,0:0|0:3,0:0:0:0:
313,292,103205,2,0,L|332:184,1,110,2|0,0:0|0:0,0:0:0:0:
180,184,103516,2,0,L|200:300,1,110,2|0,0:0|0:0,0:0:0:0:
4,276,103826,2,0,P|57:265|92:224,1,110,2|0,0:3|0:0,0:0:0:0:
96,136,104136,1,2,0:3:0:0:
264,228,104343,5,2,0:0:0:0:
264,228,104447,2,0,L|380:212,1,110,0|0,0:0|0:0,0:0:0:0:
424,304,104757,1,2,0:3:0:0:
424,304,104861,2,0,L|315:319,1,110
200,320,105171,5,8,3:0:0:0:
184,317,105239,1,4,3:0:0:0:
169,314,105308,1,4,3:0:0:0:
154,311,105377,1,4,3:0:0:0:
139,308,105446,1,4,3:0:0:0:
124,305,105515,1,4,3:0:0:0:
109,302,105585,5,8,3:0:0:0:
88,279,105653,1,8,3:0:0:0:
73,252,105722,1,8,3:0:0:0:
65,222,105791,1,8,3:0:0:0:
65,191,105860,1,8,3:0:0:0:
71,161,105929,1,8,3:0:0:0:
85,134,105999,6,0,P|96:104|88:68,1,60.5000018463135,4|0,1:0|0:0,0:0:0:0:
192,56,106205,2,0,L|312:48,1,121.000003692627,2|8,1:2|1:2,0:0:0:0:
348,248,106516,2,0,L|281:148,1,121.000003692627,2|0,1:2|0:0,0:0:0:0:
436,20,106826,2,0,L|382:127,1,121.000003692627,2|0,1:2|0:0,0:0:0:0:
192,56,107136,2,0,L|312:48,1,121.000003692627,10|0,1:2|0:0,0:0:0:0:
313,48,107447,1,10,1:2:0:0:
404,328,107654,5,0,1:0:0:0:
404,328,107757,2,0,P|344:344|280:312,1,121.000003692627,2|0,1:2|0:0,0:0:0:0:
213,283,108068,1,8,1:2:0:0:
136,324,108171,2,0,P|64:328|20:296,1,121.000003692627,2|2,0:0|1:2,0:0:0:0:
12,210,108481,2,0,L|4:138,1,60.5000018463135,0|0,0:0|0:0,0:0:0:0:
196,64,108688,6,0,P|236:60|272:80,1,76.9999976501466,10|0,1:2|0:0,0:0:0:0:
172,148,108895,2,0,P|155:184|120:205,1,76.9999976501466,10|0,1:2|0:0,0:0:0:0:
104,84,109102,1,2,1:2:0:0:
104,84,109205,1,2,0:0:0:0:
104,84,109309,6,0,P|77:55|68:24,1,60.5000018463135,0|0,1:0|0:0,0:0:0:0:
332,120,109516,2,0,L|450:95,1,121.000003692627,2|8,1:2|1:2,0:0:0:0:
356,208,109826,2,0,P|324:260|328:320,1,121.000003692627,2|0,1:2|0:0,0:0:0:0:
184,318,110136,2,0,P|187:258|156:208,1,121.000003692627,2|0,1:2|0:0,0:0:0:0:
180,120,110447,2,0,L|61:94,1,121.000003692627,10|0,1:2|0:0,0:0:0:0:
61,95,110757,1,10,1:2:0:0:
72,328,110964,5,0,1:0:0:0:
72,328,111068,2,0,P|105:279|94:221,1,121.000003692627,2|0,1:2|0:0,0:0:0:0:
201,62,111378,1,10,1:2:0:0:
201,62,111481,2,0,P|180:122|197:174,1,121.000003692627,0|2,0:0|1:2,0:0:0:0:
372,326,111792,1,0,1:0:0:0:
446,365,111895,2,0,P|454:309|414:253,1,121.000003692627,2|2,1:2|0:0,0:0:0:0:
280,256,112205,2,0,L|268:192,1,60.5000018463135,8|0,1:2|0:0,0:0:0:0:
192,164,112412,1,0,1:0:0:0:
32,188,112619,5,0,1:0:0:0:
248,32,112826,2,0,L|384:16,1,121.000003692627,2|8,1:2|0:0,0:0:0:0:
428,112,113136,2,0,L|307:126,1,121.000003692627,2|0,1:2|0:0,0:0:0:0:
272,204,113447,1,2,1:2:0:0:
236,280,113550,1,2,0:0:0:0:
472,340,113757,1,10,1:2:0:0:
436,264,113861,2,0,P|380:252|312:284,1,121.000003692627,0|10,1:0|1:2,0:0:0:0:
144,312,114274,5,0,1:0:0:0:
144,312,114378,2,0,L|20:288,1,121.000003692627,2|0,1:2|0:0,0:0:0:0:
72,176,114688,2,0,L|190:198,1,121.000003692627,8|0,1:2|0:0,0:0:0:0:
256,256,114999,1,0,1:0:0:0:
256,340,115102,1,0,0:0:0:0:
308,56,115309,6,0,L|365:37,1,60.5000018463135,10|0,1:2|0:0,0:0:0:0:
204,56,115516,2,0,L|140:36,1,60.5000018463135,8|0,1:2|0:0,0:0:0:0:
256,132,115723,1,10,1:2:0:0:
256,132,115826,1,2,0:0:0:0:
256,132,115930,1,0,1:0:0:0:
424,280,116136,5,2,1:2:0:0:
452,268,116240,1,0,0:0:0:0:
348,176,116447,1,2,1:2:0:0:
376,164,116551,1,0,0:0:0:0:
288,288,116757,1,2,1:2:0:0:
316,276,116861,1,0,0:0:0:0:
212,184,117068,1,10,1:2:0:0:
240,172,117172,1,0,1:2:0:0:
148,292,117378,1,10,1:2:0:0:
176,280,117482,1,0,0:0:0:0:
72,188,117689,5,2,1:2:0:0:
100,176,117792,2,0,L|120:48,1,121.000003692627,0|10,0:0|1:2,0:0:0:0:
192,28,118102,1,0,0:0:0:0:
256,76,118205,1,0,0:0:0:0:
328,40,118309,2,0,P|392:36|448:68,1,121.000003692627,2|0,1:2|0:0,0:0:0:0:
468,136,118619,1,2,0:0:0:0:
420,200,118723,2,0,L|428:268,2,60.5000018463135,8|0|0,1:2|0:0|0:0,0:0:0:0:
351,161,119033,1,10,1:2:0:0:
188,160,119240,5,4,1:0:0:0:
256,300,119447,2,0,B|316:312|316:312|384:288,1,121.000003692627,2|8,1:2|1:2,0:0:0:0:
164,272,119757,2,0,B|123:317|123:317|110:388,1,121.000003692627,2|0,1:2|0:0,0:0:0:0:
240,212,120068,2,0,B|220:154|220:154|165:107,1,121.000003692627,2|0,1:2|0:0,0:0:0:0:
96,104,120378,1,10,1:2:0:0:
24,136,120481,2,0,P|16:204|52:256,1,121.000003692627,0|10,0:0|1:2,0:0:0:0:
256,320,120895,5,0,1:0:0:0:
256,320,120999,2,0,L|376:308,1,121.000003692627,2|0,1:2|0:0,0:0:0:0:
512,224,121309,2,0,L|392:212,1,121.000003692627,10|0,1:2|0:0,0:0:0:0:
296,128,121619,2,0,L|370:121,1,60.5000018463135,0|2,1:0|1:2,0:0:0:0:
236,336,121930,5,10,1:2:0:0:
208,192,122136,1,10,1:2:0:0:
168,40,122343,1,8,1:2:0:0:
92,20,122447,1,2,1:2:0:0:
32,68,122550,1,0,1:0:0:0:
108,208,122757,5,2,1:2:0:0:
116,176,122861,1,0,0:0:0:0:
296,128,123068,1,2,1:2:0:0:
304,96,123172,1,0,0:0:0:0:
200,264,123378,5,2,1:2:0:0:
208,232,123482,1,0,0:0:0:0:
388,184,123689,1,10,1:2:0:0:
396,152,123793,1,0,0:0:0:0:
292,320,123999,5,8,1:2:0:0:
300,288,124103,1,0,0:0:0:0:
480,240,124310,1,2,1:2:0:0:
488,208,124412,1,0,0:0:0:0:
480,365,124619,6,0,P|424:385|368:368,1,121.000003692627,10|0,1:2|0:0,0:0:0:0:
292,320,124930,1,2,0:0:0:0:
208,304,125033,1,2,1:2:0:0:
128,328,125136,1,0,1:0:0:0:
52,368,125240,2,0,P|44:340|48:300,1,60.5000018463135,0|0,0:0|0:0,0:0:0:0:
104,248,125447,2,0,P|124:180|92:128,1,121.000003692627,10|2,1:2|1:2,0:0:0:0:
256,80,125861,5,0,1:0:0:0:
360,128,126068,2,8,P|423:139|475:115,1,121.000003692627,2|8,1:2|0:2,0:0:0:0:
288,188,126378,2,8,P|324:240|378:260,1,121.000003692627,2|0,1:2|0:0,0:0:0:0:
192,176,126688,2,8,P|180:239|204:291,1,121.000003692627,2|0,1:2|0:0,0:0:0:0:
140,92,126999,2,8,P|87:128|67:182,1,121.000003692627,10|0,1:2|0:0,0:0:0:0:
88,264,127309,1,10,1:2:0:0:
344,344,127516,5,2,1:2:0:0:
424,296,127619,2,0,L|436:168,1,121.000003692627,2|0,1:2|0:0,0:0:0:0:
312,92,127930,2,0,L|323:212,1,121.000003692627,10|0,1:2|0:0,0:0:0:0:
188,212,128240,2,0,L|200:92,1,121.000003692627,2|0,1:2|0:0,0:0:0:0:
76,175,128551,2,0,L|88:296,1,121.000003692627,10|10,1:2|1:2,0:0:0:0:
256,368,128964,1,10,1:2:0:0:
348,376,129068,1,2,1:2:0:0:
412,312,129171,1,0,1:0:0:0:
416,88,129378,6,0,P|352:68|284:100,1,121.000003692627,2|8,1:2|0:0,0:0:0:0:
276,208,129688,2,0,P|340:228|408:196,1,121.000003692627,2|0,1:2|0:0,0:0:0:0:
180,136,129999,2,0,L|164:268,1,121.000003692627,2|0,1:2|0:0,0:0:0:0:
36,296,130309,2,0,L|50:175,1,121.000003692627,10|0,1:2|0:0,0:0:0:0:
100,100,130619,1,8,1:2:0:0:
276,208,130826,5,2,0:0:0:0:
276,208,130930,2,0,L|176:280,1,110,2|2,0:3|0:0,0:0:0:0:
380,248,131240,1,2,0:3:0:0:
380,248,131344,2,0,L|367:125,1,110,0|0,0:0|0:0,0:0:0:0:
296,316,131654,2,0,L|408:366,1,110,4|2,1:3|0:0,0:0:0:0:
276,208,131964,2,0,L|176:280,1,110,8|2,1:3|0:0,0:0:0:0:
380,248,132274,1,8,1:3:0:0:
356,44,132481,5,0,1:0:0:0:
148,72,132688,2,0,P|204:88|264:68,1,110,2|2,0:0|1:3,0:0:0:0:
288,232,132999,2,0,P|329:191|342:129,1,110,2|0,0:0|0:0,0:0:0:0:
492,196,133309,2,0,P|477:139|430:97,1,110,0|2,1:0|0:3,0:0:0:0:
288,232,133619,2,0,P|302:288|349:330,1,110,2|0,1:2|0:0,0:0:0:0:
393,236,133930,1,2,1:3:0:0:
208,100,134136,5,0,1:0:0:0:
112,232,134343,2,0,L|2:242,1,110,2|2,1:2|1:3,0:0:0:0:
232,228,134654,2,0,L|162:313,1,110,0|0,1:0|0:0,0:0:0:0:
308,132,134964,2,0,L|317:241,1,110,0|2,1:0|0:0,0:0:0:0:
306,11,135275,2,0,L|389:82,1,110,2|2,1:3|0:0,0:0:0:0:
408,164,135585,1,2,1:3:0:0:
256,328,135792,5,0,1:0:0:0:
164,296,135999,2,0,P|143:245|153:192,1,110,0|2,1:0|1:3,0:0:0:0:
358,192,136309,2,0,P|368:245|348:296,1,110,0|2,1:0|0:0,0:0:0:0:
256,204,136619,2,0,L|256:92,1,110,0|2,1:0|0:0,0:0:0:0:
184,48,136930,1,2,1:3:0:0:
120,100,137033,2,0,P|64:120|8:104,1,110,0|2,0:0|1:3,0:0:0:0:
64,24,137447,5,0,1:0:0:0:
92,280,137654,1,2,1:2:0:0:
324,160,137861,1,2,1:3:0:0:
356,156,137964,1,0,1:0:0:0:
188,160,138171,1,2,0:0:0:0:
156,156,138274,1,0,1:0:0:0:
356,260,138481,1,2,0:0:0:0:
388,256,138584,1,2,1:3:0:0:
156,260,138792,1,0,2:0:0:0:
124,256,138895,1,2,1:3:0:0:
256,332,139102,5,0,1:0:0:0:
388,256,139309,2,0,L|404:136,1,110,2|2,1:2|0:0,0:0:0:0:
306,102,139619,2,0,L|292:212,1,110,2|2,1:2|0:0,0:0:0:0:
192,164,139930,2,0,L|206:54,1,110,2|2,1:2|0:0,0:0:0:0:
110,10,140240,2,0,L|96:120,1,110,2|2,1:2|0:0,0:0:0:0:
96,120,140550,1,0,1:0:0:0:
208,228,140757,5,0,1:0:0:0:
312,72,140964,2,0,L|432:64,1,110,0|2,1:0|0:0,0:0:0:0:
413,152,141275,2,0,L|304:160,1,110,0|2,1:0|0:0,0:0:0:0:
296,248,141585,2,0,L|405:240,1,110,0|2,1:0|0:0,0:0:0:0:
397,328,141896,2,0,L|285:335,1,110,0|2,1:0|0:0,0:0:0:0:
287,335,142205,1,0,1:0:0:0:
179,133,142619,6,0,L|104:88,1,88,2|0,1:2|0:0,0:0:0:0:
332,250,142930,2,0,L|408:296,1,88,2|0,1:2|0:0,0:0:0:0:
268,96,143240,6,0,L|270:8,1,88,2|0,1:2|0:0,0:0:0:0:
243,287,143551,2,0,L|241:375,1,88,2|0,1:2|0:0,0:0:0:0:
345,155,143861,6,0,L|422:112,1,88,2|0,1:2|0:0,0:0:0:0:
166,228,144172,2,0,L|89:271,1,88,2|0,1:2|0:0,0:0:0:0:
332,250,144481,6,0,L|408:296,1,88,2|0,1:2|0:0,0:0:0:0:
179,133,144792,2,0,L|104:88,1,88,2|0,1:2|0:0,0:0:0:0:
345,155,145102,5,2,1:2:0:0:
244,288,145309,1,2,1:2:0:0:
179,133,145516,1,2,1:3:0:0:
