osu file format v14

[General]
AudioFilename: stager.mp3
AudioLeadIn: 1500
PreviewTime: 53033
Countdown: 0
SampleSet: Soft
StackLeniency: 0.7
Mode: 0
LetterboxInBreaks: 1
WidescreenStoryboard: 1

[Editor]
Bookmarks: 481,7309
DistanceSpacing: 1.2
BeatDivisor: 4
GridSize: 4
TimelineZoom: 1.5

[Metadata]
Title:STAGER (ALL STAGE CLEAR)
TitleUnicode:STAGER (ALL STAGE CLEAR)
Artist:Ras
ArtistUnicode:Ras
Creator:wa_
Version:Advanced
Source:BMS
Tags:of fighters bof 2013 groundbreaking tech electro
BeatmapID:416618
BeatmapSetID:165765

[Difficulty]
HPDrainRate:4
CircleSize:4
OverallDifficulty:5
ApproachRate:7
SliderMultiplier:1.4
SliderTickRate:2

[Events]
//Background and Video events
0,0,"bg.jpg",0,0
//Break Periods
//Storyboard Layer 0 (Background)
//Storyboard Layer 1 (Fail)
//Storyboard Layer 2 (Pass)
//Storyboard Layer 3 (Foreground)
//Storyboard Sound Samples

[TimingPoints]
68,413.793103448276,4,2,1,50,1,0
13309,-100,4,2,1,50,0,0
26550,-100,4,2,1,70,0,0
52205,-83.3333333333333,4,2,1,70,0,0
52619,-83.3333333333333,4,2,1,70,0,0
53033,-90.9090909090909,4,2,1,75,0,1
65861,-90.9090909090909,4,2,1,75,0,0
66274,-90.9090909090909,4,2,1,75,0,1
79309,-90.9090909090909,4,2,1,5,0,1
79516,-100,4,2,1,65,0,0
92757,-100,4,2,1,60,0,0
99378,-100,4,2,1,70,0,0
105171,-71.4285714285714,4,2,1,40,0,0
105585,-71.4285714285714,4,2,1,55,0,0
105999,-90.9090909090909,4,2,1,75,0,1
108688,-90.9090909090909,4,2,1,75,0,1
109309,-90.9090909090909,4,2,1,75,0,1
119033,-90.9090909090909,4,2,1,75,0,0
119240,-90.9090909090909,4,2,1,75,0,1
130826,-90.9090909090909,4,2,1,75,0,1
132481,-100,4,2,1,70,0,0

[Colours]
Combo1 : 252,188,230
Combo2 : 38,170,240
Combo3 : 225,225,225
Combo4 : 98,105,191
Combo5 : 126,226,171
Combo6 : 35,86,171

[HitObjects]
76,100,68,6,0,B|146:98|146:98|214:130,1,140,2|0,0:2|0:0,0:0:0:0:
302,127,688,2,0,B|365:98|365:98|436:100,1,140,2|2,0:0|2:0,0:0:0:0:
480,172,1309,1,0,0:0:0:0:
440,244,1516,1,0,0:0:0:0:
472,320,1723,6,0,P|432:328|376:300,2,105,2|2|2,0:0|0:0|0:0,0:0:0:0:
440,244,2550,1,0,0:0:0:0:
360,220,2757,1,0,0:0:0:0:
296,276,2964,2,0,L|252:272,2,35,2|0|2,0:3|0:0|0:0,0:0:0:0:
188,208,3378,6,0,L|76:220,2,105,2|2|2,0:0|0:0|0:0,0:0:0:0:
196,296,4205,1,0,0:0:0:0:
256,132,4619,1,0,0:0:0:0:
256,132,5033,6,0,L|256:248,2,105,2|2|2,0:0|0:0|0:0,0:0:0:0:
296,60,5861,1,0,0:0:0:0:
296,60,6068,2,0,P|372:40|432:88,1,140,2|0,0:3|0:0,0:0:0:0:
356,124,6688,6,0,B|340:192|340:192|356:260,1,140,2|0,0:0|0:0,0:0:0:0:
420,313,7309,2,0,P|360:345|296:324,1,140,2|0,0:0|0:0,0:0:0:0:
216,292,7930,2,0,L|160:296,2,35,2|2|0,0:3|0:0|0:0,0:0:0:0:
280,240,8343,5,0,0:0:0:0:
180,104,8757,1,2,0:0:0:0:
100,252,9171,2,0,L|104:300,2,35,2|2|2,0:0|0:0|0:0,0:0:0:0:
32,200,9585,2,0,P|16:152|24:120,1,70,2|2,0:0|0:0,0:0:0:0:
76,72,9999,6,0,L|185:61,1,105,2|2,0:0|0:0,0:0:0:0:
180,62,10412,1,0,0:0:0:0:
256,100,10619,1,2,0:0:0:0:
331,62,10826,2,0,L|413:69,2,70,2|2|2,0:3|0:2|0:3,0:0:0:0:
180,144,11654,6,0,P|156:208|180:272,1,140,2|0,0:0|0:0,0:0:0:0:
332,272,12274,2,0,P|356:207|331:143,1,140,2|2,0:0|0:0,0:0:0:0:
256,100,12895,1,2,0:0:0:0:
180,60,13102,1,0,0:0:0:0:
108,104,13309,5,0,1:0:0:0:
196,248,13723,1,2,1:3:0:0:
196,248,14343,1,0,1:0:0:0:
256,304,14550,2,0,L|364:300,1,105,2|0,1:3|0:0,0:0:0:0:
390,280,14964,6,0,P|396:248|388:208,1,70,0|0,1:0|0:0,0:0:0:0:
288,160,15378,2,0,P|282:192|290:232,1,70,2|0,1:3|0:0,0:0:0:0:
376,124,15792,2,0,L|380:72,2,35,2|2|0,0:0|0:0|1:0,0:0:0:0:
292,72,16205,2,0,L|295:33,2,35,2|0|2,1:3|1:0|0:0,0:0:0:0:
288,160,16619,6,0,P|216:200|152:178,1,140,0|0,1:0|0:0,0:0:0:0:
212,108,17240,1,2,0:3:0:0:
384,196,17654,1,0,1:0:0:0:
433,276,17862,2,0,P|364:288|320:264,1,105,2|0,1:3|0:0,0:0:0:0:
300,268,18274,6,0,L|151:277,1,140,0|0,1:0|0:0,0:0:0:0:
84,236,18895,2,0,B|64:168|64:168|96:92,1,140,2|0,0:0|1:0,0:0:0:0:
172,76,19516,1,2,3:2:0:0:
248,112,19723,2,0,L|252:156,2,35,0|0|0,1:0|1:0|0:0,0:0:0:0:
320,64,20136,5,2,0:0:0:0:
400,96,20343,1,0,0:0:0:0:
472,52,20550,2,0,P|483:106|424:176,1,140,0|0,3:0|1:0,0:0:0:0:
352,164,21171,1,2,1:2:0:0:
376,348,21585,6,0,L|428:240,2,105,0|0|4,1:0|0:0|3:2,0:0:0:0:
296,372,22412,2,0,L|212:364,1,70,0|2,0:0|0:0,0:0:0:0:
248,284,22826,2,0,L|164:276,1,70,2|10,1:3|1:3,0:0:0:0:
200,196,23240,6,0,L|95:186,2,105,0|0|0,1:0|0:0|0:0,0:0:0:0:
256,132,24068,1,2,3:2:0:0:
312,196,24274,1,0,1:0:0:0:
388,160,24481,2,0,L|476:168,1,70,2|0,1:3|0:0,0:0:0:0:
384,244,24895,6,0,P|336:280|284:276,1,105,0|0,1:0|0:0,0:0:0:0:
260,264,25309,2,0,L|176:272,1,70,2|0,0:0|0:0,0:0:0:0:
156,264,25619,2,0,P|132:220|148:160,1,105,0|0,0:0|0:0,0:0:0:0:
212,120,26136,1,8,0:3:0:0:
288,156,26343,1,4,0:3:0:0:
356,108,26550,6,0,L|440:112,1,70,4|0,1:0|0:0,0:0:0:0:
368,192,26964,2,0,L|452:196,1,70,0|0,1:0|0:0,0:0:0:0:
396,276,27378,2,0,L|312:280,1,70,0|0,1:0|0:0,0:0:0:0:
376,360,27792,2,0,L|292:364,1,70,0|0,1:0|0:0,0:0:0:0:
232,320,28205,6,0,P|176:296|92:340,1,140,2|0,1:2|1:0,0:0:0:0:
32,364,28826,2,0,L|20:200,1,140,0|2,1:0|1:2,0:0:0:0:
60,148,29447,2,0,L|56:108,2,35,0|0|0,1:0|0:0|0:0,0:0:0:0:
116,212,29861,6,0,P|160:228|248:180,1,140,2|0,1:3|1:0,0:0:0:0:
169,141,30481,2,0,B|147:79|147:79|179:11,1,140,0|0,1:0|0:0,0:0:0:0:
256,48,31102,1,0,1:0:0:0:
332,11,31309,1,0,0:0:0:0:
404,60,31516,6,0,L|412:164,1,105,2|2,1:3|0:0,0:0:0:0:
392,184,31930,2,0,B|403:218|403:218|397:260,2,70,0|0|0,1:0|0:0|1:2,0:0:0:0:
316,148,32550,1,0,1:0:0:0:
260,212,32757,1,0,1:0:0:0:
308,280,32964,1,0,1:0:0:0:
392,264,33171,6,0,B|428:268|428:268|456:288|456:288|496:292,2,105,0|0|0,1:0|1:0|1:0,0:0:0:0:
308,280,33999,2,0,P|239:293|183:248,1,140,2|0,1:3|1:0,0:0:0:0:
212,176,34619,1,0,0:0:0:0:
144,128,34826,6,0,B|76:116|76:116|4:156,1,140,0|2,1:0|1:3,0:0:0:0:
13,233,35447,2,0,B|76:268|76:268|144:256,1,140,0|2,1:0|0:0,0:0:0:0:
196,192,36068,1,0,1:0:0:0:
280,192,36274,1,2,0:0:0:0:
352,240,36481,6,0,P|368:288|344:344,2,105,0|0|2,1:0|1:0|3:2,0:0:0:0:
352,144,37309,2,0,P|371:85|342:16,1,140,2|2,1:3|1:2,0:0:0:0:
256,32,37930,1,0,0:0:0:0:
169,16,38136,6,0,L|92:20,1,70,2|2,1:2|0:0,0:0:0:0:
76,32,38447,1,2,0:0:0:0:
60,56,38550,2,0,P|72:92|60:132,1,70,2|2,1:2|0:0,0:0:0:0:
50,146,38861,2,0,P|33:194|50:248,1,105,0|0,0:0|0:0,0:0:0:0:
128,276,39378,2,0,L|208:272,1,70,4|0,0:0|0:0,0:0:0:0:
264,220,39792,6,0,P|281:258|263:326,2,105,4|0|0,3:2|3:0|3:0,0:0:0:0:
188,184,40619,2,0,L|42:191,1,140,0|2,3:0|3:2,0:0:0:0:
260,136,41447,6,0,L|374:130,2,105,0|2|2,3:0|0:0|0:0,0:0:0:0:
180,104,42274,1,2,3:2:0:0:
128,168,42481,1,0,0:0:0:0:
180,232,42688,1,2,3:2:0:0:
264,216,42895,1,2,0:0:0:0:
316,280,43102,6,0,B|388:288|388:288|424:276,1,105,2|2,3:2|3:2,0:0:0:0:
442,262,43516,2,0,P|452:220|444:188,1,70,0|2,0:0|0:0,0:0:0:0:
404,124,43930,2,0,L|408:84,2,35,0|2|0,3:0|3:2|0:0,0:0:0:0:
336,172,44343,2,0,L|332:206,2,35,2|0|2,3:2|0:0|0:0,0:0:0:0:
268,124,44757,6,0,P|228:112|132:164,2,140,2|2|2,3:0|3:2|3:2,0:0:0:0:
324,186,45792,1,2,3:2:0:0:
401,154,45999,1,0,3:0:0:0:
391,70,46205,1,2,3:0:0:0:
309,47,46412,5,4,1:2:0:0:
268,124,46619,2,0,L|128:116,1,140,0|2,0:0|3:2,0:0:0:0:
52,156,47240,2,0,P|40:192|52:232,1,70,0|2,3:0|1:2,0:0:0:0:
124,268,47654,2,0,P|136:232|124:192,1,70,0|0,0:0|3:0,0:0:0:0:
48,316,48068,6,0,P|89:349|144:352,2,105,2|2|2,1:2|3:2|3:2,0:0:0:0:
68,236,48895,1,2,3:2:0:0:
36,160,49102,2,0,L|32:64,1,70,0|0,1:0|0:0,0:0:0:0:
33,90,49412,1,0,1:0:0:0:
180,80,49723,6,0,P|228:72|288:100,1,105,2|2,1:2|0:2,0:0:0:0:
305,101,50136,2,0,L|392:96,2,70,2|2|2,3:2|3:2|0:0,0:0:0:0:
220,160,50757,2,0,L|150:164,2,70,0|0|0,0:0|1:0|1:0,0:0:0:0:
312,192,51378,5,0,1:0:0:0:
245,323,51792,1,0,1:0:0:0:
141,217,52205,2,0,L|84:220,4,41.9999987182618,2|0|2|0|2,1:2|0:0|0:0|0:0|0:0,0:0:0:0:
140,216,53033,6,0,P|156:164|132:104,1,115.50000352478,4|2,1:0|0:2,0:0:0:0:
106,98,53447,2,0,L|16:100,2,77.0000023498536,10|0|0,1:2|0:0|1:0,0:0:0:0:
188,56,54068,1,0,0:0:0:0:
268,104,54274,1,8,1:2:0:0:
348,60,54481,1,2,1:2:0:0:
424,116,54688,6,0,B|432:156|432:156|416:204,1,77.0000023498536,2|0,1:2|0:0,0:0:0:0:
332,232,55102,2,0,B|324:192|324:192|340:144,1,77.0000023498536,8|0,1:2|0:0,0:0:0:0:
408,276,55516,2,0,P|361:315|304:316,1,115.50000352478,0|8,1:0|1:2,0:0:0:0:
279,308,55930,2,0,L|176:312,1,77.0000023498536,0|0,0:0|1:0,0:0:0:0:
120,288,56343,5,0,1:0:0:0:
40,312,56550,1,0,0:0:0:0:
16,232,56757,1,8,1:2:0:0:
96,208,56964,1,2,0:0:0:0:
120,288,57171,2,0,B|160:292|160:292|188:312|188:312|232:316,2,115.50000352478,0|10|8,1:0|1:2|1:2,0:0:0:0:
40,264,57999,6,0,P|16:224|20:184,1,77.0000023498536,0|2,1:2|3:2,0:0:0:0:
72,124,58412,2,0,P|70:86|48:54,1,77.0000023498536,8|2,1:2|3:2,0:0:0:0:
100,204,58826,2,0,L|260:196,1,154.000004699707,0|2,1:0|1:2,0:0:0:0:
320,144,59447,1,2,1:2:0:0:
388,196,59654,6,0,P|404:156|396:104,1,77.0000023498536,0|2,1:0|0:0,0:0:0:0:
324,56,60068,2,0,P|281:62|240:95,1,77.0000023498536,10|2,1:2|0:0,0:0:0:0:
236,180,60481,2,0,P|262:213|311:232,1,77.0000023498536,0|0,1:0|0:0,0:0:0:0:
314,251,60792,2,0,L|320:368,1,115.50000352478,10|2,1:2|1:2,0:0:0:0:
412,336,61309,6,0,L|408:252,1,77.0000023498536,0|2,1:0|0:0,0:0:0:0:
428,236,61619,1,2,0:0:0:0:
448,212,61723,2,0,L|444:132,1,77.0000023498536,10|2,1:2|0:0,0:0:0:0:
372,88,62136,1,2,1:2:0:0:
296,124,62343,1,0,0:0:0:0:
220,88,62550,1,8,1:2:0:0:
144,124,62757,1,10,1:2:0:0:
68,84,62964,6,0,P|59:137|92:192,1,115.50000352478,0|2,1:0|0:0,0:0:0:0:
88,188,63378,1,10,1:2:0:0:
48,264,63585,1,2,0:0:0:0:
132,260,63792,2,0,P|200:264|236:304,2,115.50000352478,0|10|10,1:0|1:2|1:2,0:0:0:0:
96,336,64619,6,0,L|92:380,2,38.5000011749268,0|0|2,1:0|0:0|3:2,0:0:0:0:
232,296,65033,2,0,L|235:257,2,38.5000011749268,8|0|0,1:2|0:0|3:2,0:0:0:0:
376,344,65447,2,0,L|372:388,4,38.5000011749268,8|2|2|0|4,1:2|0:0|0:2|0:0|1:3,0:0:0:0:
432,280,66068,1,10,0:3:0:0:
348,264,66274,6,0,L|340:144,1,115.50000352478,4|0,1:0|0:0,0:0:0:0:
320,128,66688,2,0,P|264:112|232:124,1,77.0000023498536,10|2,1:2|0:0,0:0:0:0:
168,152,67102,2,0,P|124:164|88:152,1,77.0000023498536,0|0,1:0|0:0,0:0:0:0:
67,141,67412,2,0,B|71:225|71:225|47:273,1,115.50000352478,8|0,1:2|1:0,0:0:0:0:
104,324,67930,5,0,1:0:0:0:
188,308,68136,1,2,0:0:0:0:
188,308,68240,1,2,0:0:0:0:
188,308,68343,2,0,L|280:316,1,77.0000023498536,8|2,1:2|0:0,0:0:0:0:
324,252,68757,1,0,1:0:0:0:
404,280,68964,1,0,0:0:0:0:
400,364,69171,1,0,0:0:0:0:
200,196,69585,6,0,L|188:79,1,115.50000352478,0|2,1:0|0:0,0:0:0:0:
164,60,69999,2,0,P|120:48|88:56,1,77.0000023498536,10|0,1:2|0:0,0:0:0:0:
48,128,70412,1,2,1:2:0:0:
100,192,70619,1,0,0:0:0:0:
56,264,70826,1,8,1:2:0:0:
112,328,71033,1,2,1:3:0:0:
188,288,71240,6,0,L|236:292,2,38.5000011749268,0|2|0,1:0|0:0|0:0,0:0:0:0:
100,192,71654,2,0,L|61:188,2,38.5000011749268,0|2|0,1:0|0:0|0:0,0:0:0:0:
212,100,72068,2,0,L|250:103,4,38.5000011749268,2|2|2|2|10,1:2|0:0|1:2|0:0|1:3,0:0:0:0:
136,60,72688,1,4,0:0:0:0:
68,112,72895,6,0,P|60:152|80:200,1,77.0000023498536,0|2,1:0|0:2,0:0:0:0:
104,264,73309,2,0,P|112:304|92:352,1,77.0000023498536,10|2,1:2|0:0,0:0:0:0:
160,192,73723,2,0,L|280:200,2,115.50000352478,2|8|8,1:2|1:2|1:2,0:0:0:0:
96,136,74550,5,0,1:0:0:0:
24,184,74757,1,2,0:0:0:0:
48,264,74964,1,10,1:2:0:0:
132,272,75171,1,0,0:0:0:0:
160,192,75378,2,0,P|208:176|284:204,2,115.50000352478,2|10|10,1:2|1:2|1:2,0:0:0:0:
216,264,76205,6,0,P|288:280|360:224,1,154.000004699707,0|10,1:0|1:2,0:0:0:0:
328,156,76826,1,2,0:0:0:0:
412,168,77033,2,0,L|404:48,1,115.50000352478,2|10,1:2|1:2,0:0:0:0:
380,36,77447,1,0,0:0:0:0:
304,76,77654,1,10,1:2:0:0:
232,28,77861,6,0,L|192:32,2,38.5000011749268,0|0|2,1:0|0:0|0:0,0:0:0:0:
210,144,78274,2,0,L|172:148,2,38.5000011749268,8|0|2,1:2|0:0|0:0,0:0:0:0:
191,265,78688,2,0,L|152:268,3,38.5000011749268,8|8|4|4,1:3|1:3|1:3|1:3,0:0:0:0:
156,272,79102,2,0,L|79:278,1,77.0000023498536,6|0,1:2|0:0,0:0:0:0:
12,224,79516,6,0,P|24:172|4:116,1,105,4|2,1:0|1:2,0:0:0:0:
28,104,79930,2,0,L|114:97,1,70,0|0,0:0|1:0,0:0:0:0:
168,144,80343,1,2,1:2:0:0:
232,88,80550,1,2,1:3:0:0:
300,140,80757,1,2,1:2:0:0:
276,220,80964,1,0,0:0:0:0:
192,228,81171,6,0,B|120:232|120:232|76:212,1,105,0|0,1:1|1:2,0:0:0:0:
72,196,81585,2,0,L|64:112,1,70,0|0,0:0|1:0,0:0:0:0:
148,80,81999,2,0,L|154:149,2,70,2|0|0,1:3|1:0|1:0,0:0:0:0:
80,208,82826,6,0,P|144:244|216:220,1,140,0|2,1:0|1:2,0:0:0:0:
306,155,83447,2,0,P|373:140|432:176,1,140,0|2,1:0|1:2,0:0:0:0:
392,252,84068,1,0,1:0:0:0:
444,320,84274,1,0,0:0:0:0:
380,376,84481,6,0,L|273:382,1,105,0|2,1:0|0:0,0:0:0:0:
248,372,84895,2,0,L|166:377,1,70,0|2,1:0|0:0,0:0:0:0:
140,300,85309,1,0,1:0:0:0:
104,224,85516,1,0,0:0:0:0:
68,148,85723,2,0,L|20:152,2,35,2|0|2,1:2|1:0|1:2,0:0:0:0:
152,152,86136,6,0,L|296:144,1,140,4|8,1:0|1:2,0:0:0:0:
324,222,86757,2,0,L|184:229,1,140,2|2,0:0|0:3,0:0:0:0:
104,220,87378,1,8,1:2:0:0:
152,152,87585,1,2,0:0:0:0:
68,148,87792,6,0,P|45:101|55:50,1,105,0|8,1:0|1:2,0:0:0:0:
80,40,88205,2,0,L|160:32,1,70,0|0,0:0|1:0,0:0:0:0:
220,76,88619,2,0,L|300:68,1,70,0|2,1:0|0:0,0:0:0:0:
364,108,89033,1,8,1:2:0:0:
364,108,89136,1,2,0:0:0:0:
364,108,89240,1,2,0:0:0:0:
288,144,89447,6,0,P|276:184|304:248,1,105,0|8,1:0|1:2,0:0:0:0:
324,252,89861,2,0,L|408:248,1,70,0|0,0:0|1:0,0:0:0:0:
448,312,90274,1,0,1:0:0:0:
388,372,90481,1,0,0:0:0:0:
312,336,90688,1,8,1:2:0:0:
324,252,90895,1,0,0:0:0:0:
408,236,91102,6,0,P|435:187|420:128,3,105,2|2|2|6,1:2|1:3|1:2|1:2,0:0:0:0:
316,172,92343,2,0,L|372:176,2,35,0|0|2,1:0|1:0|1:2,0:0:0:0:
236,196,92757,5,4,1:0:0:0:
156,216,92964,1,0,0:0:0:0:
76,240,93171,2,0,L|68:324,1,70,2|0,0:3|0:0,0:0:0:0:
145,320,93585,2,0,L|158:195,2,105,0|2|2,0:0|0:3|0:3,0:0:0:0:
228,332,94412,5,0,0:0:0:0:
228,332,94516,2,0,P|272:316|340:328,2,105,2|2|2,0:0|0:3|0:0,0:0:0:0:
197,349,95240,2,0,P|160:357|123:349,1,70
76,284,95654,1,2,0:3:0:0:
128,216,95861,1,2,0:3:0:0:
180,148,96068,5,2,0:3:0:0:
212,224,96274,2,0,L|332:236,2,105,2|2|2,0:0|0:0|0:0,0:0:0:0:
168,152,97102,1,0,0:0:0:0:
216,84,97309,1,0,0:0:0:0:
292,124,97516,1,2,0:3:0:0:
300,208,97723,5,0,0:0:0:0:
300,208,97826,2,0,L|380:204,1,70,2|0,0:2|0:0,0:0:0:0:
396,216,98136,2,0,P|424:264|408:360,1,140,2|0,0:3|0:0,0:0:0:0:
332,328,98757,1,0,0:0:0:0:
256,360,98964,1,0,0:0:0:0:
180,328,99171,1,2,0:3:0:0:
104,360,99378,5,4,0:0:0:0:
104,360,99585,2,0,L|0:348,2,105,2|2|2,0:0|0:0|0:0,0:0:0:0:
180,328,100412,1,0,0:0:0:0:
212,248,100619,2,0,L|204:172,2,70,2|0|0,0:3|0:0|0:0,0:0:0:0:
232,268,101136,6,0,P|292:276|340:248,2,105,2|2|2,0:0|0:3|0:0,0:0:0:0:
104,164,102068,1,2,0:3:0:0:
116,248,102274,1,2,0:3:0:0:
132,332,102481,5,2,0:3:0:0:
132,332,102585,1,0,0:0:0:0:
132,332,102688,2,0,P|192:344|268:312,1,140,2|2,0:0|0:3,0:0:0:0:
292,236,103309,1,0,0:0:0:0:
256,160,103516,2,0,P|238:106|259:45,2,105,2|2|2,0:0|0:3|0:3,0:0:0:0:
256,192,104343,12,8,105792,3:0:0:0:
112,132,105999,5,4,1:0:0:0:
112,132,106205,2,0,P|160:124|232:168,1,115.50000352478,2|2,1:2|1:2,0:0:0:0:
204,276,106826,2,0,P|156:284|84:240,2,115.50000352478,2|10|10,1:2|1:2|1:2,0:0:0:0:
256,208,107654,5,0,1:0:0:0:
256,208,107757,2,0,L|256:84,2,115.50000352478,2|8|2,1:2|1:2|1:2,0:0:0:0:
280,228,108481,1,0,0:0:0:0:
348,176,108688,1,10,1:2:0:0:
420,224,108895,1,10,1:2:0:0:
396,304,109102,1,2,1:2:0:0:
312,308,109309,5,0,1:0:0:0:
228,300,109516,2,0,L|124:304,1,77.0000023498536,2|8,1:2|1:2,0:0:0:0:
127,283,109826,2,0,L|-2:287,1,115.50000352478,0|0,1:2|1:2,0:0:0:0:
36,208,110343,1,2,0:0:0:0:
0,132,110550,1,8,1:2:0:0:
28,52,110757,1,10,1:2:0:0:
108,28,110964,5,0,1:0:0:0:
108,28,111068,2,0,P|148:56|224:48,1,115.50000352478,2|10,1:2|1:2,0:0:0:0:
288,12,111585,1,0,0:0:0:0:
288,96,111792,2,0,B|296:172|296:172|352:236,1,154.000004699707,0|8,1:0|1:2,0:0:0:0:
428,212,112412,1,0,1:0:0:0:
400,292,112619,5,0,1:0:0:0:
400,292,112826,2,0,P|352:312|281:284,2,115.50000352478,2|2|2,1:2|1:2|1:2,0:0:0:0:
408,208,113654,1,0,0:0:0:0:
364,136,113861,1,8,1:2:0:0:
320,64,114068,1,10,1:2:0:0:
276,136,114274,6,0,B|140:132,1,115.50000352478,0|2,1:0|0:0,0:0:0:0:
140,152,114688,2,0,P|128:192|136:228,1,77.0000023498536,8|0,1:2|0:0,0:0:0:0:
160,304,115102,2,0,P|172:344|160:384,2,77.0000023498536,0|10|8,1:0|1:2|1:2,0:0:0:0:
76,284,115723,1,10,1:2:0:0:
136,224,115930,5,0,1:0:0:0:
136,224,116136,2,0,B|176:168|176:168|184:120,1,115.50000352478,10|2,1:2|1:2,0:0:0:0:
328,120,116757,2,0,B|336:168|336:168|376:224,1,115.50000352478,2|2,1:2|1:2,0:0:0:0:
360,252,117171,1,8,1:2:0:0:
444,272,117378,1,2,1:2:0:0:
384,332,117585,6,0,P|304:320|272:252,1,154.000004699707,0|10,1:0|1:2,0:0:0:0:
300,180,118205,1,0,0:0:0:0:
216,192,118412,2,0,B|176:196|176:196|144:176|144:176|100:180,2,115.50000352478,0|8|10,1:0|1:2|1:2,0:0:0:0:
288,148,119240,5,4,1:0:0:0:
288,236,119447,2,0,B|336:264|336:264|404:260,1,115.50000352478,2|2,1:2|1:2,0:0:0:0:
395,123,120068,2,0,B|336:120|336:120|288:148,1,115.50000352478,2|10,1:2|1:2,0:0:0:0:
260,140,120481,1,0,0:0:0:0:
180,172,120688,1,10,1:2:0:0:
108,128,120895,5,0,1:0:0:0:
108,128,120999,2,0,P|96:176|120:236,1,115.50000352478,2|10,1:2|1:2,0:0:0:0:
204,252,121516,1,0,0:0:0:0:
264,192,121723,1,2,1:2:0:0:
288,272,121930,2,0,P|325:278|363:270,2,77.0000023498536,10|10|8,1:2|1:2|1:2,0:0:0:0:
224,328,122550,5,0,1:0:0:0:
160,268,122757,2,0,L|40:276,1,115.50000352478,2|2,1:2|1:2,0:0:0:0:
128,180,123378,2,0,L|8:188,2,115.50000352478,2|10|8,1:2|1:2|1:2,0:0:0:0:
174,107,124205,6,0,P|210:157|172:252,1,154.000004699707,0|10,1:0|1:2,0:0:0:0:
104,264,124826,1,0,0:0:0:0:
164,324,125033,2,0,B|212:344|240:312|280:332,2,115.50000352478,2|2|2,1:2|1:2|1:2,0:0:0:0:
104,264,125861,5,0,1:0:0:0:
184,240,126068,2,0,B|180:164|180:164|144:124,1,115.50000352478,2|2,1:2|1:2,0:0:0:0:
0,220,126688,2,0,P|52:232|104:188,1,115.50000352478,2|2,1:2|0:0,0:0:0:0:
108,168,127102,2,0,L|100:76,1,77.0000023498536,8|10,1:2|1:2,0:0:0:0:
180,56,127516,6,0,L|186:132,1,77.0000023498536,2|0,1:2|0:0,0:0:0:0:
240,200,127930,2,0,P|296:216|360:180,1,115.50000352478,10|2,1:2|1:2,0:0:0:0:
364,168,128343,1,0,1:0:0:0:
316,100,128550,2,0,L|310:17,2,77.0000023498536,10|10|10,1:2|1:2|1:2,0:0:0:0:
400,92,129171,6,0,P|436:124|424:224,1,154.000004699707,0|8,1:0|1:2,0:0:0:0:
344,208,129792,1,0,0:0:0:0:
284,268,129999,2,0,L|160:260,1,115.50000352478,2|2,1:2|0:0,0:0:0:0:
144,244,130412,2,0,P|132:200|144:164,1,77.0000023498536,8|8,1:2|1:2,0:0:0:0:
200,108,130826,5,2,0:0:0:0:
200,108,130930,2,0,L|336:116,1,115.50000352478,2|2,0:3|0:3,0:0:0:0:
360,188,131447,1,2,0:0:0:0:
312,260,131654,5,4,1:3:0:0:
188,232,131964,1,8,1:3:0:0:
224,352,132274,1,8,1:3:0:0:
308,340,132481,6,0,L|456:348,1,140,0|2,1:0|1:3,0:0:0:0:
492,276,133102,1,0,0:0:0:0:
420,236,133309,2,0,P|400:188|428:104,1,140,0|2,1:0|1:3,0:0:0:0:
256,100,134136,5,0,1:0:0:0:
196,156,134343,2,0,B|180:224|180:224|204:264,1,105,0|0,0:0|1:0,0:0:0:0:
313,254,134964,2,0,B|332:224|332:224|316:156,2,105,0|2|2,1:0|1:3|1:3,0:0:0:0:
256,316,135792,5,0,1:0:0:0:
188,268,135999,2,0,P|132:256|68:284,2,105,0|0|0,1:0|1:0|1:0,0:0:0:0:
256,316,136826,1,2,0:0:0:0:
332,280,137033,1,0,1:0:0:0:
404,324,137240,1,2,1:3:0:0:
472,276,137447,5,0,1:0:0:0:
472,276,137654,2,0,L|464:152,1,105,2|0,1:2|1:0,0:0:0:0:
344,132,138274,2,0,L|337:27,2,105,0|2|2,1:0|1:3|1:3,0:0:0:0:
276,184,139102,5,0,1:0:0:0:
200,152,139516,1,2,1:2:0:0:
148,220,139930,1,0,1:0:0:0:
196,288,140343,1,0,1:2:0:0:
276,268,140757,5,0,1:0:0:0:
352,236,141171,1,2,1:2:0:0:
404,304,141585,1,0,1:0:0:0:
356,372,141998,1,0,1:2:0:0:
356,372,142205,1,2,3:2:0:0:
236,340,142619,6,0,L|112:344,1,105,2|2,1:2|1:2,0:0:0:0:
96,244,143240,2,0,L|200:240,1,105,2|2,1:2|1:2,0:0:0:0:
208,136,143861,2,0,L|84:140,1,105,2|2,1:2|1:2,0:0:0:0:
68,40,144482,2,0,L|172:36,1,105,2|2,1:2|1:2,0:0:0:0:
272,68,145102,5,2,1:2:0:0:
296,148,145309,1,2,1:2:0:0:
316,228,145516,1,2,1:3:0:0:
