osu file format v9

[General]
AudioFilename: when they cry roshin mix.mp3
AudioLeadIn: 0
PreviewTime: 75579
Countdown: 0
SampleSet: Soft
StackLeniency: 0.5
Mode: 0
LetterboxInBreaks: 0

[Editor]
Bookmarks: 8250,19159,32795,54619,73704,76431,120068,140528
DistanceSpacing: 1
BeatDivisor: 2
GridSize: 4

[Metadata]
Title:When They Cry -Rosin Mix-
Artist:Rap-bit & Ritsuka
Creator:Lanttu
Version:Normal
Source:
Tags:vocaloid kagamine rin higurashi roshin meltdown rappubito iroha

[Difficulty]
HPDrainRate:3
CircleSize:3
OverallDifficulty:3
ApproachRate:4
SliderMultiplier:1.2
SliderTickRate:2

[Events]
//Background and Video events
0,0,"bg.png"
//Break Periods
2,68456,73754
//Storyboard Layer 0 (Background)
//Storyboard Layer 1 (Fail)
//Storyboard Layer 2 (Pass)
//Storyboard Layer 3 (Foreground)
//Storyboard Sound Samples
//Background Colour Transformations
3,100,47,120,171

[TimingPoints]
8256,340.909090909091,4,2,1,50,1,0
19165,-100,4,2,1,75,0,0
32801,-100,4,1,1,50,0,0
32971,-100,4,2,1,100,0,0
44051,-100,4,2,0,100,0,0
44221,-100,4,2,1,100,0,0
54960,-100,4,2,0,100,0,0
55131,-100,4,2,1,100,0,0
65528,-100,4,2,0,100,0,0
65613,-100,4,2,1,50,0,0
68256,-100,4,2,1,5,0,0
75074,-100,4,2,1,75,0,0
75756,-100,4,2,1,90,0,0
76437,-100,4,1,1,50,0,1
76608,-100,4,2,1,100,0,1
87346,-100,4,1,1,50,0,1
87517,-100,4,2,1,100,0,1
98256,-100,4,1,1,50,0,1
98426,-100,4,2,1,100,0,1
109165,-100,4,1,1,50,0,1
109335,-100,4,2,1,100,0,1
120074,-100,4,2,1,75,0,0

[Colours]
Combo1 : 193,248,165
Combo2 : 85,147,191
Combo3 : 146,235,230
Combo4 : 203,230,238
SliderBorder : 255,255,255

[HitObjects]
44,48,8256,2,0,B|8:60|0:92|12:124|48:136,1,120,0|8
196,36,9108,2,0,B|256:36,1,60,0|8
256,156,9619,2,0,B|208:176|208:176|140:160,1,120,0|8
256,36,10471,2,0,B|315:36,1,60,0|8
468,48,10983,6,0,B|504:60|512:92|500:124|464:136,1,120,0|8
316,36,11835,2,0,B|256:36,1,60,0|8
256,156,12346,2,0,B|304:176|304:176|372:160,1,120,0|8
256,36,13199,2,0,B|192:36,1,60,0|8
256,156,13710,6,0,B|256:276,1,120,0|8
80,328,14562,2,0,B|124:284,1,60,0|8
204,196,15074,2,0,B|224:220|256:232|288:220|308:196,1,120,0|8
432,328,15926,2,0,B|388:284,1,60,0|8
384,164,16437,22,0,B|412:158|440:141|457:113|463:84,1,119.999996423721,0|8
284,100,17290,2,0,B|256:80|228:100,1,60,0|8
128,164,17801,2,0,B|99:158|71:141|54:113|48:84,1,119.999996423721,0|8
228,100,18653,2,0,B|256:120|284:100,1,60,0|8
312,216,19165,6,0,B|292:232|256:240|220:232|200:216,2,120,4|8|0
432,216,20187,2,0,B|476:172,2,60,8|0|2
432,336,20869,1,8
312,336,21210,2,0,B|292:320|256:312|220:320|200:336,1,120,0|8
200,216,21892,6,0,B|220:232|256:240|292:232|312:216,2,120,2|8|0
80,216,22915,2,0,B|36:172,2,60,8|0|2
80,336,23596,1,8
200,336,23937,2,0,B|220:320|256:312|292:320|312:336,1,120,0|8
372,232,24619,21,2
256,196,24960,1,8
140,232,25301,1,0
156,112,25642,2,0,B|192:60|256:52,1,120,8|2
356,112,26324,2,0,B|320:60|256:52,1,120,8|0
256,172,27006,1,8
348,248,27346,6,0,B|400:248|400:196|452:196,2,120,2|8|0
256,324,28369,1,8
164,248,28710,2,0,B|112:248|112:196|60:196,2,120,2|8|0
256,172,29733,1,8
256,52,30074,1,4
228,324,32119,6,2,B|256:340|284:324,3,59.9999982118607
256,272,32801,22,0,B|240:228|192:232|192:232|172:192,1,120,4|8
164,76,33483,2,0,B|132:128|68:144,1,120,0|8
16,36,34165,6,0,B|44:48|72:52,2,60,2|0|8
68,144,34846,1,0
132,244,35187,1,8
100,360,35528,6,0,B|124:332|124:332|172:328|196:296,1,120,2|8
316,296,36210,2,0,B|341:329|389:333|389:333|413:361,1,120,0|8
384,244,36892,22,0,B|328:216|304:152,1,120,2|8
128,244,37574,2,0,B|184:216|208:152,1,120,0|8
256,272,38256,6,0,B|272:228|320:232|320:232|340:192,1,120,2|8
348,76,38937,2,0,B|380:128|444:144,1,120,0|8
496,36,39619,6,0,B|468:48|440:52,2,60,2|0|8
444,144,40301,1,0
380,244,40642,1,8
412,360,40983,22,0,B|388:332|388:332|340:328|316:296,1,120,2|8
196,296,41665,2,0,B|171:329|123:333|123:333|99:361,1,120,0|8
128,244,42346,6,0,B|184:216|208:152,1,120,2|8
384,244,43028,2,0,B|328:216|304:152,1,120,0|8
256,48,43710,6,0,B|256:108,2,60,2|0|4
196,152,44392,1,0
316,152,44733,1,8
340,208,44903,2,0,B|288:208|256:236|256:236|224:208|172:208,1,180,2|8
52,220,45756,21,0
160,268,46096,1,8
108,160,46437,2,0,B|80:120|80:120|40:116|20:80,2,120,2|8|0
160,268,47460,5,8
256,336,47801,1,2
352,268,48142,1,8
316,152,48483,1,0
196,152,48824,1,8
256,48,49165,6,0,B|256:108,2,60,2|0|8
316,152,49846,1,0
196,152,50187,1,8
172,208,50358,2,0,B|224:208|256:236|256:236|288:208|340:208,1,180,2|8
460,220,51210,21,0
352,268,51551,1,8
404,160,51892,2,0,B|432:120|432:120|472:116|492:80,2,120,2|8|0
352,268,52915,5,8
256,336,53256,1,2
160,268,53596,1,8
256,196,53937,1,0
256,72,54278,6,0,B|256:8,2,60,8|0|4
136,68,54960,2,0,B|88:20,2,60,4|0|0
144,192,55642,1,8
200,300,55983,22,0,B|256:336|312:300,1,120,2|8
256,192,56665,1,0
256,72,57006,6,0,B|256:8,2,60,8|0|2
376,68,57687,2,0,B|424:20,2,60,8|0|0
368,192,58369,1,8
312,300,58710,6,0,B|256:336|200:300,1,120,2|8
256,192,59392,1,0
284,76,59733,2,0,B|256:68|224:76,2,60,8|0|2
184,148,60415,22,0,B|172:184|96:172|84:208,1,120,8|0
140,312,61096,1,8
256,276,61437,2,0,B|256:212,2,60,2|0|8
372,312,62119,1,0
427,206,62460,2,0,B|416:172|340:184|328:148,1,120,8|2
312,28,63142,6,0,B|272:40|256:48|256:48|240:40|200:28,2,120,8|0|8
336,84,63994,2,0,B|296:96|256:124|256:124|216:96|176:84,1,180,2|8
196,200,64846,1,0
316,200,65187,1,8
256,304,65528,1,4
256,192,65699,12,0,68256
316,244,75074,6,0,B|341:267|375:267,2,60,0|0|8
196,244,75756,2,0,B|170:267|136:267,2,60,0|0|8
136,140,76437,6,0,B|185:102|201:32,1,120,6|8
312,40,77119,2,0,B|326:102|376:140,1,120,2|8
332,184,77631,2,0,B|280:196|256:228|256:228|232:196|176:184,1,180,6|8
200,304,78483,2,0,B|256:340|312:304,1,120,2|8
424,260,79165,5,4
504,172,79506,1,8
412,96,79846,2,0,B|412:64|396:40,2,60,2|0|8
332,184,80528,5,4
304,300,80869,2,0,B|284:260|228:260|208:300,1,120,8|2
180,184,81551,1,8
88,260,81892,5,4
8,172,82233,1,8
100,96,82574,2,0,B|100:64|116:40,2,60,2|0|8
180,184,83256,5,4
208,300,83596,2,0,B|228:260|284:260|304:300,1,120,8|2
332,184,84278,1,8
344,64,84619,6,0,B|400:88,2,60,4|0|8
256,144,85301,1,2
168,64,85642,2,0,B|112:88,2,60,8|0|4
256,144,86324,2,0,B|288:168|224:232|256:256,2,120,8|2|8
168,224,87346,6,0,B|160:276|160:276|192:296|196:332,1,120,6|8
317,330,88028,2,0,B|320:296|352:276|352:276|344:224,1,120,2|8
341,161,88540,2,0,B|256:216|172:161,1,180,6|8
204,48,89392,2,0,B|256:100|308:48,1,120,2|8
408,112,90074,5,4
496,28,90415,1,8
492,148,90756,2,0,B|484:180|492:212,2,60,2|0|8
404,228,91437,5,4
316,148,91778,2,0,B|196:148,1,120,8|2
108,228,92460,1,8
104,112,92801,5,4
16,28,93142,1,8
20,148,93483,2,0,B|28:180|20:212,2,60,2|0|8
108,228,94165,5,4
196,148,94506,2,0,B|316:148,1,120,8|2
404,228,95187,1,8
364,340,95528,5,4
256,288,95869,2,0,B|256:348,2,60,8|0|2
148,344,96551,1,8
200,236,96892,2,0,B|256:200|312:236,1,120,4|8
316,116,97574,1,2
196,116,97915,1,8
148,8,98256,6,0,B|188:33|188:33|222:55|256:36,1,120,6|8
364,8,98937,2,0,B|323:33|323:33|289:55|255:36,1,120,2|8
256,96,99449,2,0,B|303:132|208:228|256:264,1,180,6|8
316,368,100301,1,2
196,368,100642,1,8
132,268,100983,6,0,B|96:216|32:208,1,120,4|8
28,328,101665,1,2
132,268,102006,1,8
116,148,102346,5,4
208,224,102687,2,0,B|236:236|256:260|256:260|276:236|304:224,1,120,8|2
396,148,103369,1,8
380,268,103710,6,0,B|416:216|480:208,1,120,4|8
484,328,104392,1,2
380,268,104733,1,8
396,148,105074,5,4
304,224,105415,2,0,B|276:236|256:260|256:260|236:236|208:224,1,120,8|2
116,148,106096,1,8
136,28,106437,6,0,B|116:48|84:56,2,60,4|0|8
256,44,107119,1,2
376,28,107460,2,0,B|396:48|428:56,2,60,8|0|4
312,132,108142,2,0,B|256:168|200:132,2,120,8|2|8
364,240,109165,6,0,B|369:304|310:276|316:341,1,120,6|8
196,341,109846,2,0,B|201:276|142:303|148:239,1,120,2|8
176,184,110358,2,0,B|224:192|256:152|256:152|288:192|336:184,1,180,6|8
312,68,111210,2,0,B|256:28|200:68,1,120,2|8
84,104,111892,5,4
176,184,112233,1,8
112,284,112574,2,0,B|204:364,1,120,2|8
232,308,113085,1,0
256,256,113256,1,4
309,362,113596,2,0,B|399:283,1,120,8|2
336,184,114278,1,8
428,104,114619,5,4
336,184,114960,1,8
400,284,115301,2,0,B|308:364,1,120,2|8
280,308,115812,1,0
256,256,115983,1,4
203,362,116324,2,0,B|113:283,1,120,8|2
204,200,117006,6,0,B|220:176|256:168|292:176|308:200,1,120,8|4
256,92,117687,2,0,B|256:24,2,60,8|0|2
148,144,118369,1,8
256,196,118710,2,0,B|256:320,2,120,4|8|2
364,144,119733,1,8
384,264,120074,6,0,B|432:260|432:260|436:216|476:208,2,120,4|8|0
316,364,121096,1,8
196,364,121437,1,2
256,260,121778,1,8
256,260,122119,2,0,B|256:200,2,60,0|0|8
128,264,122801,6,0,B|80:260|80:260|76:216|36:208,2,120,2|8|0
196,364,123824,1,8
316,364,124165,1,2
256,260,124506,1,8
256,260,124846,2,0,B|256:200,2,60,0|0|8
368,212,125528,22,0,B|368:136|316:108,1,120,2|8
193,109,126210,2,0,B|144:136|144:212,1,120,0|8
84,316,126892,1,2
200,280,127233,2,0,B|226:262|256:280|256:280|285:297|312:280,1,120,8|0
428,316,127915,1,8
360,216,128256,5,2
256,160,128596,1,8
152,216,128937,1,0
256,160,129278,2,0,B|256:40,2,120,8|2|8
256,160,130642,1,8
136,100,130983,6,0,B|80:100|80:100|64:128|24:128,2,120,2|8|0
84,208,132006,2,0,B|116:180|116:180|192:180,1,120,8|2
156,296,132687,21,8
256,232,133028,1,0
356,300,133369,1,8
318,180,133710,6,0,B|395:180|395:180|427:208,1,120,2|8
375,99,134392,2,0,B|431:99|431:99|447:127|486:127,2,120,0|8|2
256,72,135415,2,0,B|256:196,2,120,8|0|8
168,156,136437,6,0,B|168:208|168:208|168:244|200:268,1,120,2|8
314,266,137119,2,0,B|344:244|344:208|344:208|344:156,1,120,0|8
256,76,137801,1,2
256,196,138142,1,8
196,300,138483,1,0
316,300,138824,1,8
364,188,139165,22,0,B|336:140|336:140|336:92|312:68,1,120,2|8
192,80,139846,2,0,B|176:96|176:140|176:140|149:190,1,120,0|8
256,132,140528,38,0,B|256:192,1,60,4|0
