osu file format v9

[General]
AudioFilename: when they cry roshin mix.mp3
AudioLeadIn: 0
PreviewTime: 75579
Countdown: 0
SampleSet: Soft
StackLeniency: 0.5
Mode: 0
LetterboxInBreaks: 0

[Editor]
Bookmarks: 8250,19159,32795,54628,73704,76431,120068,140537
DistanceSpacing: 1
BeatDivisor: 2
GridSize: 4

[Metadata]
Title:When They Cry -Rosin Mix-
Artist:Rap-bit & Ritsuka
Creator:Lanttu
Version:Easy
Source:
Tags:vocaloid kagamine rin higurashi roshin meltdown rappubito iroha

[Difficulty]
HPDrainRate:1
CircleSize:3
OverallDifficulty:2
ApproachRate:2
SliderMultiplier:0.8
SliderTickRate:1

[Events]
//Background and Video events
0,0,"bg.png"
//Break Periods
2,68456,73514
//Storyboard Layer 0 (Background)
//Storyboard Layer 1 (Fail)
//Storyboard Layer 2 (Pass)
//Storyboard Layer 3 (Foreground)
//Storyboard Sound Samples
//Background Colour Transformations
3,100,47,120,171

[TimingPoints]
8256,340.909090909091,4,2,1,50,1,0
19165,-100,4,2,1,75,0,0
32801,-100,4,1,1,50,0,0
32971,-100,4,2,1,100,0,0
65528,-100,4,2,0,100,0,0
65613,-100,4,2,1,50,0,0
68256,-100,4,2,1,5,0,0
75074,-100,4,2,1,75,0,0
75756,-100,4,2,1,90,0,0
76437,-100,4,1,1,50,0,1
76608,-100,4,2,1,100,0,1
87346,-100,4,1,1,50,0,1
87517,-100,4,2,1,100,0,1
98256,-100,4,1,1,50,0,1
98426,-100,4,2,1,100,0,1
109165,-100,4,1,1,50,0,1
109335,-100,4,2,1,100,0,1
120074,-100,4,2,1,75,0,0

[Colours]
Combo1 : 193,248,165
Combo2 : 85,147,191
Combo3 : 146,235,230
Combo4 : 203,230,238
SliderBorder : 255,255,255

[HitObjects]
296,96,8256,2,0,B|356:128|380:192|356:256|296:288,1,240,0|8
216,288,9619,2,0,B|156:256|132:192|156:128|216:96,1,240,0|8
256,164,10983,6,0,B|136:196|84:320,1,240,0|8
164,332,12346,2,0,B|192:268|256:240|320:268|348:332,1,240,0|8
428,318,13710,2,0,B|376:196|256:164,1,240,0|8
208,100,15074,2,0,B|256:88|348:36|256:-28|164:36|256:88|304:100,1,240,0|8
256,164,16437,6,0,B|288:220|236:261|236:261|168:308|212:372,1,240,0|8
299,372,17801,2,0,B|344:308|276:261|276:261|224:220|256:164,1,240,0|8
308,100,19165,22,0,B|296:80|256:64|216:80|204:100,2,120,4|8|8
364,160,20528,2,0,B|396:216|396:216|452:232|452:288,1,160,2|8
308,216,21892,6,0,B|296:236|256:252|216:236|204:216,2,120,2|8|8
332,288,23256,2,0,B|312:304|256:324|200:304|180:288,1,160,2|8
256,148,24619,6,0,B|212:116|256:84|256:84|300:52|256:20,1,160,2|8
148,160,25983,2,0,B|116:216|116:216|60:232|60:288,1,160,2|8
221,207,27346,22,0,B|229:221|256:231|282:221|290:207,2,80,2|0|8
332,324,28710,2,0,B|312:340|256:360|200:340|180:324,1,160,2|8
256,184,30074,1,4
216,328,32119,22,2,B|256:344|296:328,1,80
256,256,32801,38,0,B|200:232|156:272|156:272|104:252,1,160,4|8
28,112,34165,2,0,B|64:132|80:180,2,80,2|0|8
108,252,35528,6,0,B|92:208|92:208|160:196|176:140,1,160,2|8
336,141,36892,2,0,B|352:196|420:208|420:208|404:252,1,160,2|8
256,256,38256,22,0,B|312:232|356:272|356:272|408:252,1,160,2|8
484,112,39619,2,0,B|448:132|432:180,2,80,2|0|8
404,252,40983,6,0,B|420:208|420:208|352:196|336:140,1,160,2|8
175,141,42346,2,0,B|160:196|92:208|92:208|108:252,1,160,2|8
256,316,43710,6,0,B|256:152,2,160,2|8|4
408,260,45756,1,8
452,108,46437,22,0,B|398:74|398:74|349:90|307:57,2,160,2|8|2
432,184,48142,1,0
408,260,48483,1,8
256,316,49165,6,0,B|256:152,2,160,2|8|2
104,260,51210,1,8
60,108,51892,6,0,B|114:74|114:74|163:90|205:57,2,160,2|8|2
80,184,53596,1,0
104,260,53937,1,8
212,136,54619,22,0,B|256:164|296:192|256:204|216:192|256:164|300:136,1,160,4|8
256,72,55642,1,0
336,64,55983,2,0,B|372:80|380:128|380:128|456:148,1,160,2|8
300,136,57346,6,0,B|256:164|216:192|256:204|296:192|256:164|212:136,1,160,2|8
256,72,58369,1,0
176,64,58710,2,0,B|140:80|132:128|132:128|56:148,1,160,2|8
56,308,60074,6,0,B|92:292|100:244|100:244|176:224,1,160,2|8
335,223,61437,2,0,B|412:244|412:244|420:292|456:308,1,160,2|8
400,156,62801,22,0,B|376:112|328:112|328:112|256:112,1,160,2|8
112,156,64165,2,0,B|136:112|184:112|184:112|256:112,1,160,2|8
256,272,65528,1,4
256,192,65699,12,0,68256
324,244,75074,6,0,B|304:276|256:296|208:276|188:244,1,160,0|8
256,200,76096,1,8
304,136,76437,22,0,B|376:136|368:64|440:64,2,160,6|8|4
328,212,78142,1,0
256,244,78483,1,8
184,212,78824,1,0
208,136,79165,6,0,B|136:136|144:64|72:64,2,160,6|8|4
184,212,80869,1,0
256,244,81210,1,8
328,212,81551,1,0
324,292,81892,6,0,B|304:324|256:344|208:324|188:292,2,160,4|8|4
256,244,83596,1,0
296,176,83937,1,8
216,176,84278,1,0
188,100,84619,6,0,B|240:96|256:64|256:64|272:96|324:100,2,160,4|8|4
296,220,86665,2,0,B|256:212|256:212|216:220,1,80,8|0
140,236,87346,6,0,B|80:248|80:248|60:200|-4:204,2,160,6|8|4
176,308,89051,1,0
256,296,89392,1,8
336,308,89733,1,0
372,236,90074,6,0,B|432:248|432:248|452:200|516:204,2,160,4|8|4
336,308,91778,1,0
256,296,92119,1,8
176,308,92460,1,0
204,232,92801,6,0,B|200:176|200:176|216:176|216:176|208:84,1,160,4|8
256,24,93824,1,0
303,88,94165,2,0,B|296:176|296:176|312:176|312:176|308:232,1,160,4|8
256,296,95187,1,8
336,308,95528,5,4
256,168,96210,1,8
176,308,96892,1,4
256,168,97574,1,8
256,88,97915,1,0
324,128,98256,6,0,B|377:161|377:161|423:190|468:165,2,160,6|8|4
336,48,99960,1,0
256,36,100301,1,8
176,48,100642,1,0
188,128,100983,6,0,B|134:161|134:161|88:190|43:165,2,160,4|8|4
176,48,102687,1,0
256,36,103028,1,8
336,48,103369,1,0
300,120,103710,6,0,B|292:188|220:180|212:248,1,160,4|8
256,316,104733,1,0
299,247,105074,2,0,B|292:180|220:188|212:120,2,160,4|8|4
180,352,107119,6,0,B|256:308|332:352,1,160,8|4
296,196,108483,1,8
216,196,108824,1,0
136,184,109165,6,0,B|142:98|63:135|71:49,2,160,6|8|4
196,236,110869,1,0
256,184,111210,1,8
316,236,111551,1,0
376,184,111892,6,0,B|369:98|448:135|440:49,2,160,4|8|4
316,236,113596,1,0
256,184,113937,1,8
196,236,114278,1,0
176,312,114619,6,0,B|128:320|120:360|120:360|40:360,2,160,6|8|4
256,328,116324,2,0,B|256:248,2,80,0|8|0
336,312,117346,6,0,B|384:320|392:360|392:360|472:360,2,160,4|8|4
256,328,119051,1,0
256,248,119392,1,8
256,168,119733,1,0
188,124,120074,22,0,B|212:92|256:72|300:92|324:124,2,160,4|8|2
256,268,122119,1,8
188,224,122460,1,0
112,200,122801,6,0,B|56:196|56:196|48:140|8:108,2,160,2|8|2
256,268,124846,1,8
324,224,125187,1,0
400,200,125528,6,0,B|456:196|456:196|464:140|504:108,2,160,2|8|2
336,52,127574,1,8
256,36,127915,1,0
176,52,128256,1,2
256,176,128937,21,8
256,256,129278,1,0
256,336,129619,1,2
256,176,130301,5,8
208,112,130642,1,0
136,80,130983,2,0,B|56:80|56:80|-12:128,2,160,2|8|2
256,176,133028,5,8
304,112,133369,1,0
376,80,133710,2,0,B|456:80|456:80|524:128,2,160,2|8|2
296,220,135756,21,8
216,220,136096,1,0
180,292,136437,2,0,B|256:336|332:292,2,160,2|8|2
256,192,138483,1,8
332,92,139165,6,0,B|256:48|180:92,1,160,2|8
256,192,140528,21,4
