osu file format v11

[General]
AudioFilename: OAO.mp3
AudioLeadIn: 2000
PreviewTime: 48082
Countdown: 0
SampleSet: Normal
StackLeniency: 0.7
Mode: 0
LetterboxInBreaks: 0

[Editor]
DistanceSpacing: 1
BeatDivisor: 2
GridSize: 4

[Metadata]
Title:Sei Natsu
TitleUnicode:Sei Natsu
Artist:Ranko
ArtistUnicode:Ranko
Creator:Amamiya Yuko
Version:Normal
Source:Touhou
Tags:c82 ZUN x847606653 Flask Buta-Otome Bowling
BeatmapID:188142
BeatmapSetID:58785

[Difficulty]
HPDrainRate:3
CircleSize:4
OverallDifficulty:3
ApproachRate:5
SliderMultiplier:0.8
SliderTickRate:1

[Events]
//Background and Video events
0,0,"BG4.jpg"
//Break Periods
2,68382,76582
2,135582,143782
//Storyboard Layer 0 (Background)
//Storyboard Layer 1 (Fail)
//Storyboard Layer 2 (Pass)
//Storyboard Layer 3 (Foreground)
//Storyboard Sound Samples
//Background Colour Transformations
3,100,163,162,255

[TimingPoints]
-218,300,4,1,1,50,1,0
48982,-100,4,1,1,60,0,1
58282,-100,4,2,2,50,0,0
58582,-100,4,1,1,60,0,1
68182,-100,4,1,1,60,0,0
116182,-100,4,1,1,60,0,1
125632,-100,4,1,1,40,0,0
125782,-100,4,1,1,60,0,1
135382,-100,4,1,1,60,0,0
135482,-100,4,2,2,60,0,0
154507,-100,4,1,1,60,0,0
156982,-100,4,1,1,60,0,1
163882,-100,4,2,2,50,0,0
164182,-100,4,1,1,60,0,1
173482,-100,4,2,2,60,0,0
173782,-100,4,1,1,60,0,1
178282,-100,4,2,2,60,0,0
178582,-100,4,1,1,60,0,1
183382,-100,4,1,1,70,0,0

[Colours]
Combo1 : 96,196,173
Combo2 : 68,102,159
Combo3 : 245,158,185
Combo4 : 220,198,139

[HitObjects]
136,72,982,2,0,P|84:80|88:172,1,160,4|0,0:0|0:0,0:0:0
164,152,1882,1,8,0:0:0
188,228,2182,2,0,P|240:220|236:128,1,160
248,48,3082,1,8,0:0:0
324,24,3382,6,0,P|368:16|416:32,1,80,0|8,0:0|0:0,0:0:0
464,76,3982,2,0,P|472:120|456:168,1,80,0|8,0:0|0:0,0:0:0
404,204,4582,2,0,P|384:272|440:336,2,160,0|0|4,0:0|0:0|0:0,0:0:0
460,260,6082,5,8,0:0:0
480,184,6382,2,0,P|460:148|420:128,1,80,0|8,0:0|0:0,0:0:0
348,124,6982,2,0,P|315:105|295:69,1,80,0|8,0:0|0:0,0:0:0
216,69,7582,2,0,P|196:105|164:124,1,80,0|8,0:0|0:0,0:0:0
86,141,8182,5,0,0:0:0
79,221,8482,1,8,0:0:0
152,252,8782,1,0,0:0:0
205,192,9082,1,8,0:0:0
256,192,9382,12,4,10582,0:0:0
344,140,11182,6,0,P|360:184|348:224,1,80,0|8,0:0|0:0,0:0:0
312,284,11782,2,0,P|264:332|196:280,1,160
164,216,12682,1,8,0:0:0
112,152,12982,6,0,P|80:124|36:120,1,80,0|8,0:0|0:0,0:0:0
48,200,13582,2,0,P|39:241|58:281,1,80,0|8,0:0|0:0,0:0:0
96,344,14182,2,0,P|148:388|208:344|208:344|268:392|324:340,1,240,0|8,0:0|0:0,0:0:0
364,284,15382,5,0,0:0:0
404,216,15682,2,0,P|436:180|440:144,2,80,8|0|8,0:0|0:0|0:0,0:0:0
324,216,16582,2,0,P|272:220|248:172|248:172|248:104,1,160
208,36,17482,1,8,0:0:0
172,108,17782,6,0,P|172:188,1,80,0|8,0:0|0:0,0:0:0
152,264,18382,2,0,P|140:304|104:328,1,80,0|8,0:0|0:0,0:0:0
72,256,18982,2,0,P|42:234|30:194,1,80,0|8,0:0|0:0,0:0:0
48,116,19582,2,0,P|48:76|24:40,2,80,0|8|4,0:0|0:0|0:0,0:0:0
116,160,20482,6,0,P|145:138|157:98,2,80,8|0|8,0:0|0:0|0:0,0:0:0
144,236,21382,2,0,P|196:208|236:112,1,160
256,40,22282,1,8,0:0:0
320,88,22582,6,0,P|360:108|396:104,1,80,0|8,0:0|0:0,0:0:0
400,184,23182,2,0,P|362:208|348:241,1,80,0|8,0:0|0:0,0:0:0
428,260,23782,2,0,P|364:320|272:224,1,240,0|8,0:0|0:0,0:0:0
256,156,24982,5,4,0:0:0
220,84,25282,2,0,P|196:52|152:40,2,80,8|0|8,0:0|0:0|0:0,0:0:0
172,148,26182,2,0,P|152:216|68:240,1,160,4|0,0:0|0:0,0:0:0
96,164,27082,1,8,0:0:0
16,160,27382,6,0,P|32:116|64:96,1,80,4|8,0:0|0:0,0:0:0
136,84,27982,2,0,P|162:65|178:21,1,80,0|8,0:0|0:0,0:0:0
260,28,28582,2,0,P|256:92|220:128|220:128|232:208|304:216,1,240,0|8,0:0|0:0,0:0:0
304,136,29782,5,4,0:0:0
372,176,30082,2,0,P|380:136|368:96,2,80,8|0|8,0:0|0:0|0:0,0:0:0
320,240,30982,2,0,P|292:312|192:236,1,240,0|8,0:0|0:0,0:0:0
256,196,32182,5,0,0:0:0
308,136,32482,2,0,P|348:112|364:76,2,80,8|0|8,0:0|0:0|0:0,0:0:0
228,120,33382,2,0,P|126:50|98:122,1,240,0|8,0:0|0:0,0:0:0
164,172,34582,5,0,0:0:0
224,224,34882,2,0,P|248:268|288:284,2,80,8|0|8,0:0|0:0|0:0,0:0:0
152,256,35782,2,0,P|176:312|264:360,1,160
292,284,36682,1,8,0:0:0
372,284,36982,6,0,P|408:268|448:284,1,80,0|8,0:0|0:0,0:0:0
448,360,37582,2,0,P|412:376|372:360,1,80,0|8,0:0|0:0,0:0:0
308,320,38182,2,0,P|272:304|232:320,1,80,0|8,0:0|0:0,0:0:0
176,368,38782,2,0,P|139:380|103:364,2,80,0|8|4,0:0|0:0|0:0,0:0:0
144,296,39682,6,0,P|132:256|140:212,1,80,8|0,0:0|0:0,0:0:0
172,148,40282,1,8,0:0:0
232,96,40582,2,0,P|268:160|220:212|220:212|232:280|296:292,1,240,0|8,0:0|0:0,0:0:0
372,304,41782,5,0,0:0:0
452,300,42082,2,0,P|492:280|508:240,2,80,8|0|8,0:0|0:0|0:0,0:0:0
372,304,42982,2,0,P|364:244|304:208|304:208|368:200|388:128,1,240,0|8,0:0|0:0,0:0:0
464,152,44182,6,0,P|460:96|404:56,2,120,4|0|0,0:0|0:0|0:0,0:0:0
464,232,45382,2,0,P|460:288|404:328,2,120,4|0|0,0:0|0:0|0:0,0:0:0
256,192,46582,12,4,47782,0:0:0
120,80,48982,6,0,P|60:120|64:200,1,160,4|0,0:0|0:0,0:0:0
128,156,49882,1,8,0:0:0
136,236,50182,2,0,P|196:196|192:116,1,160
212,36,51082,1,8,0:0:0
264,96,51382,6,0,P|280:168|248:256,1,160
208,312,52282,1,8,0:0:0
132,328,52582,2,0,P|156:372|192:384,1,80,0|8,0:0|0:0,0:0:0
260,372,53182,2,0,P|286:329|278:292,2,80,0|8|0,0:0|0:0|0:0,0:0:0
208,312,54082,6,0,P|168:260|80:264,1,160,8|8,0:0|0:0,0:0:0
28,324,54982,2,0,P|0:268|56:188,1,160
108,136,55882,1,8,0:0:0
188,136,56182,6,0,P|236:140|272:116,1,80,0|8,0:0|0:0,0:0:0
296,200,56782,2,0,P|268:239|271:282,1,80,0|8,0:0|0:0,0:0:0
188,288,57382,2,0,P|224:336|348:256,1,240,0|8,0:0|0:0,0:0:0
384,188,58582,6,0,P|420:148|468:168|468:168|472:92,1,160,4|0,0:0|0:0,0:0:0
500,24,59482,1,8,0:0:0
420,40,59782,2,0,P|392:60|392:96|392:96|352:108|316:156,1,160
256,204,60682,1,8,0:0:0
176,220,60982,6,0,P|200:264|312:268,1,160
368,236,61882,1,8,0:0:0
440,272,62182,2,0,P|480:288|492:328,2,80,0|8|0,0:0|0:0|0:0,0:0:0
372,316,63082,1,8,0:0:0
300,352,63382,6,0,P|256:368|196:324,2,120,4|0|0,0:0|0:0|0:0,0:0:0
312,272,64582,2,0,P|254:234|210:250,2,120,4|0|0,0:0|0:0|0:0,0:0:0
256,192,65782,12,4,68182,0:0:0
84,112,77782,5,4,0:0:0
44,180,78082,2,0,P|28:224|32:268,2,80,8|0|8,0:0|0:0|0:0,0:0:0
124,176,78982,2,0,P|192:180|232:260,1,160
152,248,79882,1,8,0:0:0
72,248,80182,6,0,P|80:292|112:320,1,80,0|8,0:0|0:0,0:0:0
184,316,80782,2,0,P|208:340|216:384,1,80,0|8,0:0|0:0,0:0:0
296,372,81382,2,0,P|300:328|260:276|260:276|328:236|296:160,1,240,0|8,0:0|0:0,0:0:0
228,200,82582,5,0,0:0:0
148,212,82882,2,0,P|104:228|68:220,2,80,8|0|8,0:0|0:0|0:0,0:0:0
180,140,83782,2,0,P|224:104|280:136|280:136|332:112,1,160
408,108,84682,1,8,0:0:0
384,184,84982,6,0,P|304:224,1,80,0|8,0:0|0:0,0:0:0
232,228,85582,2,0,P|248:272|280:292,1,80,0|8,0:0|0:0,0:0:0
280,372,86182,2,0,P|204:376|136:292|148:204,1,240,0|8,0:0|0:0,0:0:0
176,132,87382,5,4,0:0:0
232,76,87682,2,0,P|272:64|292:32,2,80,8|0|8,0:0|0:0|0:0,0:0:0
156,56,88582,2,0,P|92:76|96:148|96:148|48:148,1,160
4,212,89482,1,8,0:0:0
40,284,89782,6,0,P|64:324|60:368,1,80,0|8,0:0|0:0,0:0:0
144,356,90382,2,0,P|144:316|165:281,1,80,0|8,0:0|0:0,0:0:0
220,340,90982,2,0,P|264:304|240:244|240:244|252:156|340:156,1,240,0|8,0:0|0:0,0:0:0
324,236,92182,5,4,0:0:0
348,312,92482,2,0,P|380:344|416:352,2,80,8|0|8,0:0|0:0|0:0,0:0:0
324,236,93382,2,0,P|392:224|404:160|404:160|404:104,1,160,0|0,0:0|0:0,0:0:0
364,48,94282,1,8,0:0:0
284,36,94582,6,0,P|244:40|208:76,1,80,4|8,0:0|0:0,0:0:0
164,128,95182,2,0,P|139:98|135:58,1,80,0|8,0:0|0:0,0:0:0
60,36,95782,2,0,P|60:112|172:220,1,240,0|8,0:0|0:0,0:0:0
236,268,96982,5,4,0:0:0
304,312,97282,2,0,P|328:352|328:384,2,80,8|0|8,0:0|0:0|0:0,0:0:0
316,232,98182,2,0,P|392:148|308:124,1,240,0|8,0:0|0:0,0:0:0
256,180,99382,5,0,0:0:0
196,232,99682,2,0,P|180:192|184:152,2,80,8|0|8,0:0|0:0|0:0,0:0:0
256,284,100582,2,0,P|264:332|132:316,1,240,0|8,0:0|0:0,0:0:0
120,244,101782,5,0,0:0:0
112,164,102082,2,0,P|92:120|64:108,2,80,8|0|8,0:0|0:0|0:0,0:0:0
44,208,102982,2,0,P|20:264|64:312|64:312|120:344,1,160
184,356,103882,1,8,0:0:0
256,324,104182,6,0,P|300:316|324:288,1,80,0|8,0:0|0:0,0:0:0
324,212,104782,2,0,P|295:177|258:171,1,80,0|8,0:0|0:0,0:0:0
184,160,105382,2,0,P|144:152|112:124,1,80,0|8,0:0|0:0,0:0:0
52,176,105982,2,0,P|65:214|56:256,2,80,0|0|4,0:0|0:0|0:0,0:0:0
60,96,106882,5,8,0:0:0
116,40,107182,2,0,P|160:28|200:40,1,80,0|8,0:0|0:0,0:0:0
256,84,107782,2,0,P|320:104|372:80|372:80|324:112|324:192,1,240,0|8,0:0|0:0,0:0:0
324,268,108982,5,0,0:0:0
296,344,109282,2,0,P|256:360|216:340,2,80,8|0|8,0:0|0:0|0:0,0:0:0
376,340,110182,2,0,P|440:320|492:344|492:344|444:312|444:232,1,240,0|8,0:0|0:0,0:0:0
440,160,111382,6,0,P|424:108|360:100,2,120,4|0|0,0:0|0:0|0:0,0:0:0
396,224,112582,2,0,P|337:213|321:161,2,120,4|0|0,0:0|0:0|0:0,0:0:0
256,192,113782,12,4,114982,0:0:0
160,104,116182,6,0,P|100:108|84:164|84:164|84:220,1,160,4|0,0:0|0:0,0:0:0
156,180,117082,1,8,0:0:0
152,260,117382,2,0,P|212:256|228:200|228:200|228:144,1,160
284,84,118282,1,8,0:0:0
336,144,118582,6,0,P|336:200|336:200|352:256|412:260,1,160
412,180,119482,1,8,0:0:0
480,224,119782,2,0,P|494:190|485:149,1,80,0|8,0:0|0:0,0:0:0
416,108,120382,2,0,P|379:112|348:140,2,80,0|8|0,0:0|0:0|0:0,0:0:0
436,32,121282,6,0,P|364:32|288:88,1,160,8|8,0:0|0:0,0:0:0
256,152,122182,2,0,P|185:200|113:200,1,160
40,168,123082,1,8,0:0:0
48,248,123382,6,0,P|68:288|104:308,1,80,0|8,0:0|0:0,0:0:0
176,312,123982,2,0,P|220:314|255:293,1,80,0|8,0:0|0:0,0:0:0
272,376,124582,2,0,P|312:348|232:224,1,240,0|8,0:0|0:0,0:0:0
220,304,125782,6,0,P|148:288|156:212|156:212|108:212,1,160
52,172,126682,1,8,0:0:0
120,132,126982,2,0,P|154:132|154:132|146:56|218:40,1,160
232,120,127882,1,8,0:0:0
296,72,128182,6,0,P|312:136|240:200,1,160
184,240,129082,1,8,0:0:0
136,304,129382,2,0,P|112:344|80:356,2,80,0|8|0,0:0|0:0|0:0,0:0:0
104,228,130282,1,8,0:0:0
116,148,130582,6,0,P|160:120|148:64|148:64|148:28,2,120,4|0|0,0:0|0:0|0:0,0:0:0
36,144,131782,2,0,P|-8:116|4:60|4:60|4:24,2,120,4|0|0,0:0|0:0|0:0,0:0:0
256,192,132982,12,4,135382,0:0:0
124,56,144982,6,0,P|96:88|100:128,1,80,4|8,0:0|0:0,0:0:0
144,188,145582,2,0,P|185:196|218:172,1,80,0|8,0:0|0:0,0:0:0
252,108,146182,2,0,P|238:67|201:51,2,80,0|8|0,0:0|0:0|0:0,0:0:0
296,172,147082,1,8,0:0:0
372,200,147382,6,0,P|444:248,1,80,0|8,0:0|0:0,0:0:0
392,312,147982,2,0,P|320:264,1,80,0|8,0:0|0:0,0:0:0
284,336,148582,2,0,P|356:384,2,80,0|8|0,0:0|0:0|0:0,0:0:0
208,316,149482,1,8,0:0:0
128,332,149782,6,0,P|92:352|48:352,1,80,0|8,0:0|0:0,0:0:0
32,276,150382,2,0,P|68:256|112:256,1,80,0|8,0:0|0:0,0:0:0
168,204,150982,6,0,P|152:140|72:92,2,160,4|0|4,0:0|0:0|0:0,0:0:0
256,336,152782,1,0,0:0:0
344,204,153382,2,0,P|360:140|440:92,2,160,0|8|4,0:0|0:0|0:0,0:0:0
256,192,155782,1,4,0:0:0
344,204,156982,6,0,P|356:248|340:284,1,80,4|8,0:0|0:0,0:0:0
276,320,157582,2,0,P|231:308|208:276,2,80,0|8|0,0:0|0:0|0:0,0:0:0
348,356,158482,2,0,P|384:376|436:372,2,80,8|0|8,0:0|0:0|0:0,0:0:0
276,320,159382,5,0,0:0:0
256,244,159682,2,0,P|208:200|232:136|232:136|180:136,1,160,8|8,0:0|0:0,0:0:0
148,204,160582,2,0,P|152:264|200:312|200:312|164:340,1,160
92,344,161482,1,8,0:0:0
16,324,161782,6,0,P|8:284|16:240,1,80,0|8,0:0|0:0,0:0:0
32,168,162382,2,0,P|44:128|36:91,1,80,0|8,0:0|0:0,0:0:0
80,24,162982,2,0,P|144:88|108:200|108:200|156:220,1,240,0|8,0:0|0:0,0:0:0
236,216,164182,6,0,P|216:276|128:292,1,160,4|0,0:0|0:0,0:0:0
156,220,165082,1,8,0:0:0
112,156,165382,2,0,P|72:184|80:236|80:236|48:264|56:304,1,160
108,356,166282,1,8,0:0:0
188,348,166582,6,0,P|248:364|336:328,1,160
380,264,167482,1,8,0:0:0
400,188,167782,2,0,P|420:144|448:132,2,80,0|8|0,0:0|0:0|0:0,0:0:0
324,208,168682,1,8,0:0:0
256,168,168982,6,0,P|196:168|144:136,2,120,4|0|0,0:0|0:0|0:0,0:0:0
328,132,170182,2,0,P|385:116|427:72,2,120,0|0|0,0:0|0:0|0:0,0:0:0
256,192,171382,12,8,173482,0:0:0
172,192,173782,6,0,P|168:236|232:264,2,120,4|0|0,0:0|0:0|0:0,0:0:0
236,144,174982,2,0,P|296:172|292:216,2,120,0|0|0,0:0|0:0|0:0,0:0:0
256,192,176182,12,8,178282,0:0:0
352,192,178582,6,0,P|352:244|352:244|340:280|296:280,2,120,4|0|0,0:0|0:0|0:0,0:0:0
432,192,179782,2,0,P|432:244|432:244|444:280|488:280,2,120
256,192,180982,12,4,183382,0:0:0
