osu file format v11

[General]
AudioFilename: OAO.mp3
AudioLeadIn: 2000
PreviewTime: 48082
Countdown: 0
SampleSet: Normal
StackLeniency: 0.7
Mode: 0
LetterboxInBreaks: 0

[Editor]
DistanceSpacing: 1
BeatDivisor: 4
GridSize: 4

[Metadata]
Title:Sei Natsu
TitleUnicode:Sei Natsu
Artist:Ranko
ArtistUnicode:Ranko
Creator:Amamiya Yuko
Version:Hard
Source:Touhou
Tags:c82 ZUN x847606653 Flask Buta-Otome Bowling
BeatmapID:188141
BeatmapSetID:58785

[Difficulty]
HPDrainRate:5
CircleSize:4
OverallDifficulty:6
ApproachRate:8
SliderMultiplier:1.6
SliderTickRate:1

[Events]
//Background and Video events
0,0,"BG4.jpg"
//Break Periods
2,68382,77032
2,135582,144232
//Storyboard Layer 0 (Background)
//Storyboard Layer 1 (Fail)
//Storyboard Layer 2 (Pass)
//Storyboard Layer 3 (Foreground)
//Storyboard Sound Samples
//Background Colour Transformations
3,100,163,162,255

[TimingPoints]
-218,300,4,2,1,80,1,0
532,-100,4,2,2,50,0,0
982,-100,4,1,1,50,0,0
7582,-80,4,1,1,50,0,0
8182,-66.6666666666667,4,1,1,50,0,0
8482,-100,4,1,1,50,0,0
10582,-100,4,1,2,50,0,0
10732,-100,4,2,2,60,0,0
11032,-100,4,2,1,60,0,0
11182,-100,4,1,2,60,0,0
11332,-100,4,2,1,60,0,0
11482,-100,4,2,2,60,0,0
11632,-100,4,2,1,60,0,0
11782,-100,4,2,2,60,0,0
12382,-100,4,1,2,60,0,0
12532,-100,4,2,1,60,0,0
12682,-100,4,2,2,60,0,0
12832,-100,4,2,1,60,0,0
12982,-100,4,2,2,60,0,0
13582,-100,4,1,2,60,0,0
13732,-100,4,2,1,60,0,0
13882,-100,4,2,2,60,0,0
14782,-100,4,1,2,60,0,0
14932,-100,4,2,1,60,0,0
15082,-100,4,2,2,60,0,0
15982,-100,4,1,2,60,0,0
16132,-100,4,2,2,60,0,0
16432,-100,4,2,1,60,0,0
16582,-100,4,2,2,60,0,0
17182,-100,4,1,2,60,0,0
17332,-100,4,2,2,60,0,0
18382,-100,4,1,2,60,0,0
18532,-100,4,2,2,60,0,0
18682,-100,4,2,1,60,0,0
18832,-100,4,2,2,60,0,0
19582,-100,4,1,2,60,0,0
19732,-100,4,2,2,60,0,0
20182,-100,4,1,2,60,0,0
20332,-100,4,2,2,60,0,0
20782,-100,4,1,2,60,0,0
20932,-100,4,2,2,60,0,0
21082,-100,4,2,1,60,0,0
21232,-100,4,2,2,60,0,0
21982,-100,4,1,2,60,0,0
22132,-100,4,2,2,60,0,0
22282,-100,4,2,1,60,0,0
22432,-100,4,2,2,60,0,0
23182,-100,4,1,2,60,0,0
23332,-100,4,2,2,60,0,0
24382,-100,4,1,2,60,0,0
24532,-100,4,2,1,60,0,0
24682,-100,4,2,2,60,0,0
24832,-100,4,2,1,60,0,0
24982,-100,4,1,2,40,0,0
25132,-100,4,2,2,60,0,0
25582,-100,4,1,2,60,0,0
25732,-100,4,2,2,60,0,0
26032,-100,4,2,1,60,0,0
26182,-100,4,1,2,60,0,0
26332,-100,4,2,2,60,0,0
26782,-100,4,1,2,60,0,0
26932,-100,4,2,2,60,0,0
27082,-100,4,2,1,60,0,0
27232,-100,4,2,2,60,0,0
27382,-100,4,1,2,60,0,0
27532,-100,4,2,1,60,0,0
27682,-100,4,2,2,60,0,0
28132,-100,4,2,1,60,0,0
28282,-100,4,2,2,60,0,0
28432,-100,4,2,1,60,0,0
28582,-100,4,2,2,60,0,0
29182,-100,4,2,1,60,0,0
29332,-100,4,2,2,60,0,0
29782,-100,4,1,2,60,0,0
29932,-100,4,2,2,60,0,0
30532,-100,4,2,1,60,0,0
30682,-100,4,2,2,60,0,0
30832,-100,4,2,1,60,0,0
30982,-100,4,2,2,60,0,0
31132,-100,4,1,2,60,0,0
31282,-100,4,2,2,60,0,0
31582,-100,4,1,2,60,0,0
31732,-100,4,2,2,60,0,0
31882,-100,4,2,1,60,0,0
32182,-100,4,2,2,60,0,0
32782,-100,4,1,2,60,0,0
32932,-100,4,2,2,60,0,0
33232,-100,4,1,2,60,0,0
33382,-100,4,2,2,60,0,0
33982,-100,4,1,2,60,0,0
34132,-100,4,2,2,60,0,0
34282,-100,4,2,1,60,0,0
34582,-100,4,2,2,60,0,0
35182,-100,4,1,2,60,0,0
35332,-100,4,2,2,60,0,0
35632,-100,4,1,2,60,0,0
35782,-100,4,2,2,60,0,0
35932,-100,4,2,1,60,0,0
36082,-100,4,2,2,60,0,0
36382,-100,4,1,2,60,0,0
36532,-100,4,2,2,60,0,0
36832,-100,4,2,1,60,0,0
36982,-100,4,2,2,60,0,0
37132,-100,4,2,1,60,0,0
37432,-100,4,2,2,60,0,0
39382,-100,4,1,2,60,0,0
39532,-100,4,2,2,60,0,0
39982,-100,4,1,2,60,0,0
40132,-100,4,2,2,60,0,0
40432,-100,4,1,2,60,0,0
40582,-100,4,2,2,60,0,0
40732,-100,4,2,1,60,0,0
40882,-100,4,2,2,60,0,0
41182,-100,4,2,1,60,0,0
41332,-100,4,2,2,60,0,0
41632,-100,4,2,1,60,0,0
41782,-100,4,2,2,60,0,0
42382,-100,4,1,2,60,0,0
42532,-100,4,2,2,60,0,0
42832,-100,4,1,2,60,0,0
42982,-100,4,2,2,60,0,0
43582,-100,4,1,2,60,0,0
43732,-100,4,2,2,60,0,0
44032,-100,4,2,1,60,0,0
44182,-100,4,2,2,60,0,0
44932,-100,4,2,1,60,0,0
45082,-100,4,2,2,60,0,0
45232,-100,4,1,2,60,0,0
45382,-100,4,1,2,40,0,0
45532,-100,4,2,2,60,0,0
46432,-100,4,1,2,60,0,0
46882,-100,4,2,2,50,0,0
47782,-100,4,1,1,50,0,0
48082,-200,4,1,2,60,0,0
48232,-200,4,2,1,60,0,0
48382,-200,4,1,2,60,0,0
48532,-200,4,2,1,60,0,0
48682,-200,4,2,2,60,0,0
48907,-200,4,2,0,31,0,0
48982,-100,4,1,1,60,0,1
57982,-200,4,2,2,40,0,0
58282,-200,4,2,2,50,0,0
58582,-100,4,1,1,60,0,1
68182,-100,4,1,2,80,0,0
77782,-133.333333333333,4,1,2,60,0,0
77932,-133.333333333333,4,2,2,60,0,0
78382,-133.333333333333,4,1,2,60,0,0
78532,-133.333333333333,4,2,2,60,0,0
78832,-133.333333333333,4,2,1,60,0,0
78982,-133.333333333333,4,2,2,60,0,0
79582,-133.333333333333,4,1,2,60,0,0
79732,-133.333333333333,4,2,2,60,0,0
80782,-133.333333333333,4,1,2,60,0,0
80932,-133.333333333333,4,2,2,60,0,0
81232,-133.333333333333,4,2,1,60,0,0
81382,-133.333333333333,4,2,2,60,0,0
81982,-133.333333333333,4,1,2,60,0,0
82132,-133.333333333333,4,2,2,60,0,0
82432,-133.333333333333,4,2,1,60,0,0
82582,-133.333333333333,4,2,2,60,0,0
83182,-133.333333333333,4,1,2,60,0,0
83332,-133.333333333333,4,2,2,60,0,0
83482,-133.333333333333,4,2,1,60,0,0
83782,-133.333333333333,4,2,2,60,0,0
84382,-133.333333333333,4,1,2,60,0,0
84532,-133.333333333333,4,2,2,60,0,0
85582,-133.333333333333,4,1,2,60,0,0
85732,-133.333333333333,4,2,2,60,0,0
86032,-133.333333333333,4,2,1,60,0,0
86182,-133.333333333333,4,2,2,60,0,0
86332,-133.333333333333,4,1,2,60,0,0
86482,-133.333333333333,4,2,2,60,0,0
86782,-133.333333333333,4,1,2,60,0,0
86932,-133.333333333333,4,2,2,60,0,0
87382,-133.333333333333,4,2,1,60,0,0
87532,-133.333333333333,4,2,2,60,0,0
87982,-133.333333333333,4,1,2,60,0,0
88132,-133.333333333333,4,2,2,60,0,0
89182,-133.333333333333,4,1,2,60,0,0
89332,-133.333333333333,4,2,2,60,0,0
89632,-133.333333333333,4,2,1,60,0,0
89782,-133.333333333333,4,2,2,60,0,0
90082,-133.333333333333,4,2,1,60,0,0
90232,-133.333333333333,4,2,2,60,0,0
90382,-133.333333333333,4,1,2,60,0,0
90532,-133.333333333333,4,2,2,60,0,0
91582,-133.333333333333,4,1,2,60,0,0
91732,-133.333333333333,4,2,2,60,0,0
92032,-133.333333333333,4,2,1,60,0,0
92182,-133.333333333333,4,2,2,60,0,0
93082,-133.333333333333,4,2,1,60,0,0
93232,-100,4,1,2,60,0,0
93382,-100,4,2,1,60,0,0
93532,-100,4,2,2,60,0,0
93682,-100,4,2,1,60,0,0
93832,-100,4,2,2,60,0,0
94432,-100,4,2,1,60,0,0
95032,-100,4,2,2,60,0,0
95182,-100,4,1,2,60,0,0
95332,-100,4,2,2,60,0,0
95632,-100,4,2,1,60,0,0
95782,-100,4,2,2,60,0,0
96082,-100,4,2,1,60,0,0
96232,-100,4,2,2,60,0,0
96382,-100,4,1,2,60,0,0
96532,-100,4,2,2,60,0,0
96982,-100,4,1,2,60,0,0
97132,-100,4,2,1,60,0,0
97432,-100,4,2,2,60,0,0
97582,-100,4,1,2,60,0,0
97732,-100,4,2,2,60,0,0
97882,-100,4,2,1,60,0,0
98182,-100,4,2,2,60,0,0
98332,-100,4,2,0,40,0,0
98482,-100,4,2,1,60,0,0
98632,-100,4,2,2,60,0,0
99082,-100,4,2,1,60,0,0
99232,-100,4,2,2,60,0,0
99982,-100,4,1,2,60,0,0
100132,-100,4,2,2,60,0,0
100432,-100,4,2,1,60,0,0
100582,-100,4,2,2,60,0,0
101182,-100,4,2,1,60,0,0
101332,-100,4,2,2,60,0,0
102382,-100,4,1,2,60,0,0
102532,-100,4,2,2,60,0,0
102682,-100,4,2,1,60,0,0
102832,-100,4,1,2,60,0,0
102982,-100,4,2,2,60,0,0
103132,-100,4,2,1,60,0,0
103282,-100,4,2,2,60,0,0
103582,-100,4,1,2,60,0,0
103732,-100,4,2,1,60,0,0
103882,-100,4,2,2,60,0,0
104032,-100,4,2,1,60,0,0
104182,-100,4,2,2,60,0,0
104332,-100,4,2,1,60,0,0
104632,-100,4,2,2,60,0,0
105082,-100,4,2,1,60,0,0
105232,-100,4,2,2,60,0,0
105382,-100,4,2,1,60,0,0
105532,-100,4,2,2,60,0,0
105682,-100,4,2,1,60,0,0
105832,-100,4,2,2,60,0,0
106432,-100,4,2,1,60,0,0
106882,-100,4,2,2,60,0,0
107182,-100,4,1,2,60,0,0
107332,-100,4,2,2,60,0,0
107632,-100,4,2,1,60,0,0
107782,-100,4,2,2,60,0,0
108382,-100,4,2,1,60,0,0
108532,-100,4,2,2,60,0,0
108832,-100,4,2,1,60,0,0
108982,-100,4,2,2,60,0,0
109582,-100,4,2,1,60,0,0
109732,-100,4,2,2,60,0,0
110032,-100,4,2,1,60,0,0
110182,-100,4,2,2,60,0,0
110332,-100,4,2,1,60,0,0
110482,-100,4,2,2,60,0,0
110782,-100,4,2,1,60,0,0
110932,-100,4,2,2,60,0,0
111232,-100,4,2,1,60,0,0
111382,-100,4,2,2,60,0,0
112432,-100,4,2,1,60,0,0
112582,-100,4,1,2,60,0,0
112732,-100,4,2,2,60,0,0
113032,-100,4,2,1,60,0,0
113332,-100,4,2,2,60,0,0
113482,-100,4,2,1,60,0,0
114082,-100,4,2,2,60,0,0
114982,-100,4,1,1,60,0,0
115282,-200,4,1,2,40,0,0
116182,-100,4,1,1,60,0,1
125182,-200,4,2,2,40,0,0
125632,-200,4,2,1,40,0,0
125782,-100,4,1,1,60,0,1
135382,-100,4,1,2,80,0,0
144982,-100,4,1,1,50,0,0
153982,-100,4,2,2,50,0,0
154582,-200,4,1,2,50,0,0
156382,-200,4,2,1,50,0,0
156682,-200,4,1,2,50,0,0
156982,-100,4,1,1,60,0,1
163582,-200,4,2,2,40,0,0
163882,-200,4,2,2,50,0,0
164182,-100,4,1,1,60,0,1
173482,-100,4,1,1,60,0,0
173782,-100,4,1,1,60,0,1
178282,-100,4,1,1,60,0,0
178582,-100,4,1,1,60,0,1
183382,-100,4,1,1,80,0,0

[Colours]
Combo1 : 96,196,173
Combo2 : 68,102,159
Combo3 : 245,158,185
Combo4 : 220,198,139

[HitObjects]
428,280,382,1,2,0:0:0
388,208,532,2,0,B|352:224|308:212,2,80,8|8|8,0:0|0:0|0:0,0:0:0
344,140,982,6,0,B|296:112|224:152|232:216,1,160,4|0,0:0|0:0,0:0:0
152,224,1432,1,0,0:0:0
108,292,1582,2,0,B|24:292,1,80
172,340,1882,2,0,B|252:340,1,80
320,300,2182,5,0,0:0:0
320,300,2332,1,0,0:0:0
376,244,2482,2,0,P|400:212|440:200,1,80
464,204,2707,1,0,0:0:0
464,204,2782,2,0,P|436:128,1,80
366,89,3082,1,0,0:0:0
288,84,3232,1,0,0:0:0
288,84,3382,6,0,B|212:112,1,80
80,216,3682,2,0,B|156:188,1,80
232,208,3982,1,0,0:0:0
232,208,4282,5,0,0:0:0
232,208,4432,2,0,B|280:208|320:288|300:336,1,160
228,296,4882,2,0,B|248:248|336:240|368:280,1,160
396,204,5332,1,0,0:0:0
436,136,5482,1,0,0:0:0
436,136,5632,1,0,0:0:0
356,120,5782,6,0,B|316:132|312:184,1,80,4|0,0:0|0:0,0:0:0
208,224,6082,2,0,B|217:183|174:153,1,80
192,44,6382,2,0,B|222:72|269:50,1,80
356,120,6682,5,0,0:0:0
356,120,6832,1,0,0:0:0
272,176,6982,2,0,B|208:224,1,80
356,208,7282,5,0,0:0:0
356,208,7432,1,0,0:0:0
272,264,7582,2,0,B|192:324,1,100
28,344,7882,5,0,0:0:0
28,344,8032,1,0,0:0:0
112,288,8182,2,0,B|208:216,1,120.000004577637
192,128,8482,6,0,B|128:176,1,80
156,56,8782,2,0,B|192:32|236:56,1,80
320,68,9082,2,0,B|312:116|272:128,1,80
232,196,9382,5,0,0:0:0
232,196,9532,1,0,0:0:0
340,232,9682,5,0,0:0:0
340,232,9832,1,0,0:0:0
256,308,9982,5,0,0:0:0
256,308,10132,1,0,0:0:0
364,344,10282,5,0,0:0:0
364,344,10432,1,0,0:0:0
364,344,10582,1,4,0:0:0
364,344,10882,6,0,B|444:344,1,80,8|2,0:0|0:0,0:0:0
488,264,11182,2,0,B|408:264,1,80,2|2,0:0|0:0,0:0:0
396,184,11482,2,0,B|348:188|332:232,2,80,8|2|4,0:0|0:0|0:0,0:0:0
396,184,12082,5,8,0:0:0
336,132,12232,2,0,B|256:132,1,80,2|2,0:0|0:0,0:0:0
176,148,12532,1,2,0:0:0
164,228,12682,2,0,B|204:236|236:204,1,80,8|2,0:0|0:0,0:0:0
180,68,12982,6,0,B|136:64|104:92|84:136|104:176,1,160,4|8,0:0|0:0,0:0:0
104,176,13432,1,2,0:0:0
240,112,13582,2,0,B|264:80|248:36,1,80,2|2,0:0|0:0,0:0:0
176,148,13882,2,0,B|200:188|240:188,1,80,8|2,0:0|0:0,0:0:0
308,144,14182,6,0,B|340:192|304:268|248:264,1,160,4|8,0:0|0:0,0:0:0
250,264,14632,1,2,0:0:0
232,188,14782,2,0,B|160:228,1,80,2|2,0:0|0:0,0:0:0
120,160,15082,2,0,B|48:200,1,80,8|2,0:0|0:0,0:0:0
80,92,15382,6,0,B|112:68|160:88|160:88|200:84|232:60,1,160,4|8,0:0|0:0,0:0:0
308,76,15832,1,2,0:0:0
388,88,15982,1,2,0:0:0
336,152,16132,1,2,0:0:0
308,76,16282,2,0,B|312:36|352:12,1,80,8|2,0:0|0:0,0:0:0
388,88,16582,6,0,B|416:120|424:164|400:196|400:196|436:228,1,160,4|8,0:0|0:0,0:0:0
468,292,17032,2,0,B|436:320|392:296,1,80,2|2,0:0|0:0,0:0:0
320,260,17332,2,0,B|236:260,1,80,2|8,0:0|0:0,0:0:0
164,232,17632,1,2,0:0:0
104,180,17782,6,0,B|148:208|224:176|224:120,1,160,4|8,0:0|0:0,0:0:0
192,44,18232,1,2,0:0:0
112,44,18382,2,0,B|108:88|144:112,1,80,2|2,0:0|0:0,0:0:0
204,164,18682,1,8,0:0:0
280,184,18832,1,2,0:0:0
360,176,18982,6,0,B|440:176,2,80,4|2|8,0:0|0:0|0:0,0:0:0
328,248,19432,2,0,B|296:272|252:260,2,80,2|2|2,0:0|0:0|0:0,0:0:0
280,184,19882,1,8,0:0:0
284,188,20032,1,8,0:0:0
288,192,20182,1,4,0:0:0
244,128,20482,6,0,B|324:128,1,80,8|2,0:0|0:0,0:0:0
372,192,20782,2,0,B|408:220|448:196,1,80,2|2,0:0|0:0,0:0:0
484,124,21082,2,0,B|504:84|476:44,1,80,8|2,0:0|0:0,0:0:0
404,20,21382,6,0,B|356:12|320:48|320:48|280:64|244:44,1,160,4|8,0:0|0:0,0:0:0
172,48,21832,2,0,B|96:72,1,80,2|2,0:0|0:0,0:0:0
16,88,22132,1,2,0:0:0
16,88,22282,2,0,B|28:132|68:144,1,80,8|2,0:0|0:0,0:0:0
148,156,22582,6,0,B|148:200|100:228|60:224|60:224|36:256,1,160,4|8,0:0|0:0,0:0:0
20,332,23032,1,2,0:0:0
100,308,23182,1,2,0:0:0
100,308,23332,1,2,0:0:0
176,336,23482,1,8,0:0:0
176,336,23632,1,2,0:0:0
240,292,23782,6,0,B|396:332,1,160,4|8,0:0|0:0,0:0:0
394,331,24232,1,2,0:0:0
476,332,24382,2,0,B|444:304|464:256,1,80,2|2,0:0|0:0,0:0:0
412,196,24682,2,0,B|403:237|352:244,1,80,8|2,0:0|0:0,0:0:0
280,328,24982,6,0,B|320:296|400:316|408:376,1,160,12|8,0:0|0:0,0:0:0
476,332,25432,2,0,B|492:248,1,80,2|2,0:0|0:0,0:0:0
488,172,25732,1,2,0:0:0
464,96,25882,1,8,0:0:0
424,24,26032,1,2,0:0:0
368,80,26182,6,0,B|412:148|412:232,1,160,12|8,0:0|0:0,0:0:0
332,268,26632,1,2,0:0:0
256,308,26782,2,0,B|240:268|252:224,1,80,2|2,0:0|0:0,0:0:0
168,160,27082,2,0,B|184:200|172:244,1,80,8|2,0:0|0:0,0:0:0
256,308,27382,6,0,B|272:348|324:352,1,80,12|2,0:0|0:0,0:0:0
188,348,27682,2,0,B|172:308|120:304,1,80,8|2,0:0|0:0,0:0:0
256,308,27982,1,2,0:0:0
188,348,28132,1,2,0:0:0
328,272,28282,2,0,B|408:272,1,80,8|2,0:0|0:0,0:0:0
480,240,28582,6,0,B|492:200,2,40,10|2|2,0:0|0:0|0:0,0:0:0
472,320,28882,1,8,0:0:0
396,352,29032,2,0,B|316:352,1,80,2|8,0:0|0:0,0:0:0
239,246,29332,1,2,0:0:0
240,376,29482,1,8,0:0:0
316,271,29632,1,2,0:0:0
192,311,29782,6,0,B|164:288|160:244|160:244|112:248|80:216,1,160,12|8,0:0|0:0,0:0:0
144,164,30232,2,0,B|184:156|200:108,1,80,2|2,0:0|0:0,0:0:0
120,92,30532,2,0,B|80:108|40:84,2,80,2|8|2,0:0|0:0|0:0,0:0:0
176,36,30982,5,4,0:0:0
252,60,31132,1,2,0:0:0
180,36,31282,1,8,0:0:0
256,64,31432,1,2,0:0:0
184,36,31582,1,2,0:0:0
260,68,31732,1,2,0:0:0
188,36,31882,1,8,0:0:0
264,72,32032,1,8,0:0:0
336,44,32182,6,0,B|392:68|432:24|432:24|464:32|456:72,1,160,4|8,0:0|0:0,0:0:0
460,144,32632,1,2,0:0:0
436,220,32782,2,0,B|432:260|444:304,1,80,2|2,0:0|0:0,0:0:0
368,356,33082,2,0,B|372:316|360:272,1,80,8|2,0:0|0:0,0:0:0
288,316,33382,5,4,0:0:0
212,292,33532,1,2,0:0:0
284,316,33682,1,8,0:0:0
208,288,33832,1,2,0:0:0
280,316,33982,1,2,0:0:0
204,284,34132,1,2,0:0:0
276,316,34282,1,8,0:0:0
200,280,34432,1,8,0:0:0
128,308,34582,6,0,B|72:284|32:328|32:328|0:320|8:280,1,160,4|8,0:0|0:0,0:0:0
24,208,35032,1,2,0:0:0
24,208,35182,2,0,B|40:176|40:128,1,80,2|2,0:0|0:0,0:0:0
56,52,35482,2,0,B|88:68|136:68,1,80,8|2,0:0|0:0,0:0:0
156,64,35707,1,2,0:0:0
180,56,35782,6,0,B|212:40|260:40,1,80,4|2,0:0|0:0,0:0:0
404,56,36082,2,0,B|372:72|324:72,1,80,8|2,0:0|0:0,0:0:0
192,148,36382,2,0,B|224:132|272:132,1,80,2|2,0:0|0:0,0:0:0
416,148,36682,2,0,B|384:164|336:164,1,80,8|2,0:0|0:0,0:0:0
256,216,36982,5,4,0:0:0
328,248,37132,1,2,0:0:0
292,320,37282,1,8,0:0:0
220,288,37432,1,2,0:0:0
256,216,37582,6,0,P|216:208|176:220,1,80,12|2,0:0|0:0,0:0:0
292,320,37882,2,0,P|332:328|372:316,1,80,8|2,0:0|0:0,0:0:0
328,248,38182,5,4,0:0:0
328,248,38332,1,2,0:0:0
220,288,38482,1,8,0:0:0
220,288,38632,1,2,0:0:0
328,248,38782,5,8,0:0:0
220,288,38932,1,2,0:0:0
328,248,39082,1,12,0:0:0
220,288,39232,1,10,0:0:0
276,272,39382,5,12,0:0:0
276,272,39682,2,0,B|312:288|312:288|352:280,1,80,8|2,0:0|0:0,0:0:0
432,364,39982,2,0,B|396:348|396:348|356:356,2,80,2|2|8,0:0|0:0|0:0,0:0:0
464,292,40432,1,2,0:0:0
416,228,40582,6,0,B|400:192|400:144,1,80,4|2,0:0|0:0,0:0:0
456,52,40882,2,0,B|472:88|472:136,1,80,8|2,0:0|0:0,0:0:0
324,120,41182,2,0,B|345:86|385:70,2,80,8|2|8,0:0|0:0|0:0,0:0:0
324,120,41632,1,2,0:0:0
308,24,41782,6,0,B|272:48|248:88|248:88|208:100|164:80,1,160,4|8,0:0|0:0,0:0:0
104,56,42232,1,2,0:0:0
108,136,42382,2,0,B|100:180|52:208,1,80,2|2,0:0|0:0,0:0:0
44,276,42682,2,0,B|124:276,1,80,8|2,0:0|0:0,0:0:0
224,352,42982,6,0,B|64:352,1,160,4|8,0:0|0:0,0:0:0
204,276,43432,2,0,B|284:276,1,80,2|2,0:0|0:0,0:0:0
360,300,43732,2,0,B|346:338|302:350,2,80,2|8|2,0:0|0:0|0:0,0:0:0
348,224,44182,6,0,B|404:204|456:272|440:320,1,160,4|8,0:0|0:0,0:0:0
360,300,44632,2,0,B|304:320|252:252|268:204,1,160,2|2,0:0|0:0,0:0:0
324,148,45082,2,0,B|296:120|248:124,1,80,8|2,0:0|0:0,0:0:0
192,180,45382,6,0,B|160:148|168:100|168:100|140:76|96:68,1,160,12|8,0:0|0:0,0:0:0
0,40,45832,2,0,B|32:72|24:120|24:120|52:144|96:152,1,160,2|2,0:0|0:0,0:0:0
100,244,46282,2,0,B|64:224|24:216,1,80,8|2,0:0|0:0,0:0:0
32,296,46582,6,0,B|104:336|188:312,1,160,12|8,0:0|0:0,0:0:0
252,264,47032,1,4,0:0:0
260,344,47182,1,2,0:0:0
180,232,47332,2,0,P|208:200|256:188,2,80,8|2|4,0:0|0:0|0:0,0:0:0
188,312,47782,1,0,0:0:0
188,312,48082,6,0,B|144:312,1,40,2|2,0:0|0:0,0:0:0
44,256,48382,2,0,B|84:256,1,40,2|2,0:0|0:0,0:0:0
164,236,48682,1,8,0:0:0
164,236,48982,6,0,B|204:232|204:232|228:204|228:160|188:124,1,160,4|8,0:0|0:0,0:0:0
124,80,49432,2,0,B|80:76,2,40
196,44,49732,2,0,B|240:52|268:84,1,80,0|8,0:0|0:0,0:0:0
300,152,50032,1,0,0:0:0
348,88,50182,6,0,B|384:120|376:168|376:168|408:180|448:176,1,160,2|8,0:0|0:0,0:0:0
468,252,50632,2,0,B|512:268,2,40
392,272,50932,2,0,B|360:304|312:300,1,80,0|8,0:0|0:0,0:0:0
244,280,51232,1,0,0:0:0
168,300,51382,6,0,B|128:308|96:332,1,80,2|0,0:0|0:0,0:0:0
36,276,51682,1,8,0:0:0
96,224,51832,2,0,B|132:200,2,40
64,148,52132,2,0,B|92:120|140:112,1,80,0|8,0:0|0:0,0:0:0
200,160,52432,1,0,0:0:0
256,216,52582,6,0,B|292:256|364:248|396:200,1,160,2|8,0:0|0:0,0:0:0
428,176,52957,1,0,0:0:0
428,176,53032,2,0,B|464:152,2,40
448,56,53332,2,0,B|414:78,2,40,0|0|8,0:0|0:0|0:0,0:0:0
352,128,53632,1,0,0:0:0
280,92,53782,6,0,B|240:104|196:84|196:84|152:88|128:116,1,160,2|8,0:0|0:0,0:0:0
52,112,54232,2,0,B|16:96,2,40
96,180,54532,2,0,B|108:224|100:268,1,80,0|8,0:0|0:0,0:0:0
76,336,54832,1,0,0:0:0
156,324,54982,6,0,B|196:320|240:328,1,80,2|0,0:0|0:0,0:0:0
316,344,55282,1,8,0:0:0
396,356,55432,2,0,B|444:380|512:328|496:272,1,160
416,276,55882,2,0,B|416:196,1,80,8|0,0:0|0:0,0:0:0
472,68,56182,6,0,B|468:116|380:136|340:96,1,160,2|8,0:0|0:0,0:0:0
304,80,56557,2,0,B|260:80,1,40
184,92,56782,1,0,0:0:0
112,128,56932,2,0,B|64:128,2,40,0|0|8,0:0|0:0|0:0,0:0:0
176,172,57232,1,0,0:0:0
240,220,57382,6,0,B|220:256|164:256|164:256|92:292,1,160,2|8,0:0|0:0,0:0:0
36,340,57832,1,0,0:0:0
156,364,57982,6,0,B|200:368,1,40,2|2,0:0|0:0,0:0:0
303,323,58282,2,0,B|264:320,1,40,2|2,0:0|0:0,0:0:0
452,352,58582,6,0,B|396:356|368:268|408:232,1,160,4|8,0:0|0:0,0:0:0
472,280,59032,2,0,B|512:292,2,40
484,200,59332,2,0,B|468:160|426:148,1,80,0|8,0:0|0:0,0:0:0
348,172,59632,1,0,0:0:0
360,92,59782,6,0,B|320:84|284:120|284:120|248:132|208:108,1,160,2|8,0:0|0:0,0:0:0
136,80,60232,1,0,0:0:0
60,56,60382,1,0,0:0:0
76,136,60532,1,0,0:0:0
64,216,60682,1,8,0:0:0
4,272,60832,1,0,0:0:0
80,296,60982,6,0,B|120:312|160:300,1,80,2|0,0:0|0:0,0:0:0
236,280,61282,1,8,0:0:0
268,208,61432,2,0,B|320:216|340:304|296:340,1,160
188,216,61882,2,0,B|184:172|224:140,1,80,8|0,0:0|0:0,0:0:0
296,132,62182,5,2,0:0:0
368,164,62332,2,0,B|412:180,2,40,0|0|8,0:0|0:0|0:0,0:0:0
296,132,62632,1,0,0:0:0
252,68,62782,2,0,B|212:60|168:76,1,80
32,124,63082,2,0,B|72:132|116:116,1,80,8|0,0:0|0:0,0:0:0
180,156,63382,6,0,B|212:316,1,160,4|8,0:0|0:0,0:0:0
292,324,63832,2,0,B|260:167,1,160
340,164,64282,2,0,B|356:244,1,80,8|0,0:0|0:0,0:0:0
510,259,64582,6,0,B|472:248|440:268|440:268|420:316|376:320,1,160,4|8,0:0|0:0,0:0:0
436,184,65032,2,0,B|428:140|408:104|408:104|368:96|352:52,1,160
276,44,65482,2,0,B|236:48|192:36,1,80,8|0,0:0|0:0,0:0:0
136,88,65782,6,0,B|104:112|60:124,2,80,6|0|8,0:0|0:0|0:0,0:0:0
196,144,66232,2,0,B|176:180|196:224,2,80,0|0|8,0:0|0:0|0:0,0:0:0
268,184,66682,2,0,B|300:216|340:220,1,80
420,216,66982,5,8,0:0:0
420,216,67132,1,2,0:0:0
420,216,67282,1,8,0:0:0
420,216,67432,1,8,0:0:0
480,268,67582,2,0,B|512:236,2,40,8|8|8,0:0|0:0|0:0,0:0:0
436,336,67882,2,0,B|412:368|364:372,1,80,2|8,0:0|0:0,0:0:0
368,292,68182,5,4,0:0:0
400,304,77782,5,12,0:0:0
400,304,78082,2,0,B|336:324,1,60.0000022888184,8|2,0:0|0:0,0:0:0
272,300,78382,2,0,B|208:320,1,60.0000022888184,2|2,0:0|0:0,0:0:0
192,248,78682,2,0,B|249:230,1,60.0000022888184,8|2,0:0|0:0,0:0:0
320,248,78982,6,0,B|328:208|304:180|304:180|308:144|336:132,1,120.000004577637,4|8,0:0|0:0,0:0:0
380,92,79432,1,2,0:0:0
448,68,79582,2,0,B|480:68|512:80,1,60.0000022888184,2|2,0:0|0:0,0:0:0
468,140,79882,2,0,B|492:160|509:190,1,60.0000022888184,8|2,0:0|0:0,0:0:0
436,208,80182,6,0,B|448:244|440:272|440:272|408:272|376:292,1,120.000004577637,4|8,0:0|0:0,0:0:0
324,316,80632,2,0,B|260:324,1,60.0000022888184,2|2,0:0|0:0,0:0:0
192,308,80932,2,0,B|200:276|224:256,2,60.0000022888184,2|8|2,0:0|0:0|0:0,0:0:0
120,308,81382,6,0,B|128:248|176:200,1,120.000004577637,4|8,0:0|0:0,0:0:0
204,136,81832,2,0,B|232:152|244:180,2,60.0000022888184,2|2|2,0:0|0:0|0:0,0:0:0
204,64,82282,2,0,B|240:68|264:88,1,60.0000022888184,8|2,0:0|0:0,0:0:0
308,140,82582,5,4,0:0:0
308,140,82882,2,0,B|332:160|332:160|360:164,1,60.0000022888184,8|2,0:0|0:0,0:0:0
396,260,83182,2,0,B|372:240|372:240|344:236,2,60.0000022888184,2|2|8,0:0|0:0|0:0,0:0:0
432,324,83632,1,2,0:0:0
360,328,83782,6,0,B|224:328,1,120.000004577637,4|8,0:0|0:0,0:0:0
180,284,84232,2,0,B|116:284,1,60.0000022888184,2|2,0:0|0:0,0:0:0
64,236,84532,2,0,B|0:236,2,60.0000022888184,2|8|2,0:0|0:0|0:0,0:0:0
120,192,84982,6,0,B|240:192,1,120.000004577637,4|8,0:0|0:0,0:0:0
280,132,85432,2,0,B|308:152|312:188,1,60.0000022888184,2|2,0:0|0:0,0:0:0
292,252,85732,2,0,B|324:260|352:248,1,60.0000022888184,2|8,0:0|0:0,0:0:0
384,184,86032,1,2,0:0:0
424,244,86182,5,4,0:0:0
424,244,86332,1,2,0:0:0
468,304,86482,2,0,B|496:324|512:360,2,60.0000022888184,8|2|2,0:0|0:0|0:0,0:0:0
396,316,86932,1,8,0:0:0
396,316,87082,1,8,0:0:0
396,316,87232,1,8,0:0:0
396,316,87382,1,4,0:0:0
252,324,87682,6,0,B|192:328,1,60.0000022888184,8|2,0:0|0:0,0:0:0
72,288,87982,2,0,B|132:284,1,60.0000022888184,2|2,0:0|0:0,0:0:0
232,220,88282,2,0,B|172:224,1,60.0000022888184,8|2,0:0|0:0,0:0:0
248,148,88582,6,0,B|284:152|304:184|304:184|336:192|368:176,1,120.000004577637,4|8,0:0|0:0,0:0:0
420,216,89032,1,2,0:0:0
464,272,89182,2,0,B|512:312,1,60.0000022888184,2|2,0:0|0:0,0:0:0
432,340,89482,2,0,B|480:380,1,60.0000022888184,8|2,0:0|0:0,0:0:0
356,352,89782,6,0,B|320:348|300:316|300:316|268:308|236:324,1,120.000004577637,4|8,0:0|0:0,0:0:0
184,284,90232,1,2,0:0:0
140,228,90382,2,0,B|92:188,1,60.0000022888184,2|2,0:0|0:0,0:0:0
172,160,90682,2,0,B|124:120,1,60.0000022888184,8|2,0:0|0:0,0:0:0
104,52,90982,6,0,B|136:40|164:52|164:52|184:72|220:72,1,120.000004577637,4|8,0:0|0:0,0:0:0
288,60,91432,2,0,B|320:56|352:60,1,60.0000022888184,2|2,0:0|0:0,0:0:0
328,128,91732,2,0,B|360:132|392:128,2,60.0000022888184,2|8|2,0:0|0:0|0:0,0:0:0
256,132,92182,6,0,B|256:172|292:192|292:192|288:248,1,120.000004577637,4|8,0:0|0:0,0:0:0
304,308,92632,2,0,B|336:304|356:272,1,60.0000022888184,2|8,0:0|0:0,0:0:0
288,376,92932,2,0,B|256:372|236:340,1,60.0000022888184,0|8,0:0|0:0,0:0:0
129,251,93232,6,0,B|172:244|204:272,1,80,4|2,0:0|0:0,0:0:0
148,328,93532,1,2,0:0:0
148,328,93682,1,8,0:0:0
72,308,93832,1,2,0:0:0
72,308,93982,1,8,0:0:0
52,232,94132,1,2,0:0:0
52,232,94282,1,4,0:0:0
128,252,94432,1,2,0:0:0
128,252,94582,6,0,B|168:244|208:264|208:264|228:296|276:304,1,160,12|8,0:0|0:0,0:0:0
352,312,95032,2,0,B|392:316|432:296,1,80,2|2,0:0|0:0,0:0:0
480,236,95332,2,0,B|500:200|496:156,2,80,2|8|2,0:0|0:0|0:0,0:0:0
416,188,95782,6,0,B|372:188,2,40,10|2|2,0:0|0:0|0:0,0:0:0
392,112,96082,2,0,B|348:108|316:136,1,80,8|2,0:0|0:0,0:0:0
292,212,96382,2,0,B|252:200|238:153,1,80,2|2,0:0|0:0,0:0:0
124,56,96682,2,0,B|164:68|177:114,1,80,8|2,0:0|0:0,0:0:0
100,132,96982,6,0,B|96:176|56:204|56:204|64:240|104:268,1,160,12|8,0:0|0:0,0:0:0
160,312,97432,1,2,0:0:0
232,344,97582,2,0,B|272:352|312:344,1,80,2|2,0:0|0:0,0:0:0
392,328,97882,2,0,B|432:328|470:314,1,80,8|2,0:0|0:0,0:0:0
428,248,98182,5,4,0:0:0
380,184,98332,1,2,0:0:0
424,252,98482,1,8,0:0:0
376,188,98632,1,2,0:0:0
340,260,98782,2,0,B|348:304|388:328,2,80,8|2|8,0:0|0:0|0:0,0:0:0
424,248,99232,1,2,0:0:0
424,248,99382,6,0,B|428:204|468:176|468:176|460:140|420:112,1,160,4|8,0:0|0:0,0:0:0
364,68,99832,1,2,0:0:0
292,36,99982,2,0,B|252:28|212:36,1,80,2|2,0:0|0:0,0:0:0
132,52,100282,2,0,B|91:51|53:65,1,80,4|2,0:0|0:0,0:0:0
96,132,100582,5,4,0:0:0
144,196,100732,1,2,0:0:0
100,128,100882,1,8,0:0:0
148,192,101032,1,2,0:0:0
184,120,101182,2,0,B|176:76|136:52,2,80,8|2|8,0:0|0:0|0:0,0:0:0
96,132,101632,1,2,0:0:0
96,132,101782,6,0,B|104:176|144:200|144:200|180:280,1,160,4|8,0:0|0:0,0:0:0
176,348,102232,1,2,0:0:0
248,312,102382,2,0,B|288:300|328:316,1,80,2|2,0:0|0:0,0:0:0
472,272,102682,2,0,B|432:284|392:268,1,80,8|2,0:0|0:0,0:0:0
372,256,102907,1,2,0:0:0
352,240,102982,6,0,B|312:228|272:232,1,80,4|2,0:0|0:0,0:0:0
196,216,103282,1,8,0:0:0
248,156,103432,2,0,B|284:132|284:84,1,80,2|2,0:0|0:0,0:0:0
204,88,103732,1,2,0:0:0
128,68,103882,2,0,B|108:108|56:112,1,80,8|2,0:0|0:0,0:0:0
76,192,104182,5,4,0:0:0
96,220,104332,1,2,0:0:0
108,252,104482,1,8,0:0:0
104,284,104632,1,2,0:0:0
168,356,104782,5,8,0:0:0
204,328,104932,1,2,0:0:0
252,324,105082,1,8,0:0:0
296,352,105232,1,2,0:0:0
392,364,105382,5,8,0:0:0
444,324,105532,1,2,0:0:0
476,268,105682,1,8,0:0:0
484,204,105832,1,2,0:0:0
464,108,105982,5,4,0:0:0
388,80,106132,1,2,0:0:0
308,76,106282,1,8,0:0:0
232,100,106432,1,2,0:0:0
252,180,106582,5,12,0:0:0
252,180,106882,2,0,B|216:200|168:196,1,80,8|2,0:0|0:0,0:0:0
28,252,107182,2,0,B|64:232|112:236,1,80,2|2,0:0|0:0,0:0:0
172,276,107482,1,8,0:0:0
244,308,107632,1,2,0:0:0
316,344,107782,6,0,B|356:352|392:328,1,80,4|2,0:0|0:0,0:0:0
464,152,108082,2,0,B|424:144|388:168,1,80,8|2,0:0|0:0,0:0:0
432,240,108382,2,0,B|352:256,2,80,8|2|8,0:0|0:0|0:0,0:0:0
353,255,108832,1,2,0:0:0
276,236,108982,6,0,B|240:224|196:240|196:240|168:272|120:276,1,160,4|8,0:0|0:0,0:0:0
128,196,109432,2,0,B|160:164|156:120,1,80,2|8,0:0|0:0,0:0:0
168,44,109732,2,0,B|200:68|244:64,1,80,2|8,0:0|0:0,0:0:0
324,64,110032,1,2,0:0:0
400,40,110182,6,0,B|456:96,1,80,4|2,0:0|0:0,0:0:0
392,144,110482,2,0,B|431:212,1,80,8|2,0:0|0:0,0:0:0
357,242,110782,2,0,B|377:318,3,80,8|2|8|2,0:0|0:0|0:0|0:0,0:0:0
300,344,111382,6,0,B|260:360|216:344|216:344|184:368|144:364,1,160,4|8,0:0|0:0,0:0:0
72,284,111832,2,0,B|112:268|156:284|156:284|188:260|228:264,1,160,2|2,0:0|0:0,0:0:0
304,264,112282,1,8,0:0:0
304,264,112432,1,2,0:0:0
376,304,112582,6,0,B|400:272|384:224|384:224|416:200|420:160,1,160,4|8,0:0|0:0,0:0:0
388,8,113032,2,0,B|364:40|380:88|380:88|348:112|344:152,1,160,2|2,0:0|0:0,0:0:0
272,184,113482,1,8,0:0:0
272,184,113632,1,2,0:0:0
228,252,113782,6,0,B|200:224|200:224|168:244|112:244|92:208,1,160,4|8,0:0|0:0,0:0:0
76,128,114232,1,4,0:0:0
152,156,114382,1,2,0:0:0
136,76,114532,2,0,P|104:56|60:52,2,80,8|2|4,0:0|0:0|0:0,0:0:0
92,208,114982,1,0,0:0:0
60,292,115282,6,0,B|88:320,1,40,2|2,0:0|0:0,0:0:0
204,328,115732,2,0,B|176:300,1,40,2|2,0:0|0:0,0:0:0
292,348,116182,6,0,B|336:368|412:320|404:264,1,160,4|8,0:0|0:0,0:0:0
428,192,116632,2,0,B|480:200,2,40
324,268,116932,2,0,B|284:272|248:244,1,80,0|8,0:0|0:0,0:0:0
188,192,117232,1,0,0:0:0
132,136,117382,6,0,B|168:172|148:252|84:256,1,160,2|8,0:0|0:0,0:0:0
68,180,117832,2,0,B|40:140,2,40
164,314,118132,2,0,B|128:336|88:336,2,80,0|8|0,0:0|0:0|0:0,0:0:0
228,268,118582,6,0,B|308:268,1,80,2|0,0:0|0:0,0:0:0
376,312,118882,1,8,0:0:0
452,332,119032,2,0,B|468:368,2,40
440,252,119332,2,0,B|440:208|464:176,1,80,0|8,0:0|0:0,0:0:0
496,104,119632,1,0,0:0:0
416,112,119782,6,0,P|384:92|368:52,1,80,2|0,0:0|0:0,0:0:0
368,54,120007,2,0,P|328:48,1,40,0|8,0:0|0:0,0:0:0
268,100,120232,2,0,P|227:93,2,40
336,144,120532,2,0,P|304:171|264:176,1,80,0|8,0:0|0:0,0:0:0
200,220,120832,1,0,0:0:0
200,220,120982,6,0,B|228:252|276:256|276:256|344:300,1,160,2|8,0:0|0:0,0:0:0
412,332,121432,2,0,B|456:332,2,40
264,356,121732,2,0,B|223:356|187:330,1,80,0|8,0:0|0:0,0:0:0
124,284,122032,1,0,0:0:0
60,236,122182,6,0,B|84:160,1,80,2|0,0:0|0:0,0:0:0
100,80,122482,1,8,0:0:0
100,80,122632,2,0,B|124:128|216:116|232:68,1,160
312,56,123082,2,0,B|348:32|392:40,1,80,8|0,0:0|0:0,0:0:0
364,116,123382,5,2,0:0:0
448,252,123682,2,0,B|476:280,2,40,8|0|0,0:0|0:0|0:0,0:0:0
376,288,123982,1,0,0:0:0
316,340,124132,2,0,B|272:340,2,40,0|0|8,0:0|0:0|0:0,0:0:0
376,288,124432,1,0,0:0:0
300,264,124582,6,0,B|136:264,1,160,2|8,0:0|0:0,0:0:0
68,224,125032,1,0,0:0:0
136,180,125182,6,0,B|176:168,1,40,2|2,0:0|0:0,0:0:0
270,100,125482,2,0,B|232:112,1,40,8|2,0:0|0:0,0:0:0
328,44,125782,6,0,B|376:24|448:52|456:104,1,160,4|8,0:0|0:0,0:0:0
460,184,126232,2,0,B|496:208,2,40
368,128,126532,2,0,B|364:172|332:196,1,80,0|8,0:0|0:0,0:0:0
252,208,126832,1,0,0:0:0
288,136,126982,6,0,B|296:184|344:204|344:204|392:276,1,160,2|8,0:0|0:0,0:0:0
456,296,127432,1,0,0:0:0
392,344,127582,1,0,0:0:0
312,336,127732,1,0,0:0:0
244,292,127882,1,8,0:0:0
164,280,128032,1,0,0:0:0
100,328,128182,6,0,B|64:348|24:328,1,80,2|0,0:0|0:0,0:0:0
64,260,128482,1,8,0:0:0
128,212,128632,2,0,B|172:192|212:220|212:220|252:220|292:196,1,160
344,152,129082,2,0,B|384:136|424:144,1,80,8|0,0:0|0:0,0:0:0
392,220,129382,5,2,0:0:0
456,268,129532,2,0,B|440:312,1,40
420,340,129682,2,0,B|340:340,1,80,8|0,0:0|0:0,0:0:0
264,320,129982,1,0,0:0:0
184,320,130132,1,0,0:0:0
112,352,130282,1,8,0:0:0
32,348,130432,1,0,0:0:0
76,280,130582,6,0,B|120:276|120:276|144:244|192:236|228:252,1,160,4|8,0:0|0:0,0:0:0
340,268,131032,2,0,B|303:242|303:242|299:202|261:171|222:167,1,160
144,172,131482,2,0,B|104:176|72:208,1,80,8|0,0:0|0:0,0:0:0
16,152,131782,6,0,B|80:100|164:92,1,160,4|8,0:0|0:0,0:0:0
350,92,132232,2,0,B|432:100|496:152,1,160
438,206,132682,2,0,B|408:176|368:172,1,80,8|0,0:0|0:0,0:0:0
256,112,132982,6,0,B|272:76|256:32,2,80,6|0|8,0:0|0:0|0:0,0:0:0
256,272,133432,6,0,B|240:308|256:352,2,80,0|0|8,0:0|0:0|0:0,0:0:0
256,192,133882,5,0,0:0:0
256,192,134032,1,0,0:0:0
324,236,134182,6,0,B|364:248|404:232,1,80,8|2,0:0|0:0,0:0:0
402,151,134482,2,0,B|364:136|324:148,1,80,8|8,0:0|0:0,0:0:0
256,192,134782,5,8,0:0:0
176,192,134932,1,8,0:0:0
96,192,135082,2,0,B|16:192,1,80,8|8,0:0|0:0,0:0:0
96,192,135382,5,4,0:0:0
88,72,144982,5,0,0:0:0
88,88,145282,1,0,0:0:0
88,104,145582,1,0,0:0:0
88,120,145882,1,0,0:0:0
88,136,146182,2,0,B|128:144|168:136,1,80,0|0,0:0|0:0,0:0:0
256,104,146632,6,0,B|256:268,1,160
294,333,147082,2,0,B|256:353|218:333,1,80
424,312,147382,5,0,0:0:0
424,296,147682,1,0,0:0:0
424,280,147982,1,0,0:0:0
424,264,148282,1,0,0:0:0
424,248,148582,2,0,B|384:240|344:248,1,80
256,276,149032,5,0,0:0:0
256,196,149332,2,0,B|256:168,8,20
324,112,149782,5,0,0:0:0
172,152,150082,1,0,0:0:0
400,116,150382,1,0,0:0:0
116,208,150682,1,0,0:0:0
256,276,150982,6,0,B|296:292|336:276|336:276|372:288,2,120
292,200,151582,6,0,B|316:176|368:180|392:208,2,106.666666666667
256,276,152182,6,0,B|212:308|152:288,1,106.666666666667
196,208,152582,1,0,0:0:0
136,140,152782,6,0,B|180:108|240:128,1,106.666666666667
196,208,153182,1,0,0:0:0
292,200,153382,6,0,B|396:180,2,106.666666666667
196,208,153982,5,8,0:0:0
94,290,154132,1,8,0:0:0
224,284,154282,1,8,0:0:0
115,213,154432,1,2,0:0:0
161,334,154582,5,4,0:0:0
161,334,155482,2,0,B|241:334,1,80,2|4,0:0|0:0,0:0:0
328,348,156382,2,0,B|368:348,1,40,2|2,0:0|0:0,0:0:0
448,336,156682,1,2,0:0:0
492,268,156832,1,2,0:0:0
500,188,156982,6,0,B|496:144|460:120,1,80,4|0,0:0|0:0,0:0:0
392,80,157282,1,8,0:0:0
312,64,157432,2,0,B|280:92,1,40
252,116,157582,2,0,B|216:136|172:124,1,80
96,116,157882,2,0,B|56:116|28:76,1,80,8|0,0:0|0:0,0:0:0
100,40,158182,5,2,0:0:0
132,196,158482,1,8,0:0:0
148,216,158557,1,0,0:0:0
156,240,158632,1,0,0:0:0
156,264,158707,1,0,0:0:0
148,288,158782,1,0,0:0:0
80,248,158932,2,0,B|40:248,2,40,0|0|8,0:0|0:0|0:0,0:0:0
72,328,159232,1,0,0:0:0
72,328,159382,6,0,B|88:368|132:380|176:368|176:368|224:380,1,160,2|8,0:0|0:0,0:0:0
292,360,159832,2,0,B|336:360,2,40
412,360,160132,2,0,B|452:348|468:308,2,80,0|8|0,0:0|0:0|0:0,0:0:0
392,284,160582,6,0,B|312:284,2,80,2|0|8,0:0|0:0|0:0,0:0:0
420,208,161032,2,0,B|260:208,1,160
192,252,161482,2,0,B|172:216|188:172,1,80,8|0,0:0|0:0,0:0:0
256,132,161782,6,0,B|415:132,1,160,2|8,0:0|0:0,0:0:0
415,132,162157,1,0,0:0:0
415,132,162232,1,0,0:0:0
396,56,162382,2,0,B|316:56,1,80
276,56,162607,2,0,B|232:56,1,40,0|8,0:0|0:0,0:0:0
156,64,162832,1,0,0:0:0
92,112,162982,6,0,B|64:148|84:200|84:200|72:232|24:236,1,160,2|8,0:0|0:0,0:0:0
84,296,163432,1,0,0:0:0
152,160,163582,6,0,B|176:196,1,40,2|2,0:0|0:0,0:0:0
160,272,163882,2,0,B|204:288,1,40,2|2,0:0|0:0,0:0:0
264,236,164182,6,0,B|280:288|364:304|400:264,1,160,4|8,0:0|0:0,0:0:0
340,208,164632,2,0,B|316:176,2,40
396,152,164932,2,0,B|376:112|332:92,1,80,0|8,0:0|0:0,0:0:0
264,120,165232,1,0,0:0:0
212,180,165382,6,0,B|168:212|88:188|84:136,1,160,2|8,0:0|0:0,0:0:0
104,56,165832,1,0,0:0:0
164,112,165982,1,0,0:0:0
220,52,166132,1,0,0:0:0
264,120,166282,2,0,B|344:120,1,80,8|0,0:0|0:0,0:0:0
408,72,166582,5,2,0:0:0
408,72,166732,2,0,B|432:112|416:152,1,80,0|8,0:0|0:0,0:0:0
428,236,167032,2,0,B|416:284|324:296|292:252,1,160
356,200,167482,1,8,0:0:0
280,176,167632,1,0,0:0:0
216,224,167782,6,0,B|184:252|136:244,1,80,2|0,0:0|0:0,0:0:0
124,240,168007,1,0,0:0:0
108,236,168082,2,0,B|68:224|32:248,1,80,8|0,0:0|0:0,0:0:0
80,308,168382,5,0,0:0:0
216,224,168532,1,0,0:0:0
108,324,168682,1,8,0:0:0
228,304,168832,1,0,0:0:0
344,344,168982,6,0,B|392:352|432:320|432:320|432:252,1,160,4|8,0:0|0:0,0:0:0
476,188,169432,2,0,B|440:168|396:180|396:180|372:212|328:208,1,160
268,84,169882,2,0,B|285:122|328:131,1,80,8|0,0:0|0:0,0:0:0
480,100,170182,6,0,B|440:92|400:96|400:96|376:56|336:48,1,160,2|8,0:0|0:0,0:0:0
196,40,170632,2,0,B|172:84|200:136|200:136|180:204,1,160
204,272,171082,2,0,B|160:284|128:256,1,80,8|0,0:0|0:0,0:0:0
28,188,171382,6,0,B|65:201|105:181,1,80,6|0,0:0|0:0,0:0:0
60,116,171682,1,8,0:0:0
80,40,171832,6,0,B|117:54|135:95,1,80
60,116,172132,1,8,0:0:0
180,160,172282,6,0,B|252:196,1,80
324,232,172582,1,8,0:0:0
404,236,172732,6,0,B|400:280|360:300,2,80,0|8|0,0:0|0:0|0:0,0:0:0
364,168,173182,2,0,B|400:152|448:164,1,80,8|0,0:0|0:0,0:0:0
376,80,173482,2,0,B|340:96|292:84,1,80,8|0,0:0|0:0,0:0:0
220,68,173782,6,0,B|180:56|144:84|144:84|128:124|76:128,1,160,4|8,0:0|0:0,0:0:0
28,188,174232,2,0,B|64:212|108:204|108:204|180:240,1,160
136,308,174682,2,0,B|176:324|216:308,1,80,8|0,0:0|0:0,0:0:0
260,240,174982,6,0,B|340:220|420:248,1,160,2|8,0:0|0:0,0:0:0
496,320,175432,2,0,B|416:340|336:312,1,160
260,240,175882,2,0,B|260:208|260:208|256:204|256:204|264:204|264:204|260:200|260:200|260:168,1,80,8|0,0:0|0:0,0:0:0
340,64,176182,6,0,B|340:96|340:96|344:100|344:100|336:100|336:100|340:104|340:104|340:136,1,80,6|0,0:0|0:0,0:0:0
340,132,176482,1,8,0:0:0
172,104,176632,6,0,B|172:136|172:136|176:140|176:140|168:140|168:140|172:144|172:144|172:176,1,80
172,172,176932,1,8,0:0:0
260,240,177082,6,0,B|260:272|260:272|264:276|264:276|256:276|256:276|260:280|260:280|260:312,1,80
260,308,177382,1,8,0:0:0
256,148,177532,6,0,B|256:116|256:116|252:112|252:112|260:112|260:112|256:108|256:108|256:76,2,80,0|8|0,0:0|0:0|0:0,0:0:0
192,272,177982,2,0,B|160:272|160:272|156:276|156:276|156:268|156:268|152:272|152:272|120:272,1,80,8|0,0:0|0:0,0:0:0
324,272,178282,2,0,B|356:272|356:272|360:276|360:276|360:268|360:268|364:272|364:272|396:272,1,80,8|0,0:0|0:0,0:0:0
492,184,178582,6,0,B|448:200|384:188|384:188|424:148,1,160,4|8,0:0|0:0,0:0:0
372,92,179032,2,0,B|336:124|336:124|272:136|224:108,1,160
164,64,179482,2,0,B|144:104|96:108,1,80,8|0,0:0|0:0,0:0:0
48,168,179782,6,0,B|100:176|128:256|88:296,1,160,4|8,0:0|0:0,0:0:0
28,244,180232,2,0,B|88:256|136:200|124:148,1,160
204,132,180682,2,0,B|280:164,1,80,8|0,0:0|0:0,0:0:0
304,88,180982,6,0,B|344:104|384:88,1,80,6|0,0:0|0:0,0:0:0
440,32,181282,1,8,0:0:0
364,164,181432,6,0,B|407:165|439:136,1,80
472,64,181732,1,8,0:0:0
440,220,181882,6,0,B|480:206|501:168,1,80
507,89,182182,1,8,0:0:0
364,164,182332,5,0,0:0:0
499,169,182482,1,8,0:0:0
484,300,182632,1,0,0:0:0
356,264,182782,2,0,B|316:268|284:300,1,80,8|8,0:0|0:0,0:0:0
44,240,183082,2,0,B|84:236|116:204,1,80,8|8,0:0|0:0,0:0:0
200,252,183382,5,4,0:0:0
