osu file format v10

[General]
AudioFilename: OAO.mp3
AudioLeadIn: 2000
PreviewTime: 48082
Countdown: 0
SampleSet: Normal
StackLeniency: 0.7
Mode: 0
LetterboxInBreaks: 0

[Editor]
DistanceSpacing: 1
BeatDivisor: 2
GridSize: 8

[Metadata]
Title:Sei Natsu
TitleUnicode:Sei Natsu
Artist:Ranko
ArtistUnicode:Ranko
Creator:Amamiya Yuko
Version:Easy
Source:Touhou
Tags:c82 ZUN x847606653 Flask Buta-Otome Bowling
BeatmapID:176712
BeatmapSetID:58785

[Difficulty]
HPDrainRate:1
CircleSize:3
OverallDifficulty:1
ApproachRate:3
SliderMultiplier:0.6
SliderTickRate:1

[Events]
//Background and Video events
0,0,"BG4.jpg"
//Break Periods
2,68382,76342
2,135582,149542
//Storyboard Layer 0 (Background)
//Storyboard Layer 1 (Fail)
//Storyboard Layer 2 (Pass)
//Storyboard Layer 3 (Foreground)
//Storyboard Sound Samples
//Background Colour Transformations
3,100,163,162,255

[TimingPoints]
-218,300,4,1,1,50,1,0
48982,-100,4,1,1,60,0,1
58282,-100,4,2,2,50,0,0
58582,-100,4,1,1,60,0,1
68182,-100,4,1,1,60,0,0
116182,-100,4,1,1,60,0,1
125632,-100,4,1,1,40,0,0
125782,-100,4,1,1,60,0,1
135382,-100,4,1,1,60,0,0
156982,-100,4,1,1,60,0,1
163882,-100,4,2,2,50,0,0
164182,-100,4,1,1,60,0,1
173482,-100,4,1,1,60,0,0
173782,-100,4,1,1,60,0,1
178282,-100,4,1,1,60,0,0
178582,-100,4,1,1,60,0,1
183382,-100,4,1,1,80,0,0

[Colours]
Combo1 : 96,196,173
Combo2 : 68,102,159
Combo3 : 245,158,185
Combo4 : 220,198,139

[HitObjects]
88,72,10582,1,6,0:0:0
112,192,11182,2,0,B|128:256|208:272,2,120,8|2|8,0:0|0:0|0:0,0:0:0
224,152,12982,6,0,B|240:88|320:72,2,120,2|8|0,0:0|0:0|0:0,0:0:0
336,192,14782,1,8,0:0:0
408,288,15382,1,2,0:0:0
472,184,15982,6,0,B|472:112|416:80,1,120,8|2,0:0|0:0,0:0:0
312,40,17182,2,0,B|256:0|200:40,1,120,8|2,0:0|0:0,0:0:0
88,80,18382,1,8,0:0:0
32,184,18982,6,0,B|80:232,1,60,2|0,0:0|0:0,0:0:0
80,288,19582,2,8,B|144:312,1,60
168,360,20182,1,6,0:0:0
256,272,20782,6,0,B|280:208|360:208,2,120,8|2|8,0:0|0:0|0:0,0:0:0
360,328,22582,2,0,B|432:320|456:240,2,120,2|8|2,0:0|0:0|0:0,0:0:0
248,368,24382,2,0,B|176:360|152:280,1,120,8|6,0:0|0:0,0:0:0
216,192,25582,6,0,B|256:146|256:146|294:192,1,120,8|2,0:0|0:0,0:0:0
408,192,26782,2,0,B|344:88,2,120,8|2|8,0:0|0:0|0:0,0:0:0
368,304,28582,5,2,0:0:0
312,304,28882,1,0,0:0:0
256,304,29182,1,8,0:0:0
200,304,29482,1,0,0:0:0
144,304,29782,1,4,0:0:0
104,192,30382,6,0,B|168:88,2,120,8|2|8,0:0|0:0|0:0,0:0:0
48,296,32182,1,2,0:0:0
160,248,32782,6,0,B|267:189,2,120,8|2|8,0:0|0:0|0:0,0:0:0
48,296,34582,1,2,0:0:0
160,328,35182,6,0,B|282:331,1,120,8|2,0:0|0:0,0:0:0
400,336,36382,2,0,B|464:304|472:240,1,120,8|2,0:0|0:0,0:0:0
472,128,37582,1,8,0:0:0
392,40,38182,6,0,B|320:32,4,60,2|0|8|0|4,0:0|0:0|0:0|0:0|0:0,0:0:0
352,152,39982,6,0,B|288:136|240:192,2,120,8|2|8,0:0|0:0|0:0,0:0:0
472,176,41782,1,2,0:0:0
432,288,42382,6,0,B|368:304|320:248,2,120,8|2|8,0:0|0:0|0:0,0:0:0
472,176,44182,1,6,0:0:0
392,88,44782,1,8,0:0:0
272,56,45382,6,0,B|232:80|192:56|192:56|136:72|136:144,1,180,4|0,0:0|0:0,0:0:0
136,184,46582,2,0,B|120:256|192:296|192:296|240:256|296:256,1,240,4|0,0:0|0:0,0:0:0
440,72,48982,6,0,B|368:40|368:40|368:144,1,180,6|0,0:0|0:0,0:0:0
368,200,50182,2,0,B|368:320|368:320|304:288,1,180,2|0,0:0|0:0,0:0:0
264,264,51382,6,0,B|152:200,1,120,2|8,0:0|0:0,0:0:0
128,88,52582,2,0,B|232:147,2,120,2|8|6,0:0|0:0|0:0,0:0:0
240,48,54382,6,0,B|344:107,1,120,8|2,0:0|0:0,0:0:0
448,176,55582,1,8,0:0:0
424,296,56182,6,0,B|360:296,1,60,2|0,0:0|0:0,0:0:0
312,320,56782,2,0,B|240:336,1,60,8|0,0:0|0:0,0:0:0
192,344,57382,2,0,B|112:360|112:360|56:272,1,180,2|0,0:0|0:0,0:0:0
56,216,58582,6,0,B|108:132|108:132|188:148,1,180,6|0,0:0|0:0,0:0:0
248,160,59782,2,0,B|344:176|344:176|384:96,1,180,2|0,0:0|0:0,0:0:0
408,48,60982,1,2,0:0:0
288,56,61582,1,8,0:0:0
168,88,62182,6,0,B|112:120|112:120|96:192,1,120,2|8,0:0|0:0,0:0:0
96,232,63082,1,0,0:0:0
96,288,63382,6,0,B|160:352|160:352|232:280,1,180,6|0,0:0|0:0,0:0:0
264,240,64582,2,0,B|328:176|328:176|400:248,1,180,6|0,0:0|0:0,0:0:0
256,192,65782,12,4,68182,0:0:0
408,88,77782,6,0,B|360:56|288:64,2,120,6|8|2,0:0|0:0|0:0,0:0:0
304,152,79582,2,0,B|365:179|391:230,2,120,2|8|2,0:0|0:0|0:0,0:0:0
320,272,81382,6,0,B|240:280,1,60,2|0,0:0|0:0,0:0:0
200,288,81982,1,8,0:0:0
152,256,82282,2,0,B|88:224,1,60,0|6,0:0|0:0,0:0:0
128,112,83182,6,0,B|160:56|232:56,1,120,8|2,0:0|0:0,0:0:0
192,168,84382,2,0,B|247:135|310:171,1,120,8|2,0:0|0:0,0:0:0
216,256,85582,2,0,B|280:255|316:318,1,120,8|2,0:0|0:0,0:0:0
200,344,86782,6,0,B|136:352,2,60,8|0|6,0:0|0:0|0:0,0:0:0
96,288,87982,6,0,B|48:240|56:176,1,120,8|2,0:0|0:0,0:0:0
160,240,89182,2,0,B|142:174|181:123,1,120,8|2,0:0|0:0,0:0:0
240,224,90382,2,0,B|257:158|316:133,1,120,8|2,0:0|0:0,0:0:0
320,256,91582,5,8,0:0:0
368,224,91882,1,0,0:0:0
424,224,92182,1,6,0:0:0
400,344,92782,6,0,B|336:352|280:352,1,120,8|4,0:0|0:0,0:0:0
160,328,93982,2,0,B|112:288|88:232,2,120,8|2|8,0:0|0:0|0:0,0:0:0
168,208,95782,5,2,0:0:0
176,152,96082,1,0,0:0:0
200,96,96382,1,8,0:0:0
248,56,96682,1,0,0:0:0
304,32,96982,1,4,0:0:0
424,64,97582,6,0,B|480:104|480:168,1,120,8|2,0:0|0:0,0:0:0
472,288,98782,1,8,0:0:0
376,352,99382,1,2,0:0:0
304,256,99982,6,0,B|248:232|184:256,1,120,8|2,0:0|0:0,0:0:0
88,320,101182,1,8,0:0:0
112,200,101782,1,2,0:0:0
200,120,102382,6,0,B|256:152|320:120,2,120,8|2|8,0:0|0:0|0:0,0:0:0
296,48,104182,2,0,B|352:8|416:48,1,120,2|8,0:0|0:0,0:0:0
464,152,105382,6,0,B|480:232,1,60,2|0,0:0|0:0,0:0:0
464,272,105982,2,0,B|440:336,1,60,8|0,0:0|0:0,0:0:0
392,352,106582,1,6,0:0:0
312,264,107182,6,0,B|256:232|192:264,2,120,8|2|8,0:0|0:0|0:0,0:0:0
216,336,108982,2,0,B|160:368|96:328,1,120,2|8,0:0|0:0,0:0:0
48,224,110182,6,0,B|40:160,1,60,2|0,0:0|0:0,0:0:0
80,120,110782,2,0,B|104:56,1,60,8|0,0:0|0:0,0:0:0
152,40,111382,5,4,0:0:0
384,88,112582,1,4,0:0:0
256,192,113782,12,0,114982,0:0:0
112,192,116182,6,0,B|96:248|144:280|144:280|183:265|220:286,1,180,6|0,0:0|0:0,0:0:0
280,296,117382,2,0,B|352:320|392:296|392:296|392:232|448:168,1,240,2|2,0:0|0:0,0:0:0
416,64,119182,5,8,0:0:0
296,40,119782,2,0,B|216:32,1,60,2|0,0:0|0:0,0:0:0
184,64,120382,2,0,B|112:72,1,60,8|0,0:0|0:0,0:0:0
80,112,120982,6,0,B|40:160|64:224|64:224|120:256|192:216,1,240,2|2,0:0|0:0,0:0:0
256,128,122782,1,8,0:0:0
368,80,123382,6,0,B|416:40|480:64|480:64|512:120|472:192,2,240,2|2|4,0:0|0:0|0:0,0:0:0
256,128,126382,1,8,0:0:0
136,104,126982,6,0,B|72:152|72:152|72:264,1,180,2|0,0:0|0:0,0:0:0
120,288,128182,2,0,B|184:288|200:240|200:240|264:200|336:256,1,240,2|2,0:0|0:0,0:0:0
440,304,129982,1,8,0:0:0
456,248,130282,1,0,0:0:0
456,192,130582,6,0,B|448:112|448:112|352:56,1,180,4|0,0:0|0:0,0:0:0
304,64,131782,2,0,B|217:114|217:114|209:194,1,180,6|0,0:0|0:0,0:0:0
256,192,132982,12,4,135382,0:0:0
256,192,150982,12,4,154582,0:0:0
120,136,155782,6,0,B|72:192|120:256,1,120
224,192,156982,6,0,B|264:240|344:240,1,120,4|0,0:0|0:0,0:0:0
448,232,158182,5,2,0:0:0
472,176,158482,1,0,0:0:0
464,120,158782,1,8,0:0:0
432,72,159082,1,0,0:0:0
384,40,159382,1,2,0:0:0
256,24,159982,6,0,B|184:24|160:96,1,120,8|2,0:0|0:0,0:0:0
128,200,161182,1,8,0:0:0
232,264,161782,2,0,B|296:264|344:312,2,120,2|8|2,0:0|0:0|0:0,0:0:0
224,144,163582,5,8,0:0:0
272,104,163882,1,0,0:0:0
328,88,164182,2,0,B|400:64|480:128|488:240,1,240,4|0,0:0|0:0,0:0:0
440,336,165982,1,8,0:0:0
384,352,166282,1,0,0:0:0
328,360,166582,6,0,B|264:376|216:336,1,120,2|8,0:0|0:0,0:0:0
144,240,167782,2,0,B|104:176|152:112,1,120,2|8,0:0|0:0,0:0:0
176,80,168682,1,0,0:0:0
232,56,168982,6,0,B|296:32|352:64,2,120,4|8|2,0:0|0:0|0:0,0:0:0
288,160,170782,1,8,0:0:0
256,192,171382,12,4,173782,0:0:0
104,80,174382,5,8,0:0:0
160,48,174682,1,0,0:0:0
216,48,174982,2,0,B|248:88|296:64|296:64|344:96|312:160,1,180,2|0,0:0|0:0,0:0:0
256,192,176182,12,4,178582,0:0:0
128,80,179182,5,8,0:0:0
80,120,179482,1,0,0:0:0
64,176,179782,2,0,B|48:256|80:320|128:360|192:360,1,240,2|0,0:0|0:0,0:0:0
296,336,181582,5,8,0:0:0
352,320,181882,1,0,0:0:0
400,280,182182,1,2,0:0:0
432,232,182482,1,0,0:0:0
440,176,182782,1,8,0:0:0
392,64,183382,5,4,0:0:0
