osu file format v14

[General]
AudioFilename: Rank1 - Airwave (Aaron Static Remix).mp3
AudioLeadIn: 0
PreviewTime: 142030
Countdown: 0
SampleSet: Soft
StackLeniency: 0.5
Mode: 0
LetterboxInBreaks: 0
WidescreenStoryboard: 0

[Editor]
Bookmarks: 72229,147920,175586,206996,502378
DistanceSpacing: 1.4
BeatDivisor: 4
GridSize: 4
TimelineZoom: 1

[Metadata]
Title:Airwave (Aaron Static Remix)
TitleUnicode:Airwave (Aaron Static Remix)
Artist:Rank 1
ArtistUnicode:Rank 1
Creator:Come[Back]Home
Version:Normal
Source:
Tags:dnb euny trance fort drum and bass short version
BeatmapID:715316
BeatmapSetID:321556

[Difficulty]
HPDrainRate:5
CircleSize:3.5
OverallDifficulty:4
ApproachRate:5
SliderMultiplier:1.2
SliderTickRate:1

[Events]
//Background and Video events
0,0,"11.jpg",0,0
//Break Periods
//Storyboard Layer 0 (Background)
//Storyboard Layer 1 (Fail)
//Storyboard Layer 2 (Pass)
//Storyboard Layer 3 (Foreground)
//Storyboard Sound Samples

[TimingPoints]
1723,461.538461538462,4,1,0,100,1,0
9107,-125,4,2,1,40,0,0
9337,-125,4,2,2,40,0,0
12799,-125,4,2,1,40,0,0
13030,-125,4,2,2,40,0,0
16491,-125,4,2,1,40,0,0
16722,-125,4,2,2,40,0,0
20184,-125,4,2,1,40,0,0
20414,-125,4,2,2,40,0,0
23876,-100,4,2,2,70,0,0
27568,-100,4,2,3,50,0,0
27799,-100,4,2,2,70,0,0
34953,-100,4,2,3,50,0,0
35184,-100,4,2,2,70,0,0
42337,-100,4,2,3,50,0,0
42568,-100,4,2,2,70,0,0
49722,-100,4,2,3,50,0,0
49953,-100,4,2,2,70,0,0
57107,-100,4,2,3,50,0,0
57337,-100,4,2,2,70,0,0
64491,-100,4,2,3,50,0,0
64722,-100,4,2,2,70,0,0
71876,-100,4,2,3,50,0,0
72107,-100,4,2,2,70,0,0
79261,-100,4,2,3,50,0,0
79491,-100,4,2,2,70,0,0
86645,-100,4,2,3,50,0,0
86876,-100,4,2,2,70,0,0
94030,-100,4,2,3,50,0,0
94261,-100,4,2,2,70,0,0
101414,-100,4,2,3,50,0,0
101645,-100,4,2,2,70,0,0
116184,-100,4,2,3,50,0,0
116414,-100,4,2,2,70,0,0
123568,-100,4,2,3,50,0,0
123799,-100,4,2,2,70,0,0
130953,-100,4,2,3,50,0,0
131184,-100,4,2,2,70,0,0
142030,-100,4,2,2,70,0,1
142261,-100,4,2,4,70,0,1
143876,-100,4,2,2,70,0,1
145261,-100,4,2,4,70,0,1
145491,-100,4,2,2,70,0,1
146184,-100,4,2,4,70,0,1
147568,-100,4,2,2,70,0,1
148953,-100,4,2,4,70,0,1
149184,-100,4,2,2,70,0,1
149876,-100,4,2,4,70,0,1
151261,-100,4,2,2,70,0,1
152645,-100,4,2,4,70,0,1
152876,-100,4,2,2,70,0,1
153568,-100,4,2,4,70,0,1
154953,-100,4,2,2,70,0,1
156337,-100,4,2,4,70,0,1
156568,-100,4,2,2,70,0,1
157261,-100,4,2,4,70,0,1
158645,-100,4,2,2,70,0,1
160030,-100,4,2,4,70,0,1
160261,-100,4,2,2,70,0,1
160953,-100,4,2,4,70,0,1
162337,-100,4,2,2,70,0,1
163722,-100,4,2,4,70,0,1
163953,-100,4,2,2,70,0,1
164645,-100,4,2,4,70,0,1
166030,-100,4,2,2,70,0,1
167414,-100,4,2,4,70,0,1
167645,-100,4,2,2,70,0,1
168337,-100,4,2,4,70,0,1
169722,-100,4,2,2,70,0,1
171107,-100,4,2,4,70,0,1
171569,-100,4,2,2,70,0,0

[Colours]
Combo1 : 255,128,255
Combo2 : 255,0,0
Combo3 : 0,128,192
Combo4 : 128,0,255

[HitObjects]
140,304,9107,6,0,P|152:268|120:200,1,96,4|0,0:0|0:0,0:0:0:0:
188,144,9799,2,0,B|216:148|216:148|300:124,1,96,2|0,0:0|0:0,0:0:0:0:
340,68,10492,2,0,P|356:88|364:112,1,48
340,192,10953,6,0,B|332:228|332:228|352:288,2,96,0|8|0,0:0|0:0|0:0,0:0:0:0:
240,52,12338,2,0,P|216:60|192:56,1,48
112,88,12799,6,0,L|124:192,1,96,4|0,0:0|0:0,0:0:0:0:
72,256,13492,2,0,P|112:272|172:256,1,96,2|0,0:0|0:0,0:0:0:0:
212,192,14184,2,0,L|272:204,1,48
336,160,14646,6,0,L|448:152,2,96,0|8|0,0:0|0:0|0:0,0:0:0:0:
188,68,16030,2,0,L|128:64,1,48
72,116,16492,6,0,B|68:148|68:148|76:188|76:188|72:228,1,96,4|0,0:0|0:0,0:0:0:0:
136,272,17184,2,0,P|168:264|240:296,1,96,2|0,0:0|0:0,0:0:0:0:
376,368,18107,1,0,0:0:0:0:
428,300,18338,6,0,L|416:244,1,48
336,228,18799,2,0,L|344:116,1,96,8|0,0:0|0:0,0:0:0:0:
196,40,19723,2,0,P|172:56|140:56,1,48
68,40,20184,6,0,B|52:64|72:104|72:104|64:140,1,96,4|0,0:0|0:0,0:0:0:0:
116,204,20876,2,0,L|232:192,1,96,2|0,0:0|0:0,0:0:0:0:
356,288,21799,1,0,0:0:0:0:
356,288,22030,6,0,P|348:256|380:184,1,96,0|8,0:0|0:0,0:0:0:0:
388,112,22723,1,0,0:0:0:0:
320,56,22953,2,0,B|288:60|288:60|248:56|248:56|216:64,1,96
164,124,23646,1,0,0:0:0:0:
208,200,23876,6,0,P|220:240|180:320,1,120,4|0,0:0|0:0,0:0:0:0:
260,360,24569,2,0,B|292:352|292:352|352:360|352:360|392:348,1,120,2|0,0:0|0:0,0:0:0:0:
440,296,25261,2,0,L|432:232,1,60
360,192,25723,6,0,P|392:160|476:168,2,120,0|8|0,0:0|0:0|0:0,0:0:0:0:
200,244,27107,2,0,L|140:240,1,60
72,192,27569,6,0,P|88:148|48:80,1,120,2|0,0:0|0:0,0:0:0:0:
104,16,28261,2,0,L|228:40,1,120,2|0,0:0|0:0,0:0:0:0:
252,116,28953,2,0,L|328:108,1,60
388,144,29415,6,0,B|376:184|376:184|392:208|388:284,1,120,0|8,0:0|0:0,0:0:0:0:
336,324,30107,1,0,0:0:0:0:
252,308,30338,2,0,L|128:312,1,120
64,264,31030,1,0,0:0:0:0:
108,192,31261,6,0,P|120:148|56:80,1,120,4|0,0:0|0:0,0:0:0:0:
136,24,31953,2,0,B|172:32|172:32|216:24|216:24|264:32,1,120,2|0,0:0|0:0,0:0:0:0:
288,108,32646,2,0,P|324:84|332:56,1,60
416,68,33107,6,0,L|412:200,2,120,0|8|0,0:0|0:0|0:0,0:0:0:0:
316,204,34492,2,0,L|328:288,1,60
276,332,34953,6,0,L|140:328,1,120,2|0,0:0|0:0,0:0:0:0:
88,280,35646,2,0,P|108:232|72:156,1,120,2|0,0:0|0:0,0:0:0:0:
116,92,36338,2,0,L|184:96,1,60
228,28,36799,6,0,P|256:64|244:144,1,120,0|8,0:0|0:0,0:0:0:0:
180,184,37492,1,0,0:0:0:0:
224,256,37723,2,0,L|372:248,1,120
204,340,38646,6,0,B|148:320|140:276|140:276|104:288,1,120,4|0,0:0|0:0,0:0:0:0:
44,240,39338,2,0,P|60:192|20:120,1,120,2|0,0:0|0:0,0:0:0:0:
60,52,40030,2,0,L|136:64,1,60
176,124,40492,6,0,L|312:112,2,120,0|8|0,0:0|0:0|0:0,0:0:0:0:
72,256,41876,2,0,P|80:288|72:320,1,60
148,356,42338,6,0,B|176:348|176:348|204:360|276:360,1,120,2|0,0:0|0:0,0:0:0:0:
332,308,43030,2,0,P|324:272|384:212,1,120,2|0,0:0|0:0,0:0:0:0:
376,128,43723,2,0,L|312:112,1,60
268,44,44184,6,0,L|144:72,1,120,0|8,0:0|0:0,0:0:0:0:
84,120,44876,1,0,0:0:0:0:
48,196,45107,2,0,P|40:236|84:308,1,120
156,324,45799,1,0,0:0:0:0:
232,284,46030,6,0,L|224:152,1,120,4|0,0:0|0:0,0:0:0:0:
292,112,46723,2,0,B|324:116|324:116|412:92,1,120,2|0,0:0|0:0,0:0:0:0:
492,108,47415,2,0,P|480:152|488:176,1,60
468,248,47876,6,0,L|396:256,2,60,0|0|8,0:0|0:0|0:0,0:0:0:0:
308,304,48799,2,0,P|296:260|324:184,1,120
284,116,49492,1,0,0:0:0:0:
216,68,49723,6,0,L|96:88,1,120,2|0,0:0|0:0,0:0:0:0:
56,160,50415,2,0,P|72:192|32:272,1,120,2|0,0:0|0:0,0:0:0:0:
188,352,51338,1,0,0:0:0:0:
244,288,51569,6,0,L|372:296,1,120,0|8,0:0|0:0,0:0:0:0:
432,244,52261,1,0,0:0:0:0:
460,164,52492,2,0,L|332:156,1,120
308,80,53184,1,0,0:0:0:0:
244,24,53415,6,0,B|216:52|224:96|224:96|168:100,1,120,4|0,0:0|0:0,0:0:0:0:
112,148,54107,2,0,P|124:188|92:260,1,120,2|0,0:0|0:0,0:0:0:0:
140,328,54799,2,0,L|220:316,1,60
248,252,55261,6,0,L|380:268,2,120,4|8|0,0:0|0:0|0:0,0:0:0:0:
144,120,56646,2,0,P|152:92|140:60,1,60,2|0,0:0|0:0,0:0:0:0:
216,24,57107,6,0,B|256:32|256:32|288:16|348:16,1,120,2|0,0:0|0:0,0:0:0:0:
408,52,57799,2,0,L|400:176,1,120,2|0,0:0|0:0,0:0:0:0:
324,200,58492,2,0,L|332:284,1,60
280,328,58953,6,0,L|152:324,1,120,4|8,0:0|0:0,0:0:0:0:
96,268,59646,1,0,0:0:0:0:
44,204,59876,2,0,P|32:172|64:88,1,120,0|2,0:0|0:0,0:0:0:0:
136,64,60569,1,0,0:0:0:0:
216,88,60799,6,0,B|248:96|248:96|352:76,1,120,4|0,0:0|0:0,0:0:0:0:
416,100,61492,2,0,L|412:232,1,120,2|0,0:0|0:0,0:0:0:0:
332,244,62184,2,0,P|344:272|376:296,1,60
304,348,62646,6,0,L|160:336,2,120,0|8|0,0:0|0:0|0:0,0:0:0:0:
232,196,64030,2,0,P|224:168|232:132,1,60,2|0,0:0|0:0,0:0:0:0:
196,60,64492,6,0,B|164:64|164:64|104:56|104:56|72:64,1,120,2|0,0:0|0:0,0:0:0:0:
28,132,65184,2,0,P|40:172|-4:248,1,120,2|0,0:0|0:0,0:0:0:0:
48,312,65876,2,0,P|84:316|112:304,1,60
144,232,66338,6,0,P|172:256|180:344,1,120,4|8,0:0|0:0,0:0:0:0:
256,376,67030,1,0,0:0:0:0:
328,334,67261,2,0,P|328:275|367:232,1,120,0|2,0:0|0:0,0:0:0:0:
444,84,68184,6,0,L|312:112,1,120,4|0,0:0|0:0,0:0:0:0:
272,172,68876,2,0,P|244:132|264:52,1,120,2|0,0:0|0:0,0:0:0:0:
176,28,69569,2,0,L|112:44,1,60
56,100,70030,6,0,B|64:144|64:144|44:220,2,120,4|8|0,0:0|0:0|0:0,0:0:0:0:
188,204,71415,2,0,P|220:212|252:208,1,60,2|0,0:0|0:0,0:0:0:0:
296,140,71876,6,0,P|324:176|304:268,1,120,2|0,0:0|0:0,0:0:0:0:
260,304,72569,2,0,L|128:296,1,120,2|0,0:0|0:0,0:0:0:0:
76,244,73261,2,0,P|68:216|72:184,1,60
140,140,73723,6,0,P|104:108|16:124,2,120,0|8|0,0:0|0:0|0:0,0:0:0:0:
292,216,75107,1,2,0:0:0:0:
340,148,75338,1,0,0:0:0:0:
376,224,75569,6,0,P|352:276|280:300,1,120,4|0,0:0|0:0,0:0:0:0:
212,300,76261,2,0,P|158:276|133:223,1,120,2|0,0:0|0:0,0:0:0:0:
152,140,76953,2,0,L|220:152,1,60
272,92,77415,6,0,L|352:84,2,60,4|0|8,0:0|0:0|0:0,0:0:0:0:
168,224,78338,2,0,P|160:256|200:344,1,120,0|2,0:0|0:0,0:0:0:0:
256,284,79030,1,0,0:0:0:0:
322,334,79261,6,0,P|350:282|344:224,1,120,2|0,0:0|0:0,0:0:0:0:
288,164,79953,1,2,0:0:0:0:
136,236,80415,1,0,0:0:0:0:
72,184,80646,2,0,L|76:104,1,60
132,64,81107,6,0,L|260:72,1,120,4|8,0:0|0:0,0:0:0:0:
312,132,81799,1,0,0:0:0:0:
372,192,82030,2,0,P|360:240|400:312,1,120,0|2,0:0|0:0,0:0:0:0:
340,372,82723,2,0,L|260:356,1,60,0|4,0:0|0:0,0:0:0:0:
136,272,83415,5,0,0:0:0:0:
136,272,83646,2,0,L|144:140,1,120,2|0,0:0|0:0,0:0:0:0:
204,96,84338,2,0,P|244:92|272:96,1,60
332,144,84799,5,4,0:0:0:0:
352,312,85261,1,8,0:0:0:0:
188,280,85723,2,0,P|152:268|64:304,1,120,0|2,0:0|0:0,0:0:0:0:
20,228,86415,1,0,0:0:0:0:
64,156,86646,6,0,B|76:120|76:120|48:28,1,120,2|0,0:0|0:0,0:0:0:0:
136,28,87338,2,0,L|176:152,1,120,2|0,0:0|0:0,0:0:0:0:
236,196,88030,2,0,P|268:200|300:192,1,60
336,120,88492,6,0,P|368:148|368:236,1,120,4|8,0:0|0:0,0:0:0:0:
240,320,89415,2,0,L|96:312,1,120,0|2,0:0|0:0,0:0:0:0:
68,248,90107,1,0,0:0:0:0:
24,176,90338,6,0,P|16:132|44:52,1,120,4|0,0:0|0:0,0:0:0:0:
116,36,91030,2,0,L|244:60,1,120,2|0,0:0|0:0,0:0:0:0:
284,128,91723,2,0,L|360:116,1,60
420,156,92184,5,4,0:0:0:0:
428,324,92646,1,8,0:0:0:0:
280,248,93107,2,0,B|244:252|244:252|200:244|200:244|152:248,1,120,0|2,0:0|0:0,0:0:0:0:
96,300,93799,1,0,0:0:0:0:
28,248,94030,6,0,P|20:184|44:108,1,120,2|0,0:0|0:0,0:0:0:0:
96,76,94723,2,0,P|140:92|220:52,1,120,2|0,0:0|0:0,0:0:0:0:
276,20,95415,2,0,L|352:36,1,60
396,88,95876,5,4,0:0:0:0:
464,240,96338,2,0,L|452:312,1,60,8|0,0:0|0:0,0:0:0:0:
384,344,96799,1,0,0:0:0:0:
220,300,97261,1,2,0:0:0:0:
68,228,97723,6,0,P|76:188|28:112,1,120,4|0,0:0|0:0,0:0:0:0:
80,44,98415,2,0,L|224:32,1,120,2|0,0:0|0:0,0:0:0:0:
244,104,99107,2,0,P|240:136|248:164,1,60
328,188,99569,5,4,0:0:0:0:
452,76,100030,1,8,0:0:0:0:
448,244,100492,2,0,B|444:276|444:276|456:320|456:320|452:368,1,120,0|2,0:0|0:0,0:0:0:0:
368,372,101184,1,0,0:0:0:0:
300,320,101415,6,0,P|268:300|184:324,1,120,2|0,0:0|0:0,0:0:0:0:
116,276,102107,2,0,P|128:240|72:160,1,120,2|0,0:0|0:0,0:0:0:0:
60,92,102799,2,0,P|60:60|80:28,1,60
148,84,103261,6,0,L|272:96,1,120,4|8,0:0|0:0,0:0:0:0:
380,220,104184,2,0,L|260:231,1,120,0|2,0:0|0:0,0:0:0:0:
208,296,104876,1,0,0:0:0:0:
140,348,105107,6,0,P|124:312|152:232,1,120,4|0,0:0|0:0,0:0:0:0:
200,172,105799,2,0,B|176:148|120:156|120:156|132:108,1,120,2|0,0:0|0:0,0:0:0:0:
172,48,106492,2,0,L|240:40,1,60
300,92,106953,6,0,L|380:100,2,60,4|0|8,0:0|0:0|0:0,0:0:0:0:
172,200,107876,2,0,P|184:232|140:304,1,120,0|2,0:0|0:0,0:0:0:0:
208,360,108569,1,0,0:0:0:0:
284,320,108799,6,0,L|416:312,1,120,4|0,0:0|0:0,0:0:0:0:
456,248,109492,2,0,P|432:208|472:140,1,120,2|0,0:0|0:0,0:0:0:0:
432,68,110184,2,0,L|364:72,1,60,8|0,0:0|0:0,0:0:0:0:
256,192,110646,12,4,112492,0:0:0:0:
128,344,114338,6,0,P|140:304|80:240,1,120,4|8,0:0|0:0,0:0:0:0:
32,192,115030,1,0,0:0:0:0:
97,139,115261,2,0,P|137:97|128:40,1,120,0|2,0:0|0:0,0:0:0:0:
212,32,115953,1,0,0:0:0:0:
268,92,116184,6,0,B|316:100|316:100|408:64,1,120,2|0,0:0|0:0,0:0:0:0:
464,92,116876,2,0,L|456:216,1,120,2|0,0:0|0:0,0:0:0:0:
388,264,117569,2,0,L|400:332,1,60
324,360,118030,6,0,L|300:220,2,120,4|8|0,0:0|0:0|0:0,0:0:0:0:
208,236,119415,2,0,L|228:168,1,60,2|0,0:0|0:0,0:0:0:0:
168,116,119876,6,0,P|216:96|296:132,1,120,4|0,0:0|0:0,0:0:0:0:
332,180,120569,2,0,L|296:316,1,120,2|0,0:0|0:0,0:0:0:0:
228,336,121261,2,0,P|192:340|164:328,1,60
104,280,121723,6,0,P|120:244|72:168,1,120,4|8,0:0|0:0,0:0:0:0:
208,60,122646,2,0,L|348:56,1,120,0|2,0:0|0:0,0:0:0:0:
400,104,123338,1,0,0:0:0:0:
456,168,123569,6,0,B|456:204|456:204|448:248|448:248|448:292,1,120,2|0,0:0|0:0,0:0:0:0:
380,336,124261,2,0,P|344:344|264:304,1,120,2|0,0:0|0:0,0:0:0:0:
228,236,124953,2,0,P|224:204|236:164,1,60
268,104,125415,6,0,P|300:84|392:88,1,120,4|8,0:0|0:0,0:0:0:0:
456,120,126107,2,0,P|472:148|480:184,1,60
380,312,126799,1,2,0:0:0:0:
216,340,127261,6,0,L|92:328,1,120,4|0,0:0|0:0,0:0:0:0:
36,272,127953,2,0,B|68:244|104:248|104:248|108:184,1,120,2|0,0:0|0:0,0:0:0:0:
184,168,128646,2,0,L|172:96,1,60
240,56,129107,6,0,P|280:68|356:36,1,120,4|8,0:0|0:0,0:0:0:0:
456,172,130030,2,0,P|416:160|340:192,1,120,0|2,0:0|0:0,0:0:0:0:
324,268,130723,1,0,0:0:0:0:
304,348,130953,6,0,P|251:373|193:362,1,120,2|0,0:0|0:0,0:0:0:0:
240,292,131646,2,0,L|252:164,1,120,2|0,0:0|0:0,0:0:0:0:
328,136,132338,2,0,P|304:108|276:96,1,60
204,76,132799,6,0,P|220:44|316:24,2,120,4|8|0,0:0|0:0|0:0,0:0:0:0:
204,244,134184,2,0,L|216:304,1,60,2|0,0:0|0:0,0:0:0:0:
284,348,134646,6,0,P|320:356|400:312,1,120,4|0,0:0|0:0,0:0:0:0:
424,244,135338,2,0,P|424:208|356:136,1,120,2|0,0:0|0:0,0:0:0:0:
296,116,136030,2,0,P|288:80|296:40,1,60
212,20,136492,6,0,L|140:32,2,60,4|0|8,0:0|0:0|0:0,0:0:0:0:
108,152,137415,2,0,B|116:204|116:204|80:284,1,120,0|2,0:0|0:0,0:0:0:0:
136,332,138107,1,0,0:0:0:0:
216,300,138338,6,0,L|360:292,1,120,4|0,0:0|0:0,0:0:0:0:
396,236,139030,2,0,P|384:188|428:128,1,120,2|0,0:0|0:0,0:0:0:0:
404,48,139723,2,0,L|324:44,1,60
288,108,140184,6,0,L|144:120,1,120,4|8,0:0|0:0,0:0:0:0:
104,172,140876,2,0,P|116:208|104:240,1,60
228,348,141569,2,0,L|300:340,1,60,2|0,0:0|0:0,0:0:0:0:
364,308,142030,6,0,B|400:284|400:284|432:204,2,120,4|8|0,0:0|0:0|0:0,0:0:0:0:
196,324,143415,1,0,0:0:0:0:
112,324,143646,1,0,0:0:0:0:
64,256,143876,6,0,P|56:220|68:188,1,60,4|0,0:0|0:0,0:0:0:0:
144,224,144338,2,0,P|180:228|264:176,1,120,8|0,0:0|0:0,0:0:0:0:
320,36,145261,2,0,L|392:44,1,60,8|0,0:0|0:0,0:0:0:0:
448,92,145723,6,0,L|424:232,1,120,4|8,0:0|0:0,0:0:0:0:
360,256,146415,1,2,0:0:0:0:
204,316,146876,2,0,L|140:308,1,60
76,260,147338,1,0,0:0:0:0:
36,184,147569,6,0,P|56:140|20:80,2,120,4|8|0,0:0|0:0|0:0,0:0:0:0:
164,292,148953,1,8,0:0:0:0:
236,248,149184,1,0,0:0:0:0:
316,276,149415,6,0,B|356:284|356:284|400:280|400:280|444:288,1,120,4|8,0:0|0:0,0:0:0:0:
488,220,150107,2,0,P|476:168|516:96,1,120,2|0,0:0|0:0,0:0:0:0:
468,32,150799,1,0,0:0:0:0:
388,60,151030,1,0,0:0:0:0:
320,112,151261,6,0,P|284:120|248:104,1,60,4|0,0:0|0:0,0:0:0:0:
180,132,151723,2,0,L|188:268,1,120,8|0,0:0|0:0,0:0:0:0:
324,348,152646,2,0,L|392:336,1,60,8|0,0:0|0:0,0:0:0:0:
448,288,153107,6,0,P|440:244|496:180,1,120,4|8,0:0|0:0,0:0:0:0:
428,120,153799,2,0,L|304:148,1,120,2|0,0:0|0:0,0:0:0:0:
256,212,154492,2,0,P|264:248|256:280,1,60
180,248,154953,6,0,L|112:244,1,60,4|0,0:0|0:0,0:0:0:0:
64,184,155415,2,0,P|72:144|60:112,1,60,8|0,0:0|0:0,0:0:0:0:
100,48,155876,2,0,L|232:56,1,120,0|8,0:0|0:0,0:0:0:0:
376,120,156799,6,0,L|364:252,1,120,4|8,0:0|0:0,0:0:0:0:
292,280,157492,1,2,0:0:0:0:
128,248,157953,2,0,P|132:216|112:180,1,60
44,160,158415,1,0,0:0:0:0:
108,104,158646,5,4,0:0:0:0:
268,168,159107,1,8,0:0:0:0:
420,92,159569,2,0,L|444:232,1,120,0|8,0:0|0:0,0:0:0:0:
392,280,160261,1,0,0:0:0:0:
328,332,160492,6,0,P|284:336|220:280,1,120,4|8,0:0|0:0,0:0:0:0:
252,212,161184,2,0,B|264:184|264:184|252:84,1,120,2|0,0:0|0:0,0:0:0:0:
316,40,161876,2,0,L|392:48,1,60
444,96,162338,5,4,0:0:0:0:
440,264,162799,1,8,0:0:0:0:
288,336,163261,2,0,P|240:344|168:292,1,120,0|8,0:0|0:0,0:0:0:0:
160,228,163953,1,0,0:0:0:0:
200,152,164184,6,0,L|328:144,1,120,4|8,0:0|0:0,0:0:0:0:
368,76,164876,2,0,P|392:100|392:192,1,120,2|0,0:0|0:0,0:0:0:0:
328,232,165569,2,0,P|320:264|336:296,1,60
276,356,166030,6,0,L|200:348,2,60,4|0|8,0:0|0:0|0:0,0:0:0:0:
144,252,166953,2,0,P|160:220|128:132,1,120,0|8,0:0|0:0,0:0:0:0:
200,80,167646,1,0,0:0:0:0:
276,120,167876,6,0,P|312:128|384:76,1,120,4|8,0:0|0:0,0:0:0:0:
460,104,168569,2,0,L|476:188,1,60,2|0,0:0|0:0,0:0:0:0:
432,328,169261,1,0,0:0:0:0:
360,284,169492,1,0,0:0:0:0:
280,312,169723,6,0,B|244:316|244:316|192:308|192:308|152:312,1,120,4|8,0:0|0:0,0:0:0:0:
88,268,170415,2,0,L|100:204,1,60
212,84,171107,2,0,P|252:92|284:72,1,60,8|0,0:0|0:0,0:0:0:0:
324,24,171569,1,12,0:0:0:0:
