osu file format v14

[General]
AudioFilename: Ran-D ft Skits Vicious - No Guts No Glory (Defqon 1 Anthem 2015).mp3
AudioLeadIn: 0
PreviewTime: 148729
Countdown: 0
SampleSet: Normal
StackLeniency: 0.7
Mode: 3
LetterboxInBreaks: 0
SpecialStyle: 0
WidescreenStoryboard: 0

[Editor]
DistanceSpacing: 1
BeatDivisor: 4
GridSize: 4
TimelineZoom: 1

[Metadata]
Title:No Guts No Glory (Defqon 1 Anthem 2015)
TitleUnicode:No Guts No Glory (Defqon 1 Anthem 2015)
Artist:Ran-D feat. Skits Vicious
ArtistUnicode:Ran-D feat. Skits Vicious
Creator:Bluuh
Version:Bluuhberries
Source:Defqon 1 Anthem 2015
Tags:hardstyle 150 dpm defqon bluuh ran-d skits vicious no guts no glory
BeatmapID:796427
BeatmapSetID:362615

[Difficulty]
HPDrainRate:7
CircleSize:4
OverallDifficulty:7
ApproachRate:5
SliderMultiplier:1.4
SliderTickRate:1

[Events]
//Background and Video events
0,0,"osunogutsnoglorydefqon.jpg",0,0
//Break Periods
//Storyboard Layer 0 (Background)
//Storyboard Layer 1 (Fail)
//Storyboard Layer 2 (Pass)
//Storyboard Layer 3 (Foreground)
//Storyboard Sound Samples

[TimingPoints]
28,400,4,1,1,75,1,0
1628,-133.333333333333,4,1,1,75,0,0
8028,-100,4,1,1,75,0,0
20828,-133.333333333333,4,1,1,75,0,0
21228,-100,4,1,1,75,0,0
21628,-200,4,1,1,75,0,0
22028,-100,4,1,1,75,0,0
22428,-133.333333333333,4,1,1,75,0,0
22828,-100,4,1,1,75,0,0
23228,-200,4,1,1,75,0,0
23628,-100,4,1,1,75,0,0
24028,-133.333333333333,4,1,1,75,0,0
24428,-100,4,1,1,75,0,0
24828,-200,4,1,1,75,0,0
25228,-100,4,1,1,75,0,0
25628,-133.333333333333,4,1,1,75,0,0
26028,-100,4,1,1,75,0,0
26428,-200,4,1,1,75,0,0
26828,-100,4,1,1,75,0,0
27228,-133.333333333333,4,1,1,75,0,0
27628,-100,4,1,1,75,0,0
28028,-200,4,1,1,75,0,0
28428,-100,4,1,1,75,0,0
28828,-133.333333333333,4,1,1,75,0,0
29228,-100,4,1,1,75,0,0
29628,-200,4,1,1,75,0,0
30028,-100,4,1,1,75,0,0
30428,-133.333333333333,4,1,1,75,0,0
30828,-100,4,1,1,75,0,0
31228,-200,4,1,1,75,0,0
31628,-100,4,1,1,75,0,0
32028,-133.333333333333,4,1,1,75,0,0
32428,-100,4,1,1,75,0,0
32828,-200,4,1,1,75,0,0
33228,-100,4,1,1,75,0,0
35228,-90.9090909090909,4,1,1,75,0,0
36428,-83.3333333333333,4,1,1,75,0,0
37628,-76.9230769230769,4,1,1,75,0,0
38828,-71.4285714285714,4,1,1,75,0,0
40028,-66.6666666666667,4,1,1,75,0,0
41228,-62.5,4,1,1,75,0,0
42428,-100,4,1,1,75,0,0
43828,-200,4,1,1,75,0,0
44028,-400,4,1,1,75,0,0
44228,-100,4,1,1,75,0,0
49228,-200,4,1,1,75,0,0
49328,-400,4,1,1,75,0,0
49428,-100,4,1,1,75,0,0
52028,-200,4,1,1,75,0,0
52128,-400,4,1,1,75,0,0
52228,-100,4,1,1,75,0,0
55628,-200,4,1,1,75,0,0
55728,-400,4,1,1,75,0,0
55828,-100,4,1,1,75,0,0
57828,-111.111111111111,4,1,1,75,0,0
58028,-125,4,1,1,75,0,0
58228,-142.857142857143,4,1,1,75,0,0
58628,-166.666666666667,4,1,1,75,0,0
58828,-200,4,1,1,75,0,0
59028,-400,4,1,1,75,0,0
59228,-100,4,1,1,75,0,0
60028,-200,4,1,1,75,0,0
60128,-400,4,1,1,75,0,0
60228,-100,4,1,1,75,0,0
61628,-200,4,1,1,75,0,0
61728,-400,4,1,1,75,0,0
61828,-100,4,1,1,75,0,0
63228,-200,4,1,1,75,0,0
63328,-400,4,1,1,75,0,0
63428,-100,4,1,1,75,0,0
66028,-200,4,1,1,75,0,0
66228,-400,4,1,1,75,0,0
66428,-100,4,1,1,75,0,0
67228,-200,4,1,1,75,0,0
67428,-400,4,1,1,75,0,0
67628,-100,4,1,1,75,0,0
68828,-200,4,1,1,75,0,0
69028,-100,4,1,1,75,0,0
69228,-200,4,1,1,75,0,0
69428,-100,4,1,1,75,0,0
72028,-200,4,1,1,75,0,0
72428,-133.333333333333,4,1,1,75,0,0
73028,-200,4,1,1,75,0,0
73228,-133.333333333333,4,1,1,75,0,0
73628,-200,4,1,1,75,0,0
74028,-133.333333333333,4,1,1,75,0,0
74628,-200,4,1,1,75,0,0
74828,-133.333333333333,4,1,1,75,0,0
75228,-200,4,1,1,75,0,0
75628,-133.333333333333,4,1,1,75,0,0
76228,-200,4,1,1,75,0,0
76428,-133.333333333333,4,1,1,75,0,0
76828,-200,4,1,1,75,0,0
77228,-133.333333333333,4,1,1,75,0,0
77828,-200,4,1,1,75,0,0
78028,-133.333333333333,4,1,1,75,0,0
78428,-100,4,1,1,75,0,0

[HitObjects]
448,192,28,5,0,0:0:0:0:
320,192,228,1,0,0:0:0:0:
192,192,428,1,0,0:0:0:0:
64,192,628,1,0,0:0:0:0:
192,192,828,1,0,0:0:0:0:
320,192,828,1,0,0:0:0:0:
192,192,1228,1,0,0:0:0:0:
320,192,1228,1,0,0:0:0:0:
64,192,1628,1,0,0:0:0:0:
192,192,1628,1,0,0:0:0:0:
320,192,1628,1,0,0:0:0:0:
448,192,1628,1,0,0:0:0:0:
192,192,2428,1,0,0:0:0:0:
320,192,3228,1,0,0:0:0:0:
192,192,4028,1,0,0:0:0:0:
320,192,4828,1,0,0:0:0:0:
448,192,5628,1,0,0:0:0:0:
192,192,6428,1,0,0:0:0:0:
320,192,7228,5,0,0:0:0:0:
448,192,8028,5,0,0:0:0:0:
64,192,8028,1,0,0:0:0:0:
448,192,8428,1,0,0:0:0:0:
320,192,8828,1,0,0:0:0:0:
192,192,9228,1,0,0:0:0:0:
64,192,9628,1,0,0:0:0:0:
192,192,10028,1,0,0:0:0:0:
320,192,10428,1,0,0:0:0:0:
448,192,10828,1,0,0:0:0:0:
448,192,11028,1,0,0:0:0:0:
320,192,11228,1,0,0:0:0:0:
448,192,11628,1,0,0:0:0:0:
320,192,12028,1,0,0:0:0:0:
192,192,12428,1,0,0:0:0:0:
192,192,12628,1,0,0:0:0:0:
64,192,12828,1,0,0:0:0:0:
192,192,13228,1,0,0:0:0:0:
64,192,13628,1,0,0:0:0:0:
192,192,14028,1,0,0:0:0:0:
192,192,14228,1,0,0:0:0:0:
320,192,14428,1,0,0:0:0:0:
448,192,14828,1,0,0:0:0:0:
320,192,15228,1,0,0:0:0:0:
448,192,15628,1,0,0:0:0:0:
320,192,16028,1,0,0:0:0:0:
192,192,16428,1,0,0:0:0:0:
64,192,16828,1,0,0:0:0:0:
192,192,17228,1,0,0:0:0:0:
192,192,17428,1,0,0:0:0:0:
320,192,17628,1,0,0:0:0:0:
448,192,18028,1,0,0:0:0:0:
320,192,18428,1,0,0:0:0:0:
192,192,18828,1,0,0:0:0:0:
192,192,19028,1,0,0:0:0:0:
320,192,19228,1,0,0:0:0:0:
448,192,19628,1,0,0:0:0:0:
320,192,20028,1,0,0:0:0:0:
192,192,20428,1,0,0:0:0:0:
64,192,20828,1,0,0:0:0:0:
320,192,20828,128,0,21228:0:0:0:0:
192,192,21228,1,0,0:0:0:0:
320,192,21628,1,0,0:0:0:0:
320,192,21828,1,0,0:0:0:0:
192,192,22028,1,0,0:0:0:0:
64,192,22428,1,0,0:0:0:0:
320,192,22428,128,0,22828:0:0:0:0:
192,192,22828,1,0,0:0:0:0:
320,192,23228,1,0,0:0:0:0:
320,192,23428,1,0,0:0:0:0:
448,192,23628,1,0,0:0:0:0:
320,192,24028,1,0,0:0:0:0:
64,192,24028,128,0,24428:0:0:0:0:
192,192,24428,1,0,0:0:0:0:
320,192,24828,1,0,0:0:0:0:
320,192,25028,1,0,0:0:0:0:
448,192,25228,1,0,0:0:0:0:
320,192,25628,1,0,0:0:0:0:
64,192,25628,128,0,26028:0:0:0:0:
192,192,26028,1,0,0:0:0:0:
64,192,26428,1,0,0:0:0:0:
64,192,26628,1,0,0:0:0:0:
192,192,26828,1,0,0:0:0:0:
320,192,27228,1,0,0:0:0:0:
64,192,27228,128,0,27628:0:0:0:0:
448,192,27628,1,0,0:0:0:0:
320,192,28028,1,0,0:0:0:0:
320,192,28228,1,0,0:0:0:0:
192,192,28428,1,0,0:0:0:0:
64,192,28828,1,0,0:0:0:0:
320,192,28828,128,0,29228:0:0:0:0:
192,192,29228,1,0,0:0:0:0:
320,192,29628,1,0,0:0:0:0:
320,192,29828,1,0,0:0:0:0:
448,192,30028,1,0,0:0:0:0:
320,192,30428,1,0,0:0:0:0:
64,192,30428,128,0,30828:0:0:0:0:
192,192,30828,1,0,0:0:0:0:
64,192,31228,1,0,0:0:0:0:
64,192,31428,1,0,0:0:0:0:
192,192,31628,1,0,0:0:0:0:
320,192,32028,1,0,0:0:0:0:
64,192,32028,128,0,32428:0:0:0:0:
448,192,32428,1,0,0:0:0:0:
320,192,32828,1,0,0:0:0:0:
320,192,33028,1,0,0:0:0:0:
192,192,33228,1,0,0:0:0:0:
64,192,33628,1,0,0:0:0:0:
320,192,33628,1,0,0:0:0:0:
64,192,34028,128,0,35228:0:0:0:0:
320,192,34428,1,0,0:0:0:0:
320,192,34828,1,0,0:0:0:0:
192,192,35228,128,0,36428:0:0:0:0:
64,192,35628,1,0,0:0:0:0:
64,192,36028,1,0,0:0:0:0:
320,192,36428,128,0,37628:0:0:0:0:
64,192,36828,1,0,0:0:0:0:
64,192,37228,1,0,0:0:0:0:
448,192,37628,128,0,38828:0:0:0:0:
320,192,38028,1,0,0:0:0:0:
320,192,38428,1,0,0:0:0:0:
320,192,38828,128,0,40028:0:0:0:0:
64,192,39228,1,0,0:0:0:0:
64,192,39628,1,0,0:0:0:0:
192,192,40028,128,0,41228:0:0:0:0:
320,192,40228,1,0,0:0:0:0:
320,192,40428,1,0,0:0:0:0:
320,192,40628,1,0,0:0:0:0:
320,192,40828,1,0,0:0:0:0:
320,192,41028,1,0,0:0:0:0:
64,192,41228,128,0,42428:0:0:0:0:
320,192,41228,1,0,0:0:0:0:
320,192,41428,1,0,0:0:0:0:
448,192,41428,1,0,0:0:0:0:
320,192,41628,1,0,0:0:0:0:
448,192,41628,1,0,0:0:0:0:
320,192,41828,1,0,0:0:0:0:
448,192,41828,1,0,0:0:0:0:
320,192,42028,1,0,0:0:0:0:
448,192,42028,1,0,0:0:0:0:
320,192,42228,1,0,0:0:0:0:
448,192,42228,1,0,0:0:0:0:
192,192,42428,1,0,0:0:0:0:
320,192,42428,1,0,0:0:0:0:
448,192,42428,1,0,0:0:0:0:
64,192,43628,1,0,0:0:0:0:
448,192,43628,1,0,0:0:0:0:
448,192,43828,128,0,44228:0:0:0:0:
64,192,43828,128,0,44228:0:0:0:0:
64,192,45628,1,0,0:0:0:0:
448,192,45628,1,0,0:0:0:0:
64,192,46028,128,0,46228:0:0:0:0:
448,192,46028,128,0,46228:0:0:0:0:
192,192,46428,128,0,46628:0:0:0:0:
320,192,46428,128,0,46628:0:0:0:0:
192,192,46828,1,0,0:0:0:0:
320,192,46828,1,0,0:0:0:0:
64,192,47228,1,0,0:0:0:0:
192,192,47228,1,0,0:0:0:0:
320,192,47428,1,0,0:0:0:0:
192,192,47428,1,0,0:0:0:0:
320,192,47628,1,0,0:0:0:0:
448,192,47628,1,0,0:0:0:0:
192,192,48028,128,0,48228:0:0:0:0:
320,192,48028,128,0,48228:0:0:0:0:
192,192,48428,1,0,0:0:0:0:
320,192,48428,1,0,0:0:0:0:
448,192,48828,1,0,0:0:0:0:
64,192,48828,1,0,0:0:0:0:
320,192,49028,1,0,0:0:0:0:
192,192,49028,1,0,0:0:0:0:
64,192,49228,128,0,49428:0:0:0:0:
448,192,49228,128,0,49428:0:0:0:0:
192,192,49628,128,0,49828:0:0:0:0:
320,192,49628,128,0,49828:0:0:0:0:
192,192,50028,1,0,0:0:0:0:
320,192,50028,1,0,0:0:0:0:
448,192,50428,1,0,0:0:0:0:
320,192,50428,1,0,0:0:0:0:
192,192,50628,1,0,0:0:0:0:
320,192,50628,1,0,0:0:0:0:
64,192,50828,1,0,0:0:0:0:
192,192,50828,1,0,0:0:0:0:
192,192,51228,128,0,51428:0:0:0:0:
320,192,51228,128,0,51428:0:0:0:0:
192,192,51628,1,0,0:0:0:0:
320,192,51628,1,0,0:0:0:0:
448,192,52028,128,0,52228:0:0:0:0:
64,192,52028,128,0,52228:0:0:0:0:
192,192,52428,1,0,0:0:0:0:
320,192,52428,1,0,0:0:0:0:
64,192,52628,1,0,0:0:0:0:
448,192,52628,1,0,0:0:0:0:
192,192,52828,128,0,53028:0:0:0:0:
320,192,52828,128,0,53028:0:0:0:0:
192,192,53228,1,0,0:0:0:0:
320,192,53228,1,0,0:0:0:0:
64,192,53628,1,0,0:0:0:0:
192,192,53628,1,0,0:0:0:0:
192,192,53828,1,0,0:0:0:0:
320,192,53828,1,0,0:0:0:0:
64,192,54028,1,0,0:0:0:0:
192,192,54028,1,0,0:0:0:0:
192,192,54428,128,0,54628:0:0:0:0:
320,192,54428,128,0,54628:0:0:0:0:
192,192,54828,1,0,0:0:0:0:
320,192,54828,1,0,0:0:0:0:
64,192,55228,1,0,0:0:0:0:
448,192,55228,1,0,0:0:0:0:
192,192,55428,1,0,0:0:0:0:
320,192,55428,1,0,0:0:0:0:
448,192,55628,128,0,55828:0:0:0:0:
64,192,55628,128,0,55828:0:0:0:0:
320,192,55928,1,0,0:0:0:0:
192,192,56028,1,0,0:0:0:0:
192,192,56428,128,0,56628:0:0:0:0:
320,192,56428,128,0,56628:0:0:0:0:
320,192,56828,1,0,0:0:0:0:
448,192,56828,1,0,0:0:0:0:
192,192,57028,1,0,0:0:0:0:
320,192,57028,1,0,0:0:0:0:
320,192,57228,128,0,57428:0:0:0:0:
448,192,57228,128,0,57428:0:0:0:0:
320,192,57628,1,0,0:0:0:0:
192,192,57628,1,0,0:0:0:0:
192,192,57828,1,0,0:0:0:0:
320,192,57828,1,0,0:0:0:0:
192,192,58028,1,0,0:0:0:0:
320,192,58028,1,0,0:0:0:0:
64,192,58228,1,0,0:0:0:0:
448,192,58228,1,0,0:0:0:0:
192,192,58628,1,0,0:0:0:0:
320,192,58628,1,0,0:0:0:0:
64,192,58828,128,0,59228:0:0:0:0:
448,192,58828,128,0,59228:0:0:0:0:
192,192,59228,1,0,0:0:0:0:
320,192,59228,1,0,0:0:0:0:
64,192,59628,1,0,0:0:0:0:
448,192,59628,1,0,0:0:0:0:
64,192,60028,128,0,60228:0:0:0:0:
320,192,60028,128,0,60228:0:0:0:0:
64,192,60428,1,0,0:0:0:0:
192,192,60428,1,0,0:0:0:0:
64,192,60828,1,0,0:0:0:0:
320,192,60828,1,0,0:0:0:0:
64,192,61228,1,0,0:0:0:0:
448,192,61228,1,0,0:0:0:0:
192,192,61628,128,0,61828:0:0:0:0:
448,192,61628,128,0,61828:0:0:0:0:
448,192,62028,1,0,0:0:0:0:
320,192,62028,1,0,0:0:0:0:
448,192,62428,1,0,0:0:0:0:
192,192,62428,1,0,0:0:0:0:
448,192,62828,1,0,0:0:0:0:
64,192,62828,1,0,0:0:0:0:
64,192,63228,128,0,63428:0:0:0:0:
320,192,63228,128,0,63428:0:0:0:0:
64,192,63628,1,0,0:0:0:0:
192,192,63628,1,0,0:0:0:0:
64,192,64028,1,0,0:0:0:0:
320,192,64028,1,0,0:0:0:0:
64,192,64228,1,0,0:0:0:0:
64,192,64428,1,0,0:0:0:0:
448,192,64428,1,0,0:0:0:0:
448,192,64628,1,0,0:0:0:0:
448,192,64828,1,0,0:0:0:0:
192,192,64828,1,0,0:0:0:0:
448,192,65228,1,0,0:0:0:0:
320,192,65228,1,0,0:0:0:0:
320,192,65428,1,0,0:0:0:0:
448,192,65428,1,0,0:0:0:0:
448,192,65628,1,0,0:0:0:0:
192,192,65628,1,0,0:0:0:0:
448,192,66028,128,0,66428:0:0:0:0:
64,192,66028,1,0,0:0:0:0:
64,192,66428,1,0,0:0:0:0:
192,192,66628,1,0,0:0:0:0:
320,192,66828,1,0,0:0:0:0:
448,192,67028,1,0,0:0:0:0:
64,192,67228,128,0,67628:0:0:0:0:
448,192,67228,1,0,0:0:0:0:
448,192,67628,1,0,0:0:0:0:
320,192,67828,1,0,0:0:0:0:
192,192,68028,1,0,0:0:0:0:
64,192,68228,1,0,0:0:0:0:
64,192,68428,1,0,0:0:0:0:
192,192,68428,128,0,68628:0:0:0:0:
320,192,68428,128,0,68628:0:0:0:0:
448,192,68428,1,0,0:0:0:0:
64,192,68828,128,0,69028:0:0:0:0:
448,192,68828,1,0,0:0:0:0:
192,192,69028,1,0,0:0:0:0:
448,192,69228,128,0,69428:0:0:0:0:
64,192,69228,1,0,0:0:0:0:
320,192,69428,1,0,0:0:0:0:
192,192,69628,1,0,0:0:0:0:
64,192,69628,1,0,0:0:0:0:
320,192,69828,1,0,0:0:0:0:
448,192,69828,1,0,0:0:0:0:
64,192,70028,1,0,0:0:0:0:
192,192,70028,1,0,0:0:0:0:
192,192,70228,1,0,0:0:0:0:
320,192,70228,1,0,0:0:0:0:
192,192,70428,128,0,70628:0:0:0:0:
320,192,70428,128,0,70628:0:0:0:0:
192,192,70828,1,0,0:0:0:0:
320,192,70828,1,0,0:0:0:0:
320,192,72028,1,0,0:0:0:0:
64,192,72428,1,0,0:0:0:0:
320,192,73028,1,0,0:0:0:0:
448,192,73228,1,0,0:0:0:0:
192,192,73628,1,0,0:0:0:0:
448,192,74028,1,0,0:0:0:0:
192,192,74628,1,0,0:0:0:0:
64,192,74828,1,0,0:0:0:0:
64,192,75228,1,0,0:0:0:0:
448,192,75628,1,0,0:0:0:0:
448,192,76228,1,0,0:0:0:0:
64,192,76428,1,0,0:0:0:0:
448,192,76828,1,0,0:0:0:0:
64,192,77228,1,0,0:0:0:0:
64,192,77828,5,0,0:0:0:0:
448,192,78028,1,0,0:0:0:0:
64,192,78428,5,0,0:0:0:0:
192,192,78428,1,0,0:0:0:0:
320,192,78428,1,0,0:0:0:0:
448,192,78428,1,0,0:0:0:0:
64,192,78828,1,0,0:0:0:0:
192,192,78828,1,0,0:0:0:0:
320,192,78828,1,0,0:0:0:0:
448,192,78828,1,0,0:0:0:0:
64,192,79228,1,0,0:0:0:0:
192,192,79228,1,0,0:0:0:0:
320,192,79228,1,0,0:0:0:0:
448,192,79228,1,0,0:0:0:0:
64,192,79628,1,0,0:0:0:0:
192,192,79628,1,0,0:0:0:0:
448,192,79628,1,0,0:0:0:0:
320,192,79628,1,0,0:0:0:0:
64,192,80028,1,0,0:0:0:0:
192,192,80028,1,0,0:0:0:0:
320,192,80028,1,0,0:0:0:0:
448,192,80028,1,0,0:0:0:0:
64,192,80228,1,0,0:0:0:0:
192,192,80228,1,0,0:0:0:0:
320,192,80228,1,0,0:0:0:0:
448,192,80228,1,0,0:0:0:0:
64,192,80428,1,0,0:0:0:0:
192,192,80428,1,0,0:0:0:0:
320,192,80428,1,0,0:0:0:0:
448,192,80428,1,0,0:0:0:0:
64,192,80628,1,0,0:0:0:0:
192,192,80628,1,0,0:0:0:0:
320,192,80628,1,0,0:0:0:0:
448,192,80628,1,0,0:0:0:0:
64,192,80828,1,0,0:0:0:0:
192,192,80828,1,0,0:0:0:0:
320,192,80828,1,0,0:0:0:0:
448,192,80828,1,0,0:0:0:0:
64,192,81028,1,0,0:0:0:0:
192,192,81028,1,0,0:0:0:0:
448,192,81028,1,0,0:0:0:0:
320,192,81028,1,0,0:0:0:0:
64,192,81228,1,0,0:0:0:0:
192,192,81228,1,0,0:0:0:0:
320,192,81228,1,0,0:0:0:0:
448,192,81228,1,0,0:0:0:0:
64,192,81428,1,0,0:0:0:0:
192,192,81428,1,0,0:0:0:0:
320,192,81428,1,0,0:0:0:0:
448,192,81428,1,0,0:0:0:0:
64,192,81628,1,0,0:0:0:0:
192,192,81628,1,0,0:0:0:0:
320,192,81628,1,0,0:0:0:0:
448,192,81628,1,0,0:0:0:0:
448,192,83628,128,0,83828:0:0:0:0:
64,192,83628,128,0,83828:0:0:0:0:
320,192,83828,128,0,84028:0:0:0:0:
192,192,83828,128,0,84028:0:0:0:0:
448,192,84028,128,0,84428:0:0:0:0:
64,192,84028,128,0,84428:0:0:0:0:
64,192,84828,1,0,0:0:0:0:
192,192,84828,1,0,0:0:0:0:
320,192,84928,1,0,0:0:0:0:
448,192,84928,1,0,0:0:0:0:
320,192,85228,1,0,0:0:0:0:
448,192,85228,1,0,0:0:0:0:
192,192,85328,1,0,0:0:0:0:
64,192,85328,1,0,0:0:0:0:
192,192,85628,128,0,85828:0:0:0:0:
64,192,85628,128,0,85828:0:0:0:0:
320,192,85828,128,0,86028:0:0:0:0:
448,192,85828,128,0,86028:0:0:0:0:
64,192,86028,1,0,0:0:0:0:
192,192,86028,1,0,0:0:0:0:
320,192,86228,1,0,0:0:0:0:
448,192,86228,1,0,0:0:0:0:
64,192,86428,1,0,0:0:0:0:
192,192,86428,1,0,0:0:0:0:
320,192,86528,1,0,0:0:0:0:
448,192,86528,1,0,0:0:0:0:
320,192,86828,1,0,0:0:0:0:
448,192,86828,1,0,0:0:0:0:
192,192,86928,1,0,0:0:0:0:
64,192,86928,1,0,0:0:0:0:
320,192,87228,1,0,0:0:0:0:
448,192,87228,1,0,0:0:0:0:
320,192,87428,1,0,0:0:0:0:
448,192,87428,1,0,0:0:0:0:
320,192,87628,1,0,0:0:0:0:
448,192,87628,1,0,0:0:0:0:
192,192,88028,1,0,0:0:0:0:
64,192,88028,1,0,0:0:0:0:
320,192,88128,1,0,0:0:0:0:
448,192,88128,1,0,0:0:0:0:
64,192,88428,1,0,0:0:0:0:
192,192,88428,1,0,0:0:0:0:
320,192,88528,1,0,0:0:0:0:
448,192,88528,1,0,0:0:0:0:
64,192,88828,1,0,0:0:0:0:
192,192,88828,1,0,0:0:0:0:
192,192,89028,1,0,0:0:0:0:
320,192,89028,1,0,0:0:0:0:
320,192,89228,1,0,0:0:0:0:
448,192,89228,1,0,0:0:0:0:
192,192,89428,1,0,0:0:0:0:
320,192,89428,1,0,0:0:0:0:
320,192,89628,1,0,0:0:0:0:
448,192,89628,1,0,0:0:0:0:
192,192,89728,1,0,0:0:0:0:
64,192,89728,1,0,0:0:0:0:
320,192,90028,1,0,0:0:0:0:
448,192,90028,1,0,0:0:0:0:
192,192,90128,1,0,0:0:0:0:
64,192,90128,1,0,0:0:0:0:
64,192,90428,128,0,90628:0:0:0:0:
192,192,90428,128,0,90628:0:0:0:0:
320,192,90828,1,0,0:0:0:0:
448,192,90828,1,0,0:0:0:0:
192,192,91028,1,0,0:0:0:0:
64,192,91028,1,0,0:0:0:0:
64,192,91228,1,0,0:0:0:0:
192,192,91228,1,0,0:0:0:0:
320,192,91328,1,0,0:0:0:0:
448,192,91328,1,0,0:0:0:0:
320,192,91628,1,0,0:0:0:0:
448,192,91628,1,0,0:0:0:0:
192,192,91728,1,0,0:0:0:0:
64,192,91728,1,0,0:0:0:0:
192,192,92028,1,0,0:0:0:0:
320,192,92028,1,0,0:0:0:0:
64,192,92228,1,0,0:0:0:0:
448,192,92228,1,0,0:0:0:0:
192,192,92428,1,0,0:0:0:0:
320,192,92428,1,0,0:0:0:0:
64,192,92628,1,0,0:0:0:0:
448,192,92628,1,0,0:0:0:0:
192,192,92828,1,0,0:0:0:0:
320,192,92828,1,0,0:0:0:0:
64,192,92928,1,0,0:0:0:0:
192,192,93228,1,0,0:0:0:0:
320,192,93228,1,0,0:0:0:0:
448,192,93328,1,0,0:0:0:0:
64,192,93628,1,0,0:0:0:0:
64,192,93828,1,0,0:0:0:0:
64,192,94028,1,0,0:0:0:0:
64,192,94228,1,0,0:0:0:0:
192,192,94428,1,0,0:0:0:0:
320,192,94428,1,0,0:0:0:0:
448,192,94528,1,0,0:0:0:0:
320,192,94528,1,0,0:0:0:0:
192,192,94828,1,0,0:0:0:0:
320,192,94828,1,0,0:0:0:0:
64,192,94928,1,0,0:0:0:0:
192,192,94928,1,0,0:0:0:0:
192,192,95228,1,0,0:0:0:0:
320,192,95428,1,0,0:0:0:0:
448,192,95628,128,0,95828:0:0:0:0:
320,192,95828,1,0,0:0:0:0:
192,192,95828,1,0,0:0:0:0:
64,192,95828,1,0,0:0:0:0:
448,192,96028,128,0,96428:0:0:0:0:
320,192,96028,128,0,96228:0:0:0:0:
192,192,96028,128,0,96228:0:0:0:0:
64,192,96028,128,0,96428:0:0:0:0:
192,192,96828,1,0,0:0:0:0:
320,192,96828,1,0,0:0:0:0:
64,192,97228,1,0,0:0:0:0:
448,192,97228,1,0,0:0:0:0:
64,192,97628,1,0,0:0:0:0:
448,192,97628,1,0,0:0:0:0:
