osu file format v5

[General]
AudioFilename: Rammstein - Final fantasy X.mp3
AudioLeadIn: 0
PreviewTime: -1
Countdown: 1
SampleSet: Normal
StackLeniency: 0.7
Mode: 0
LetterboxInBreaks: 1

[Metadata]
Title:Other World Final Fantasy X
Artist:Rammstein
Creator:pepe159
Version:Easy
Source:
Tags:

[Difficulty]
HPDrainRate:4
CircleSize:4
OverallDifficulty:4
SliderMultiplier:1.4
SliderTickRate:2

[Events]
//Background and Video events
0,0,"RIP van winkle.jpg"
//Break Periods
2,70684,85380
2,105678,111364
2,128338,143607
//Storyboard Layer 0 (Background)
//Storyboard Layer 1 (Failing)
//Storyboard Layer 2 (Passing)
//Storyboard Layer 3 (Foreground)
//Storyboard Sound Samples
//Background Colour Transformations
3,100,163,162,255

[TimingPoints]
5230,860.5,4,1,0,100,1

[HitObjects]
128,96,5230,1,0
192,96,5660,1,0
256,96,6090,1,0
320,256,6951,5,0
288,192,7811,1,0
256,256,8672,1,0
160,192,9532,1,0
416,96,10393,1,0
384,256,11253,1,0
320,256,12006,1,0
288,256,12436,1,0
256,256,12866,1,0
288,160,14121,5,0
416,192,14982,1,0
320,224,15842,1,0
256,224,16308,1,0
384,192,16954,1,0
320,128,17707,5,0
192,96,18567,1,0
320,160,19428,1,0
256,160,19858,1,0
256,160,21149,1,0
128,192,22009,1,0
288,192,22870,1,0
224,192,23300,1,0
352,160,24591,1,0
192,192,25451,1,0
128,96,26312,1,0
256,192,26742,12,0,29324
256,160,30041,5,0
288,224,30901,1,0
352,256,31331,1,0
416,224,31762,1,0
96,160,32873,2,0,B|352:288,1,280
352,160,35992,1,0
224,192,36925,1,0
320,160,37713,1,0
224,224,38646,1,0
416,128,39757,6,0,B|128:160,1,280
128,128,42876,1,0
224,160,43737,1,0
320,224,44597,5,0
416,256,45673,1,0
384,192,46318,1,4
352,256,47107,1,0
288,192,48039,1,0
256,288,48900,1,0
192,192,49760,1,0
256,64,50621,1,0
288,192,51481,1,0
256,64,52342,1,0
256,192,53202,1,0
288,160,53633,1,0
320,128,54063,1,0
256,192,54923,1,0
224,128,56573,5,0
224,160,56752,1,0
224,192,56967,1,0
256,192,57182,1,0
256,160,57397,1,0
256,128,57612,1,0
96,288,58365,5,0
224,224,59154,1,0
352,128,59979,1,0
64,96,62023,2,0,B|320:224,1,280
288,96,65178,1,0
256,256,66002,5,0
288,128,66970,1,0
288,192,67723,1,0
160,96,68799,2,0,B|416:224,1,280
320,352,85830,5,0
256,192,86547,12,0,88160
320,224,89128,5,0
256,192,89989,12,0,91817
352,160,92714,5,0
256,192,93431,12,0,98594
320,96,99454,5,0
256,192,100315,1,0
320,96,101175,1,0
320,224,102036,1,0
352,160,102896,1,0
224,160,103757,1,0
288,96,104617,1,0
288,160,105478,1,0
256,128,112684,5,0
384,224,114083,1,0
288,160,114800,1,0
352,224,115589,1,0
320,192,116449,1,0
288,160,117095,1,0
224,96,117740,1,0
192,192,120106,5,0
288,128,120680,1,0
352,32,121254,1,0
320,192,123441,5,0
224,128,124122,1,0
160,32,124839,1,0
160,192,126883,5,0
288,128,127528,1,0
352,32,128138,1,0
288,160,144057,1,0
128,224,144846,1,0
256,192,145706,1,0
320,160,146136,1,0
384,160,146567,1,0
96,96,147642,2,0,B|320:288,1,280
192,224,150797,1,0
320,192,151801,1,0
192,160,152590,1,0
256,160,153020,1,0
320,160,153451,1,0
64,96,154526,2,0,B|320:224,1,280
416,96,157681,1,0
320,128,158542,1,0
224,160,159474,1,0
160,160,159904,1,0
96,160,160335,1,0
384,32,161410,2,0,B|160:224,1,280
352,96,164530,1,0
288,160,165498,1,0
192,160,166358,1,0
256,128,166788,1,0
288,192,167219,1,0
448,320,168294,2,0,B|192:192,1,280
