osu file format v13

[General]
AudioFilename: Los.mp3
AudioLeadIn: 0
PreviewTime: 31691
Countdown: 0
SampleSet: Normal
StackLeniency: 0.7
Mode: 0
LetterboxInBreaks: 0
WidescreenStoryboard: 0

[Editor]
Bookmarks: 7983,15725,23467,31209,46693,77661,93145,108629,131854,139596,147338
DistanceSpacing: 1.2
BeatDivisor: 4
GridSize: 32
TimelineZoom: 0.6999999

[Metadata]
Title:Los
TitleUnicode:Los
Artist:Rammstein
ArtistUnicode:Rammstein
Creator:Sieg
Version:Normal
Source:
Tags:reise industrial rock cut version
BeatmapID:571139
BeatmapSetID:235551

[Difficulty]
HPDrainRate:3
CircleSize:3
OverallDifficulty:3
ApproachRate:4
SliderMultiplier:1.4
SliderTickRate:2

[Events]
//Background and Video events
0,0,"bg.jpg",0,0
//Break Periods
2,77859,89887
//Storyboard Layer 0 (Background)
//Storyboard Layer 1 (Fail)
//Storyboard Layer 2 (Pass)
//Storyboard Layer 3 (Foreground)
//Storyboard Sound Samples

[TimingPoints]
240,483.870967741935,4,1,1,40,1,0
31207,-100,4,1,1,60,0,0
91207,-100,4,1,1,20,0,0
91449,-100,4,1,1,25,0,0
91691,-100,4,1,1,30,0,0
91933,-100,4,1,1,35,0,0
92175,-100,4,1,1,40,0,0
92417,-100,4,1,1,45,0,0
92659,-100,4,1,1,50,0,0
92901,-100,4,1,1,55,0,0
93143,-100,4,1,1,60,0,0
147336,-100,4,1,1,40,0,0

[Colours]
Combo1 : 72,60,50
Combo2 : 85,110,80
Combo3 : 80,37,40
Combo4 : 60,69,77

[HitObjects]
494,237,7981,38,0,L|505:149,1,70,0|0,0:0|2:0,0:0:0:0:
503,83,8465,2,0,P|451:38|383:46,1,140,0|0,0:0|0:0,0:0:0:0:
289,186,9433,1,0,0:0:0:0:
194,325,9917,6,0,P|126:333|75:289,1,140,0|0,0:0|0:0,0:0:0:0:
151,253,10643,2,0,P|177:189|148:127,1,140,0|0,2:0|2:0,0:0:0:0:
94,192,11369,1,0,0:0:0:0:
246,261,11852,6,0,P|286:266|313:282,1,70,0|0,0:0|2:0,0:0:0:0:
388,314,12336,2,0,B|409:283|388:246|388:240|366:205|390:172,1,140,0|0,0:0|0:0,0:0:0:0:
283,45,13304,1,0,0:0:0:0:
115,36,13788,6,0,P|140:78|137:106,1,70,0|0,0:0|2:0,0:0:0:0:
114,178,14272,2,0,B|93:209|114:246|113:251|136:287|112:320,1,140,0|0,0:0|0:0,0:0:0:0:
281,342,15239,1,0,0:0:0:0:
256,175,15723,6,0,L|242:96,1,70,0|0,0:0|2:0,0:0:0:0:
319,69,16207,2,0,L|347:208,1,140,0|0,0:0|0:0,0:0:0:0:
484,302,17175,1,0,0:0:0:0:
316,328,17659,6,0,P|252:352|184:327,1,140,0|0,0:0|0:0,0:0:0:0:
122,275,18385,2,0,L|47:289,1,70,0|0,2:0|0:0,0:0:0:0:
35,121,19110,1,0,0:0:0:0:
187,50,19594,6,0,L|262:36,1,70,0|0,0:0|2:0,0:0:0:0:
259,121,20078,2,0,L|399:92,1,140,0|0,0:0|0:0,0:0:0:0:
487,234,21046,1,0,0:0:0:0:
362,346,21530,6,0,P|303:303|289:222,1,140,0|0,0:0|0:0,0:0:0:0:
208,272,22256,2,0,P|190:301|157:319,1,70,0|0,2:0|0:0,0:0:0:0:
76,171,22981,1,0,0:0:0:0:
198,55,23465,6,0,L|267:73,1,70,0|0,0:0|2:0,0:0:0:0:
346,98,23949,2,0,P|296:154|220:140,1,140,0|0,0:0|0:0,0:0:0:0:
80,86,24917,1,0,0:0:0:0:
76,254,25401,6,0,L|62:328,1,70,0|0,0:0|2:0,0:0:0:0:
140,356,25885,2,0,P|195:343|217:245,1,140,0|0,0:0|0:0,0:0:0:0:
229,103,26852,1,0,0:0:0:0:
383,36,27336,6,0,L|463:46,1,70,0|0,0:0|2:0,0:0:0:0:
441,128,27820,2,0,L|525:155,2,70,0|0|0,0:0|0:0|0:0,0:0:0:0:
362,157,28546,1,0,0:0:0:0:
305,219,28788,2,0,L|331:296,1,70,0|0,0:0|0:0,0:0:0:0:
274,351,29272,1,4,0:0:0:0:
98,66,30239,6,0,P|58:81|41:125,1,70,8|8,0:0|0:0,0:0:0:0:
113,150,30723,2,0,P|153:135|170:91,1,70,8|8,0:0|0:0,0:0:0:0:
176,29,31207,1,4,0:0:0:0:
324,108,31691,6,0,B|345:139|324:176|324:181|302:217|326:250,2,140,8|0|8,0:0|0:0|0:0,0:0:0:0:
305,25,32901,2,0,P|271:36|246:66,1,70,0|0,2:0|0:0,0:0:0:0:
163,206,33627,6,0,B|142:237|163:274|162:279|185:315|161:348,2,140,8|0|8,0:0|0:0|0:0,0:0:0:0:
182,123,34836,2,0,P|216:134|241:164,1,70,0|0,2:0|0:0,0:0:0:0:
293,317,35562,6,0,L|372:339,1,70,8|0,0:0|2:0,0:0:0:0:
409,267,36046,2,0,P|476:238|493:160,1,140,0|8,0:0|0:0,0:0:0:0:
411,180,36772,2,0,L|415:110,1,70,0|0,2:0|0:0,0:0:0:0:
264,33,37498,6,0,L|260:103,1,70,8|0,0:0|2:0,0:0:0:0:
256,186,37981,2,0,B|277:217|256:254|257:259|234:295|258:328,2,140,0|8|0,0:0|0:0|0:0,0:0:0:0:
148,56,39433,6,0,P|76:71|44:143,2,140,8|0|8,0:0|0:0|0:0,0:0:0:0:
129,141,40643,2,0,L|110:208,1,70,0|0,2:0|0:0,0:0:0:0:
230,327,41369,6,0,L|269:175,2,140,8|0|8,0:0|0:0|0:0,0:0:0:0:
148,347,42578,2,0,P|112:350|80:336,1,70,0|0,2:0|0:0,0:0:0:0:
111,171,43304,6,0,P|147:168|179:182,1,70,8|0,0:0|2:0,0:0:0:0:
250,222,43788,2,0,P|290:240|381:194,1,140,0|8,0:0|0:0,0:0:0:0:
305,156,44514,2,0,L|296:82,1,70,0|0,2:0|0:0,0:0:0:0:
455,33,45239,6,0,L|464:107,1,70,8|0,0:0|2:0,0:0:0:0:
460,186,45723,2,0,P|432:270|457:322,1,140,0|8,0:0|0:0,0:0:0:0:
283,337,46691,6,0,P|249:313|209:312,1,70,4|0,0:0|2:0,0:0:0:0:
140,334,47175,2,0,P|75:351|12:296,1,140,8|0,0:0|0:0,0:0:0:0:
108,169,48143,1,8,0:0:0:0:
270,213,48627,6,0,L|339:169,1,70,0|0,0:0|2:0,0:0:0:0:
397,224,49110,2,0,P|411:157|368:101,1,140,8|0,0:0|0:0,0:0:0:0:
210,51,50078,1,8,0:0:0:0:
63,133,50562,6,0,L|19:212,1,70,0|0,0:0|2:0,0:0:0:0:
109,220,51046,2,0,L|65:365,1,140,8|0,0:0|0:0,0:0:0:0:
234,328,52014,1,8,0:0:0:0:
401,335,52498,6,0,P|438:326|468:283,1,70,0|0,0:0|2:0,0:0:0:0:
395,250,52981,2,0,B|374:219|395:182|394:177|417:141|393:108,1,140,8|0,0:0|0:0,0:0:0:0:
256,21,53949,1,8,0:0:0:0:
256,188,54433,5,0,0:0:0:0:
256,356,54917,2,0,P|191:354|138:298,1,140,8|0,0:0|0:0,0:0:0:0:
111,137,55885,1,8,0:0:0:0:
255,50,56369,6,0,L|335:32,1,70,0|0,0:0|2:0,0:0:0:0:
325,118,56852,2,0,L|405:100,2,70,8|0|0,0:0|2:0|0:0,0:0:0:0:
182,208,57820,1,8,0:0:0:0:
88,68,58304,6,0,P|51:77|21:120,1,70,0|0,0:0|2:0,0:0:0:0:
94,153,58788,2,0,B|115:184|94:221|95:226|72:262|96:295,1,140,8|0,0:0|0:0,0:0:0:0:
256,326,59756,1,8,0:0:0:0:
256,158,60239,5,0,0:0:0:0:
368,32,60723,2,0,L|507:55,1,140,8|0,0:0|0:0,0:0:0:0:
479,221,61691,1,8,0:0:0:0:
319,167,62175,6,0,L|240:155,1,70,0|0,0:0|2:0,0:0:0:0:
165,158,62659,2,0,P|125:215|143:302,1,140,8|0,0:0|0:0,0:0:0:0:
279,361,63627,1,8,0:0:0:0:
420,271,64110,6,0,P|454:296|497:292,1,70,0|0,0:0|2:0,0:0:0:0:
482,213,64594,2,0,P|415:184|355:215,1,140,8|0,0:0|0:0,0:0:0:0:
256,345,65562,1,8,0:0:0:0:
215,182,66046,6,0,L|207:93,1,70,0|0,0:0|2:0,0:0:0:0:
241,34,66530,2,0,P|172:36|125:92,1,140,8|0,0:0|0:0,0:0:0:0:
116,253,67498,2,0,L|44:240,1,70,8|0,0:0|2:0,0:0:0:0:
55,324,67981,6,0,L|127:337,1,70,0|0,0:0|2:0,0:0:0:0:
208,339,68465,2,0,P|286:355|364:317,1,140,8|0,0:0|0:0,0:0:0:0:
270,182,69433,1,8,0:0:0:0:
160,54,69917,6,0,P|186:28|227:22,1,70,4|0,0:0|2:0,0:0:0:0:
298,44,70401,2,0,P|374:43|429:106,1,140,8|0,0:0|0:0,0:0:0:0:
495,233,71369,1,8,0:0:0:0:
367,342,71852,6,0,L|352:268,1,70,0|0,0:0|2:0,0:0:0:0:
325,193,72336,2,0,B|303:168|325:137|325:132|350:95|328:57,1,140,8|0,0:0|0:0,0:0:0:0:
165,96,73304,1,8,0:0:0:0:
246,243,73788,5,0,0:0:0:0:
104,333,74272,2,0,B|84:298|109:261|109:256|131:225|109:200,1,140,8|0,0:0|0:0,0:0:0:0:
47,45,75239,1,8,0:0:0:0:
215,45,75723,6,0,P|269:49|287:65,1,70,0|0,0:0|2:0,0:0:0:0:
235,129,76207,2,0,P|208:215|218:268,1,140,8|0,0:0|0:0,0:0:0:0:
371,327,77175,1,8,0:0:0:0:
445,176,77659,1,4,2:1:0:0:
70,121,91207,6,0,L|86:50,2,70,8|8|8,0:0|0:0|0:0,0:0:0:0:
114,192,91933,1,8,0:0:0:0:
167,256,92175,2,0,L|151:339,2,70,8|8|8,0:0|0:0|0:0,0:0:0:0:
227,197,92901,1,8,0:0:0:0:
270,125,93143,6,0,P|296:71|393:65,2,140,4|8|0,0:0|0:0|0:0,0:0:0:0:
275,292,94594,1,8,0:0:0:0:
351,326,94836,2,0,P|389:333|433:309,1,70,0|0,2:0|0:0,0:0:0:0:
494,172,95562,6,0,L|503:91,1,70,8|0,0:0|2:0,0:0:0:0:
442,42,96046,2,0,P|373:35|327:91,1,140,0|8,0:0|0:0,0:0:0:0:
333,167,96772,2,0,L|324:248,1,70,0|0,2:0|0:0,0:0:0:0:
197,346,97498,6,0,P|119:352|71:303,2,140,8|0|8,0:0|0:0|0:0,0:0:0:0:
151,275,98707,2,0,P|123:243|83:230,1,70,0|0,2:0|0:0,0:0:0:0:
12,87,99433,5,8,0:0:0:0:
179,74,99917,2,0,L|243:29,2,70,0|0|8,0:0|2:0|0:0,0:0:0:0:
127,140,100643,1,0,2:0:0:0:
58,189,100885,1,0,0:0:0:0:
164,318,101369,6,0,P|236:331|288:285,2,140,8|0|8,0:0|0:0|0:0,0:0:0:0:
214,250,102578,2,0,L|224:171,1,70,0|0,2:0|0:0,0:0:0:0:
300,31,103304,6,0,P|372:18|424:64,2,140,8|0|8,0:0|0:0|0:0,0:0:0:0:
350,99,104514,2,0,L|360:178,1,70,0|0,2:0|0:0,0:0:0:0:
368,336,105239,6,0,L|297:351,1,70,8|0,0:0|2:0,0:0:0:0:
245,285,105723,2,0,P|181:256|111:278,1,140,0|8,0:0|0:0,0:0:0:0:
32,284,106449,2,0,L|11:209,1,70,0|0,2:0|0:0,0:0:0:0:
145,112,107175,5,8,0:0:0:0:
300,179,107659,2,0,P|339:195|363:223,2,70,0|0|8,0:0|2:0|0:0,0:0:0:0:
138,137,108627,6,0,P|101:146|71:189,1,70,0|0,0:0|2:0,0:0:0:0:
144,222,109110,2,0,B|165:253|144:290|145:295|122:331|146:364,1,140,8|0,0:0|0:0,0:0:0:0:
256,234,110078,1,8,0:0:0:0:
370,357,110562,6,0,B|390:331|367:295|368:290|347:253|368:222,1,140,0|8,0:0|0:0,0:0:0:0:
432,167,111288,2,0,P|407:144|369:136,2,70,0|0|0,2:0|0:0|2:0,0:0:0:0:
473,242,112014,1,8,0:0:0:0:
509,78,112498,6,0,L|476:11,1,70,0|0,0:0|2:0,0:0:0:0:
396,36,112981,2,0,B|369:66|329:54|329:54|304:84|269:78,1,140,8|0,0:0|0:0,0:0:0:0:
104,52,113949,1,8,0:0:0:0:
17,195,114433,6,0,P|28:262|87:301,1,140,0|8,0:0|0:0,0:0:0:0:
98,216,115159,2,0,P|166:223|218:178,1,140,0|0,2:0|2:0,0:0:0:0:
141,145,115885,1,8,0:0:0:0:
276,46,116369,5,0,0:0:0:0:
442,30,116852,2,0,B|462:177,1,140,8|0,0:0|0:0,0:0:0:0:
459,337,117820,1,8,0:0:0:0:
317,246,118304,6,0,P|281:234|244:241,1,70,0|0,0:0|2:0,0:0:0:0:
273,319,118788,2,0,P|212:358|129:351,1,140,8|0,0:0|0:0,0:0:0:0:
20,245,119756,1,8,0:0:0:0:
3,78,120239,6,0,L|36:11,1,70,0|0,0:0|2:0,0:0:0:0:
116,36,120723,2,0,B|143:66|183:54|183:54|208:84|243:78,1,140,8|0,0:0|0:0,0:0:0:0:
408,98,121691,1,8,0:0:0:0:
282,209,122175,6,0,L|202:232,1,70,0|0,0:0|2:0,0:0:0:0:
179,151,122659,2,0,L|87:147,2,70,8|0|0,0:0|2:0|0:0,0:0:0:0:
347,154,123627,1,8,0:0:0:0:
494,235,124110,6,0,L|486:314,1,70,4|0,0:0|2:0,0:0:0:0:
403,291,124594,2,0,P|355:333|271:323,1,140,8|0,0:0|0:0,0:0:0:0:
127,264,125562,1,8,0:0:0:0:
255,155,126046,6,0,P|252:122|225:86,1,70,0|0,0:0|2:0,0:0:0:0:
148,85,126530,2,0,P|100:43|16:53,1,140,8|0,0:0|0:0,0:0:0:0:
47,215,127498,1,8,0:0:0:0:
168,330,127981,6,0,P|201:348|252:338,1,70,0|0,0:0|2:0,0:0:0:0:
222,263,128465,2,0,P|289:281|317:355,1,140,8|0,0:0|0:0,0:0:0:0:
457,243,129433,1,8,0:0:0:0:
322,141,129917,5,0,0:0:0:0:
269,206,130159,2,0,P|227:238|194:238,2,70,8|0|8,0:0|0:0|0:0,0:0:0:0:
199,157,130885,2,0,P|146:163|118:147,2,70,0|8|8,0:0|0:0|0:0,0:0:0:0:
165,79,131610,1,8,0:0:0:0:
103,21,131852,1,4,0:0:0:0:
274,32,132336,6,0,L|366:44,1,70,8|0,0:0|2:0,0:0:0:0:
426,52,132820,2,0,P|449:88|427:181,1,140,0|8,0:0|0:0,0:0:0:0:
384,249,133546,2,0,P|367:287|382:332,1,70,0|0,2:0|0:0,0:0:0:0:
204,334,134272,6,0,P|133:359|60:345,2,140,8|0|8,0:0|0:0|0:0,0:0:0:0:
117,189,135723,1,4,0:0:0:0:
268,116,136207,6,0,P|285:151|281:193,1,70,8|0,0:0|2:0,0:0:0:0:
341,243,136691,2,0,P|277:267|212:220,1,140,0|8,0:0|0:0,0:0:0:0:
141,200,137417,2,0,P|108:185|61:191,1,70,0|0,2:0|0:0,0:0:0:0:
45,20,138143,6,0,P|118:59|188:51,1,140,8|0,0:0|0:0,0:0:0:0:
256,40,138869,1,8,0:0:0:0:
338,56,139110,2,0,P|407:55|467:20,1,140,8|4,0:0|0:0,0:0:0:0:
430,184,140078,6,0,B|451:215|430:252|431:257|408:293|427:319,2,140,8|0|8,0:0|0:0|0:0,0:0:0:0:
365,130,141288,2,0,P|334:146|318:191,1,70,0|0,2:0|0:0,0:0:0:0:
236,323,142014,6,0,P|167:315|119:247,2,140,8|0|8,0:0|0:0|0:0,0:0:0:0:
281,161,143465,1,0,0:0:0:0:
391,34,143949,6,0,P|460:42|508:110,2,140,8|0|8,0:0|0:0|0:0,0:0:0:0:
306,36,145159,2,0,L|231:47,1,70,0|0,2:0|0:0,0:0:0:0:
73,87,145885,6,0,P|21:133|20:201,1,140,8|8,0:0|0:0,0:0:0:0:
97,167,146610,1,8,0:0:0:0:
163,217,146852,2,0,L|238:206,1,70,8|8,0:0|0:0,0:0:0:0:
296,152,147336,1,4,0:0:0:0:
