osu file format v14

[General]
AudioFilename: ff hd.mp3
AudioLeadIn: 0
PreviewTime: 39519
Countdown: 0
SampleSet: Normal
StackLeniency: 0.3
Mode: 0
LetterboxInBreaks: 1
WidescreenStoryboard: 1

[Editor]
DistanceSpacing: 0.9
BeatDivisor: 4
GridSize: 4
TimelineZoom: 2.3

[Metadata]
Title:Feuer frei!
TitleUnicode:Feuer frei!
Artist:Rammstein
ArtistUnicode:Rammstein
Creator:Frey
Version:Normal
Source:
Tags:PeterEU Peter Mutter industrial metal NDH rock German cut version fire free
BeatmapID:1854469
BeatmapSetID:887102

[Difficulty]
HPDrainRate:4
CircleSize:3
OverallDifficulty:4
ApproachRate:4
SliderMultiplier:1
SliderTickRate:1

[Events]
//Background and Video events
0,0,"rs.jpg",0,0
//Break Periods
//Storyboard Layer 0 (Background)
//Storyboard Layer 1 (Fail)
//Storyboard Layer 2 (Pass)
//Storyboard Layer 3 (Foreground)
//Storyboard Sound Samples

[TimingPoints]
10640,315.955766192733,4,1,1,64,1,0
20750,315.457413249211,4,3,1,64,1,0
20750,-100,4,3,1,64,0,0
39677,-100,4,1,1,60,0,0
40939,-100,4,1,1,66,0,1
51033,-100,4,1,2,71,0,1
51980,-100,4,1,1,66,0,1
56081,-100,4,1,2,71,0,1
57027,-100,4,1,1,66,0,1
60497,-100,4,1,1,66,0,1
61128,-100,4,1,1,60,0,0
69961,307.377049180328,4,1,1,60,1,0
70883,340.522133938706,4,1,1,60,1,0
71223,315.457413249211,4,1,1,60,1,0
73115,-100,4,1,0,64,0,0
73194,-100,4,1,1,64,0,0
73746,-100,4,1,1,60,0,0
75639,-100,4,1,0,64,0,0
75718,-100,4,1,1,64,0,0
76270,-100,4,1,1,60,0,0
78163,-100,4,1,0,64,0,0
78241,-100,4,1,1,64,0,0
78793,-100,4,1,1,60,0,0
80055,-100,4,1,1,62,0,0
80686,-100,4,1,1,64,0,0
81002,-100,4,1,1,66,0,0
81317,-100,4,1,2,71,0,1
82264,-100,4,1,1,66,0,1
83841,-100,4,1,2,71,0,1
84787,-100,4,1,1,66,0,1
91412,-100,4,1,2,71,0,1
92358,-100,4,1,1,66,0,1
93935,-100,4,1,2,71,0,1
94882,-100,4,1,1,66,0,1
111601,-100,4,1,1,60,0,0
119172,-100,4,1,2,70,0,0
120118,-100,4,1,1,60,0,0
121065,-100,4,3,1,64,0,0
121696,-100,4,1,1,60,0,0
123588,-100,4,1,0,64,0,0
123667,-100,4,1,1,64,0,0
124219,-100,4,1,1,60,0,0
126112,-100,4,1,0,64,0,0
126191,-100,4,1,1,64,0,0
126743,-100,4,1,1,60,0,0
128636,-100,4,1,0,64,0,0
128715,-100,4,1,1,64,0,0
129267,-100,4,1,2,70,0,0
130213,-100,4,1,1,60,0,0
130528,-100,4,1,1,62,0,0
131002,-100,4,1,1,64,0,0
131475,-100,4,1,1,66,0,0

[Colours]
Combo1 : 17,254,176
Combo2 : 173,255,95
Combo3 : 255,88,100
Combo4 : 255,94,55

[HitObjects]
340,168,10640,21,4,0:0:0:0:
256,192,10797,12,6,20750,0:1:0:0:
168,104,21380,6,0,P|140:148|132:196,1,100,0|2,0:0|0:2,0:0:0:0:
167,282,22011,1,0,0:0:0:0:
256,308,22327,1,2,0:2:0:0:
345,282,22642,2,0,P|379:190|336:96,1,200
256,116,23589,5,2,0:2:0:0:
212,192,23904,2,0,P|160:192|108:172,1,100,0|2,0:0|0:2,0:0:0:0:
52,112,24535,1,0,0:0:0:0:
96,36,24850,1,2,0:2:0:0:
184,16,25166,2,0,B|296:4|276:56|384:44,1,200,0|0,0:0|0:0,0:0:0:0:
468,32,26112,5,2,0:2:0:0:
456,120,26428,2,0,L|436:240,1,100,0|2,0:0|0:2,0:0:0:0:
424,308,27059,1,0,0:0:0:0:
352,364,27374,1,2,0:2:0:0:
288,296,27690,2,0,B|168:288|212:336|92:328,1,200
16,276,28636,5,2,0:2:0:0:
36,188,28951,2,0,P|76:160|132:160,1,100,0|2,0:0|0:2,0:0:0:0:
196,216,29582,1,0,0:0:0:0:
284,196,29898,2,0,L|268:84,1,100,2|0,0:2|0:0,0:0:0:0:
256,8,30529,1,2,0:2:0:0:
340,44,30844,6,0,P|420:44|472:0,2,150,6|2|2,0:1|0:1|0:2,0:0:0:0:
269,97,32106,2,0,P|219:105|169:108,1,100,0|2,0:0|0:2,0:0:0:0:
184,200,32737,2,0,P|180:249|172:299,1,100,0|2,0:0|0:2,0:0:0:0:
88,328,33368,6,0,P|56:260|68:184,2,150,2|2|2,0:1|0:1|0:2,0:0:0:0:
156,384,34630,2,0,L|272:368,1,100,0|2,0:0|0:2,0:0:0:0:
240,280,35261,2,0,L|339:293,1,100,0|2,0:0|0:2,0:0:0:0:
332,200,35891,6,0,L|480:179,2,150,2|2|2,0:1|0:1|0:2,0:0:0:0:
352,112,37153,1,0,0:0:0:0:
280,60,37469,1,2,0:2:0:0:
195,84,37784,2,0,P|173:127|175:177,1,100,0|2,0:0|0:2,0:0:0:0:
92,208,38415,6,0,L|72:56,2,150,2|2|2,0:1|0:1|0:2,0:0:0:0:
104,296,39677,2,0,P|156:303|216:316,1,100,8|8,0:0|0:0,0:0:0:0:
260,244,40308,2,0,P|308:233|358:227,1,100,8|8,0:0|0:0,0:0:0:0:
400,248,40781,1,8,0:0:0:0:
440,268,40939,6,0,P|476:216|472:172,1,100,6|8,0:0|0:0,0:0:0:0:
460,140,41412,2,0,P|410:133|361:123,1,100,0|2,0:0|0:0,0:0:0:0:
316,112,41885,1,8,0:0:0:0:
247,52,42201,2,0,P|224:95|228:144,1,100,2|8,0:0|0:0,0:0:0:0:
288,212,42832,1,2,0:0:0:0:
264,300,43147,1,8,0:0:0:0:
176,324,43462,6,0,L|156:216,1,100,2|8,0:0|0:0,0:0:0:0:
120,200,43936,2,0,P|56:192|20:160,1,100,0|2,0:0|0:0,0:0:0:0:
12,128,44409,1,8,0:0:0:0:
4,32,44724,2,0,L|112:12,1,100,2|8,0:0|0:0,0:0:0:0:
188,48,45355,1,2,0:0:0:0:
200,136,45671,1,8,0:0:0:0:
276,184,45986,6,0,P|324:156|348:108,1,100,6|8,0:0|0:0,0:0:0:0:
352,72,46459,2,0,L|460:52,1,100,0|2,0:0|0:0,0:0:0:0:
492,72,46932,1,8,0:0:0:0:
508,160,47248,2,0,P|498:209|496:260,1,100,2|8,0:0|0:0,0:0:0:0:
432,324,47879,1,2,0:0:0:0:
408,236,48194,1,8,0:0:0:0:
344,300,48510,6,0,P|296:316|224:316,1,100,2|8,0:0|0:0,0:0:0:0:
224,280,48983,2,0,P|176:264|104:264,1,100,0|2,0:0|0:0,0:0:0:0:
84,268,49456,1,8,0:0:0:0:
16,328,49772,2,0,P|-7:284|-1:235,1,100,2|8,0:0|0:0,0:0:0:0:
40,156,50402,1,2,0:0:0:0:
128,168,50718,1,8,0:0:0:0:
184,96,51033,6,0,B|259:85|259:85|284:92|284:92|336:84,2,150,2|2|8,0:0|0:0|0:0,0:0:0:0:
96,80,52295,2,0,P|80:132|88:188,1,100,2|8,0:0|0:0,0:0:0:0:
112,264,52926,1,2,0:0:0:0:
196,228,53242,1,8,0:0:0:0:
204,140,53557,6,0,L|212:36,1,100,2|8,0:0|0:0,0:0:0:0:
256,36,54030,2,0,L|355:28,1,100,0|2,0:0|0:0,0:0:0:0:
400,24,54503,1,8,0:0:0:0:
472,76,54819,1,2,0:0:0:0:
432,156,55134,1,8,0:0:0:0:
344,164,55450,2,0,P|340:220|360:268,1,100,2|8,0:0|0:0,0:0:0:0:
376,348,56081,6,0,B|320:344|320:344|284:324|284:324|232:320,2,150,2|2|8,0:0|0:0|0:0,0:0:0:0:
468,352,57343,2,0,L|496:252,1,100,2|8,0:0|0:0,0:0:0:0:
468,172,57973,1,2,0:0:0:0:
384,144,58289,1,8,0:0:0:0:
320,79,58604,6,0,P|295:122|296:172,1,100,2|8,0:0|0:0,0:0:0:0:
308,216,59078,2,0,P|313:262|316:324,1,100,0|2,0:0|0:0,0:0:0:0:
280,344,59551,1,8,0:0:0:0:
192,352,59866,2,0,P|156:324|132:256,1,100,2|8,0:0|0:0,0:0:0:0:
124,184,60497,1,2,0:0:0:0:
52,240,60813,1,8,0:0:0:0:
39,152,61128,6,0,P|68:111|128:96,1,100,2|8,0:0|0:0,0:0:0:0:
160,100,61601,2,0,P|240:108|308:80,1,150,2|8,0:0|0:0,0:0:0:0:
384,40,62390,2,0,P|388:108|396:160,1,100,2|8,0:0|0:0,0:0:0:0:
480,116,63021,2,0,P|476:184|468:236,1,100,0|8,0:0|0:0,0:0:0:0:
456,304,63652,6,0,P|388:296|356:264,1,100,2|8,0:0|0:0,0:0:0:0:
336,244,64125,2,0,P|236:240|180:276,1,150,2|8,0:0|0:0,0:0:0:0:
144,340,64914,2,0,L|40:324,1,100,2|8,0:0|0:0,0:0:0:0:
16,240,65544,2,0,L|8:120,1,100,0|8,0:0|0:0,0:0:0:0:
96,164,66175,6,0,P|140:148|180:108,1,100,2|8,0:0|0:0,0:0:0:0:
212,80,66649,2,0,L|222:229,1,150,2|8,0:0|0:0,0:0:0:0:
312,244,67437,2,0,P|322:188|344:140,1,100,2|8,0:0|0:0,0:0:0:0:
428,128,68068,2,0,P|471:164|502:207,1,100,0|8,0:0|0:0,0:0:0:0:
470,286,68699,6,0,P|416:304|363:310,1,100,2|8,0:0|0:0,0:0:0:0:
328,312,69172,2,0,P|284:220|308:160,1,150,2|8,0:0|0:0,0:0:0:0:
336,96,69961,2,0,P|404:92|440:68,2,100,2|8|0,0:0|0:0|0:0,0:0:0:0:
256,52,70883,1,4,0:2:0:0:
168,64,71223,6,0,L|52:76,1,100,2|8,0:0|0:0,0:0:0:0:
28,56,71696,2,0,P|0:128|24:204,1,150,2|8,0:0|0:0,0:0:0:0:
68,272,72484,2,0,L|167:282,1,100,2|8,0:0|0:0,0:0:0:0:
256,292,73115,1,2,0:0:0:0:
256,200,73431,1,8,0:0:0:0:
344,192,73746,6,0,L|460:180,1,100,2|8,0:0|0:0,0:0:0:0:
484,160,74219,2,0,P|512:232|488:308,1,150,2|8,0:0|0:0,0:0:0:0:
420,352,75008,2,0,P|376:320|352:276,1,100,2|8,0:0|0:0,0:0:0:0:
344,192,75639,1,2,0:0:0:0:
256,172,75954,1,8,0:0:0:0:
168,192,76270,6,0,L|160:80,1,100,2|8,0:0|0:0,0:0:0:0:
156,48,76743,2,0,P|104:72|12:56,1,150,2|8,0:0|0:0,0:0:0:0:
0,148,77532,2,0,L|7:247,1,100,2|8,0:0|0:0,0:0:0:0:
16,336,78163,1,2,0:0:0:0:
100,364,78478,1,8,0:0:0:0:
180,320,78793,6,0,P|212:252|208:220,1,100,2|8,0:0|0:0,0:0:0:0:
192,188,79267,2,0,P|192:116|244:52,1,150,2|8,0:0|0:0,0:0:0:0:
324,76,80055,2,0,L|440:60,1,100,2|8,0:0|0:0,0:0:0:0:
500,116,80686,2,0,L|508:176,2,50,8|8|8,0:0|0:0|0:0,0:0:0:0:
412,152,81317,6,0,B|401:227|401:227|408:252|408:252|400:299,2,150,6|2|8,0:0|0:0|0:0,0:0:0:0:
422,61,82579,2,0,P|374:68|337:101,1,100,2|8,0:0|0:0,0:0:0:0:
276,168,83210,1,2,0:0:0:0:
188,184,83525,1,8,0:0:0:0:
100,152,83841,6,0,B|111:227|111:227|104:252|104:252|111:299,2,150,6|2|8,0:0|0:0|0:0,0:0:0:0:
131,67,85103,2,0,P|82:63|38:85,2,100,2|8|2,0:0|0:0|0:0,0:0:0:0:
188,136,86049,1,4,0:2:0:0:
200,224,86364,6,0,P|208:292|216:336,1,100,6|8,0:0|0:0,0:0:0:0:
244,356,86838,2,0,P|308:356|344:336,1,100,0|2,0:0|0:0,0:0:0:0:
360,300,87311,1,8,0:0:0:0:
376,212,87626,2,0,P|425:220|475:225,1,100,2|8,0:0|0:0,0:0:0:0:
480,136,88257,1,2,0:0:0:0:
392,124,88573,1,12,0:0:0:0:
308,152,88888,6,0,P|258:146|208:138,1,100,6|8,0:0|0:0,0:0:0:0:
184,100,89361,2,0,P|108:104|80:132,1,100,0|2,0:0|0:0,0:0:0:0:
64,152,89834,1,8,0:0:0:0:
40,240,90150,2,0,L|48:348,1,100,2|8,0:0|0:0,0:0:0:0:
136,376,90781,1,2,0:0:0:0:
212,324,91096,1,8,0:0:0:0:
128,288,91412,6,0,B|124:216|124:216|108:192|108:192|104:124,2,150,6|2|8,0:0|0:0|0:0,0:0:0:0:
212,324,92674,2,0,P|256:324|312:348,1,100,2|8,0:0|0:0,0:0:0:0:
340,260,93305,1,2,0:0:0:0:
428,236,93620,1,8,0:0:0:0:
500,292,93935,6,0,B|512:236|512:236|500:196|500:196|512:144,2,150,2|2|8,0:0|0:0|0:0,0:0:0:0:
416,324,95197,2,0,L|300:344,1,100,2|8,0:0|0:0,0:0:0:0:
228,356,95828,1,2,0:0:0:0:
212,268,96144,1,12,0:0:0:0:
303,248,96459,6,0,P|306:198|283:155,1,100,6|8,0:0|0:0,0:0:0:0:
248,128,96932,2,0,P|246:71|256:28,1,100,0|2,0:0|0:0,0:0:0:0:
296,8,97405,1,8,0:0:0:0:
380,44,97721,2,0,P|381:100|372:144,1,100,2|12,0:0|0:0,0:0:0:0:
340,228,98352,1,2,0:0:0:0:
260,264,98667,1,12,0:0:0:0:
172,280,98983,6,0,P|122:281|73:272,1,100,6|8,0:0|0:0,0:0:0:0:
40,244,99456,2,0,P|28:188|48:152,1,100,0|2,0:0|0:0,0:0:0:0:
84,124,99929,1,8,0:0:0:0:
176,136,100245,2,0,L|164:32,1,100,2|2,0:0|0:0,0:0:0:0:
256,20,100875,2,0,L|308:28,1,50,8|2,0:0|0:0,0:0:0:0:
348,36,101191,1,2,0:0:0:0:
336,124,101506,6,0,L|324:223,1,100,2|8,0:0|0:0,0:0:0:0:
320,268,101980,2,0,P|256:268|212:288,1,100,0|2,0:0|0:0,0:0:0:0:
188,308,102453,1,8,0:0:0:0:
144,227,102768,2,0,P|94:231|40:208,1,100,2|8,0:0|0:0,0:0:0:0:
108,145,103399,1,2,0:0:0:0:
180,92,103715,1,8,0:0:0:0:
216,173,104030,6,0,L|324:161,1,100,2|8,0:0|0:0,0:0:0:0:
328,120,104503,2,0,P|380:127|432:103,1,100,0|2,0:0|0:0,0:0:0:0:
460,84,104976,1,8,0:0:0:0:
500,164,105292,2,0,L|488:272,1,100,2|8,0:0|0:0,0:0:0:0:
396,272,105923,1,2,0:0:0:0:
364,356,106238,1,8,0:0:0:0:
272,348,106554,6,0,P|224:340|180:312,1,100,2|8,0:0|0:0,0:0:0:0:
160,272,107027,2,0,P|168:224|196:180,1,100,0|2,0:0|0:0,0:0:0:0:
232,156,107500,1,8,0:0:0:0:
320,140,107816,2,0,P|308:64|304:24,1,100,2|8,0:0|0:0,0:0:0:0:
216,56,108446,1,2,0:0:0:0:
128,72,108762,1,8,0:0:0:0:
96,156,109077,6,0,P|108:232|112:272,1,100,2|8,0:0|0:0,0:0:0:0:
120,300,109551,2,0,P|168:280|224:284,1,100,0|2,0:0|0:0,0:0:0:0:
256,300,110024,1,8,0:0:0:0:
296,216,110339,2,0,P|344:236|400:232,1,100,2|8,0:0|0:0,0:0:0:0:
476,208,110970,1,2,0:0:0:0:
444,124,111286,1,8,0:0:0:0:
356,108,111601,6,0,L|248:88,1,100,2|8,0:0|0:0,0:0:0:0:
248,44,112074,2,0,L|100:72,1,150,2|8,0:0|0:0,0:0:0:0:
16,39,112863,2,0,P|7:88|31:131,1,100,2|8,0:0|0:0,0:0:0:0:
116,164,113494,2,0,P|104:240|100:284,1,100,0|8,0:0|0:0,0:0:0:0:
192,276,114125,6,0,P|229:243|237:195,1,100,2|8,0:0|0:0,0:0:0:0:
216,156,114598,2,0,L|372:144,1,150,2|8,0:0|0:0,0:0:0:0:
392,56,115387,2,0,P|444:56|488:88,1,100,2|8,0:0|0:0,0:0:0:0:
504,168,116017,2,0,P|477:212|427:233,1,100,0|8,0:0|0:0,0:0:0:0:
344,240,116648,6,0,L|232:248,1,100,2|8,0:0|0:0,0:0:0:0:
208,276,117122,2,0,P|160:228|172:152,1,150,2|8,0:0|0:0,0:0:0:0:
150,63,117910,2,0,P|199:63|239:91,1,100,2|8,0:0|0:0,0:0:0:0:
320,48,118541,2,0,P|324:94|340:160,1,100,0|8,0:0|0:0,0:0:0:0:
368,232,119172,6,0,B|436:224|436:224|460:204|460:204|532:196,2,150,2|2|8,0:0|0:0|0:0,0:0:0:0:
344,320,120434,2,0,L|245:305,1,100,2|8,0:0|0:0,0:0:0:0:
168,260,121065,2,0,L|120:348,1,100,0|2,0:0|0:2,0:0:0:0:
32,336,121696,6,0,P|8:288|8:240,1,100,2|8,0:0|0:0,0:0:0:0:
18,196,122169,2,0,L|59:34,1,150,2|8,0:0|0:0,0:0:0:0:
148,52,122958,2,0,P|192:68|248:60,1,100,2|8,0:0|0:0,0:0:0:0:
324,16,123588,1,2,0:0:0:0:
412,24,123904,1,8,0:0:0:0:
480,84,124219,6,0,L|488:192,1,100,2|8,0:0|0:0,0:0:0:0:
452,212,124693,2,0,P|376:192|360:128,1,150,2|8,0:0|0:0,0:0:0:0:
368,40,125481,2,0,P|288:32|248:24,1,100,2|8,0:0|0:0,0:0:0:0:
188,68,126112,1,2,0:0:0:0:
196,160,126428,1,8,0:0:0:0:
284,180,126743,6,0,P|280:229|272:279,1,100,2|8,0:0|0:0,0:0:0:0:
252,320,127216,2,0,P|168:316|112:348,1,150,2|8,0:0|0:0,0:0:0:0:
88,260,128005,2,0,P|78:218|72:144,1,100,2|8,0:0|0:0,0:0:0:0:
108,80,128636,1,2,0:0:0:0:
196,68,128951,1,8,0:0:0:0:
256,136,129267,6,0,B|252:196|252:196|260:220|260:220|256:284,2,150,2|2|8,0:0|0:0|0:0,0:0:0:0:
316,68,130528,2,0,L|414:84,1,100,2|8,0:0|0:0,0:0:0:0:
484,144,131159,2,0,P|496:196|496:216,2,50,8|8|8,0:0|0:0|0:0,0:0:0:0:
396,172,131790,5,4,0:0:0:0:
