osu file format v14

[General]
AudioFilename: ff hd.mp3
AudioLeadIn: 0
PreviewTime: 39519
Countdown: 0
SampleSet: Normal
StackLeniency: 0.3
Mode: 0
LetterboxInBreaks: 1
WidescreenStoryboard: 1

[Editor]
DistanceSpacing: 1.1
BeatDivisor: 4
GridSize: 4
TimelineZoom: 1

[Metadata]
Title:Feuer frei!
TitleUnicode:Feuer frei!
Artist:Rammstein
ArtistUnicode:Rammstein
Creator:Frey
Version:Insane
Source:
Tags:PeterEU Peter Mutter industrial metal NDH rock German cut version fire free
BeatmapID:1854468
BeatmapSetID:887102

[Difficulty]
HPDrainRate:6.5
CircleSize:4
OverallDifficulty:7
ApproachRate:9
SliderMultiplier:1.6
SliderTickRate:1

[Events]
//Background and Video events
0,0,"rs.jpg",0,0
//Break Periods
//Storyboard Layer 0 (Background)
//Storyboard Layer 1 (Fail)
//Storyboard Layer 2 (Pass)
//Storyboard Layer 3 (Foreground)
//Storyboard Sound Samples

[TimingPoints]
10640,315.955766192733,4,1,1,64,1,0
20750,315.457413249211,4,3,1,64,1,0
20750,-125,4,3,1,64,0,0
30844,-111.111111111111,4,3,1,64,0,0
39677,-100,4,1,1,60,0,0
40939,-100,4,1,1,66,0,1
51033,-100,4,1,2,71,0,1
51980,-100,4,1,1,66,0,1
56081,-100,4,1,2,71,0,1
57027,-100,4,1,1,66,0,1
60497,-100,4,1,1,66,0,1
61128,-100,4,1,1,60,0,0
69961,307.377049180328,4,1,1,60,1,0
70883,340.522133938706,4,1,1,60,1,0
71223,315.457413249211,4,1,1,60,1,0
73115,-100,4,1,0,64,0,0
73194,-100,4,1,1,64,0,0
73746,-100,4,1,1,60,0,0
75639,-100,4,1,0,64,0,0
75718,-100,4,1,1,64,0,0
76270,-100,4,1,1,60,0,0
78163,-100,4,1,0,64,0,0
78241,-100,4,1,1,64,0,0
78793,-100,4,1,1,60,0,0
80055,-100,4,1,1,62,0,0
80686,-100,4,1,1,64,0,0
81002,-100,4,1,1,66,0,0
81317,-100,4,1,2,71,0,1
82264,-100,4,1,1,66,0,1
83841,-100,4,1,2,71,0,1
84787,-100,4,1,1,66,0,1
91412,-100,4,1,2,71,0,1
92358,-100,4,1,1,66,0,1
93935,-100,4,1,2,71,0,1
94882,-100,4,1,1,66,0,1
111601,-100,4,1,1,60,0,0
119172,-100,4,1,2,70,0,0
120118,-100,4,1,1,60,0,0
121065,-100,4,3,1,64,0,0
121696,-100,4,1,1,60,0,0
123588,-100,4,1,0,64,0,0
123667,-100,4,1,1,64,0,0
124219,-100,4,1,1,60,0,0
126112,-100,4,1,0,64,0,0
126191,-100,4,1,1,64,0,0
126743,-100,4,1,1,60,0,0
128636,-100,4,1,0,64,0,0
128715,-100,4,1,1,64,0,0
129267,-100,4,1,2,70,0,0
130213,-100,4,1,1,60,0,0
130528,-100,4,1,1,62,0,0
131002,-100,4,1,1,64,0,0
131475,-100,4,1,1,66,0,0

[Colours]
Combo1 : 17,254,176
Combo2 : 173,255,95
Combo3 : 255,88,100
Combo4 : 255,94,55

[HitObjects]
340,168,10640,21,4,0:0:0:0:
256,192,10718,12,0,20434,0:0:0:0:
176,236,20750,6,0,P|184:152|192:88,1,128,6|2,0:1|0:2,0:0:0:0:
336,148,21223,2,0,P|328:232|320:296,1,128,0|0,0:0|0:0,0:0:0:0:
236,304,21696,1,2,0:2:0:0:
150,333,21854,1,0,0:0:0:0:
52,252,22011,6,0,P|28:192|40:132,1,128,0|2,0:0|0:2,0:0:0:0:
172,8,22642,2,0,L|320:24,1,128,0|2,0:0|0:2,0:0:0:0:
372,76,23115,1,0,0:0:0:0:
460,64,23273,6,0,P|484:128|476:192,1,128,0|2,0:0|0:2,0:0:0:0:
352,280,23746,2,0,P|328:216|336:152,1,128,0|0,0:0|0:0,0:0:0:0:
372,76,24220,2,0,P|341:66|308:72,1,64,2|0,0:2|0:0,0:0:0:0:
200,160,24535,6,0,L|184:20,1,128,0|2,0:0|0:2,0:0:0:0:
28,120,25166,2,0,L|42:247,1,128,0|2,0:0|0:2,0:0:0:0:
56,336,25639,1,0,0:0:0:0:
156,256,25797,6,0,P|216:232|280:240,1,128,0|2,0:0|0:2,0:0:0:0:
356,128,26270,2,0,P|296:152|232:144,1,128,0|0,0:0|0:0,0:0:0:0:
164,88,26743,1,2,0:2:0:0:
248,56,26901,1,0,0:0:0:0:
368,12,27059,6,0,L|504:32,1,128,0|2,0:0|0:2,0:0:0:0:
472,208,27690,2,0,P|420:224|360:288,1,128,0|2,0:0|0:2,0:0:0:0:
344,360,28163,1,0,0:0:0:0:
256,376,28320,6,0,P|244:296|244:224,1,128,0|2,0:0|0:2,0:0:0:0:
269,134,28794,2,0,P|266:71|255:8,1,128,0|0,0:0|0:0,0:0:0:0:
168,20,29267,2,0,L|80:32,1,64,2|0,0:2|0:0,0:0:0:0:
20,128,29582,6,0,P|74:160|136:155,1,128,0|2,0:0|0:2,0:0:0:0:
280,44,30213,2,0,P|284:84|292:124,1,64,0|0,0:0|0:0,0:0:0:0:
316,144,30450,1,0,0:0:0:0:
352,172,30529,2,0,P|383:177|415:180,1,64,2|0,0:2|0:0,0:0:0:0:
504,36,30844,6,0,P|431:63|364:60,1,143.999995605469,6|2,0:1|0:2,0:0:0:0:
200,16,31317,2,0,L|176:172,1,143.999995605469,2|0,0:1|0:0,0:0:0:0:
164,244,31791,1,2,0:2:0:0:
80,264,31948,1,0,0:0:0:0:
80,352,32106,6,0,P|152:360|212:312,1,143.999995605469,0|2,0:0|0:2,0:0:0:0:
304,144,32737,2,0,P|373:135|431:176,1,143.999995605469,0|2,0:0|0:2,0:0:0:0:
440,264,33210,1,0,0:0:0:0:
328,376,33368,6,0,P|321:303|312:224,1,143.999995605469,2|2,0:1|0:2,0:0:0:0:
184,88,33841,2,0,P|190:159|198:231,1,143.999995605469,2|0,0:1|0:0,0:0:0:0:
156,308,34314,1,2,0:2:0:0:
88,252,34472,1,0,0:0:0:0:
43,328,34630,6,0,P|1:272|13:204,1,143.999995605469,0|2,0:0|0:2,0:0:0:0:
184,88,35261,2,0,P|255:83|326:72,1,143.999995605469,0|2,0:0|0:2,0:0:0:0:
412,52,35734,1,0,0:0:0:0:
508,160,35891,6,0,P|497:231|492:302,1,143.999995605469,2|2,0:1|0:2,0:0:0:0:
352,376,36365,2,0,P|327:309|345:241,1,143.999995605469,2|0,0:1|0:0,0:0:0:0:
412,184,36838,1,2,0:2:0:0:
395,99,36996,1,0,0:0:0:0:
328,156,37153,6,0,L|172:140,1,143.999995605469,0|2,0:0|0:2,0:0:0:0:
24,260,37784,2,0,L|167:245,1,143.999995605469,0|2,0:0|0:2,0:0:0:0:
256,236,38257,1,0,0:0:0:0:
404,220,38415,6,0,P|336:192|296:120,1,143.999995605469,2|2,0:1|0:2,0:0:0:0:
108,219,38888,2,0,P|173:193|212:134,1,143.999995605469,2|0,0:1|0:0,0:0:0:0:
256,288,39361,1,2,0:2:0:0:
176,324,39519,1,0,0:0:0:0:
96,360,39677,6,0,L|77:282,1,80,8|2,0:0|0:0,0:0:0:0:
176,224,39992,2,0,L|157:146,1,80,8|2,0:0|0:0,0:0:0:0:
336,224,40308,2,0,L|354:146,1,80,8|2,0:0|0:0,0:0:0:0:
416,360,40623,1,8,0:0:0:0:
416,360,40781,1,8,0:0:0:0:
316,312,40939,6,0,P|248:312|168:364,1,160,6|8,0:0|0:0,0:0:0:0:
256,192,41412,2,0,L|428:172,1,160,0|2,0:0|0:0,0:0:0:0:
508,84,41885,1,8,0:0:0:0:
444,20,42043,1,0,0:0:0:0:
356,32,42201,6,0,L|276:40,1,80,2|0,0:0|0:0,0:0:0:0:
104,8,42516,2,0,P|88:68|92:96,1,80,8|0,0:0|0:0,0:0:0:0:
128,256,42832,2,0,P|181:199|171:122,1,160,2|8,0:0|0:0,0:0:0:0:
31,149,43305,1,0,0:0:0:0:
128,256,43462,6,0,L|296:276,1,160,2|8,0:0|0:0,0:0:0:0:
384,128,43936,2,0,L|216:108,1,160,0|2,0:0|0:0,0:0:0:0:
32,172,44409,1,8,0:0:0:0:
64,88,44567,1,0,0:0:0:0:
120,156,44724,6,0,P|115:203|91:239,1,80,2|0,0:0|0:0,0:0:0:0:
43,366,45040,2,0,L|28:288,1,80,8|0,0:0|0:0,0:0:0:0:
224,224,45355,2,0,L|191:380,1,160,2|8,0:0|0:0,0:0:0:0:
124,320,45828,1,0,0:0:0:0:
276,352,45986,6,0,P|352:332|396:256,1,160,6|8,0:0|0:0,0:0:0:0:
504,183,46459,2,0,P|445:130|367:131,1,160,0|2,0:0|0:0,0:0:0:0:
264,220,46932,1,8,0:0:0:0:
188,172,47090,1,0,0:0:0:0:
216,88,47248,6,0,L|294:74,1,80,2|0,0:0|0:0,0:0:0:0:
120,28,47563,2,0,L|41:41,1,80,8|0,0:0|0:0,0:0:0:0:
0,172,47879,2,0,P|63:217|142:214,1,160,2|8,0:0|0:0,0:0:0:0:
204,152,48352,1,0,0:0:0:0:
300,228,48510,6,0,L|286:68,1,160,2|8,0:0|0:0,0:0:0:0:
452,164,48983,2,0,P|493:98|471:23,1,160,0|2,0:0|0:0,0:0:0:0:
344,0,49456,1,8,0:0:0:0:
286,68,49614,1,0,0:0:0:0:
216,12,49772,6,0,P|160:20|120:20,1,80,2|0,0:0|0:0,0:0:0:0:
24,148,50087,2,0,P|92:164|124:184,1,80,8|0,0:0|0:0,0:0:0:0:
188,268,50402,2,0,P|256:304|324:268,1,160,2|8,0:0|0:0,0:0:0:0:
368,192,50876,1,0,0:0:0:0:
143,192,51033,6,0,P|99:255|122:328,1,160,2|0,0:0|0:0,0:0:0:0:
389,328,51507,2,0,P|412:255|368:192,1,160,2|0,0:0|0:0,0:0:0:0:
212,132,51980,1,8,0:0:0:0:
256,208,52138,1,0,0:0:0:0:
300,132,52295,6,0,L|288:40,1,80,2|0,0:0|0:0,0:0:0:0:
116,24,52611,2,0,L|126:103,1,80,8|0,0:0|0:0,0:0:0:0:
92,280,52926,2,0,P|24:244|4:160,1,160,2|8,0:0|0:0,0:0:0:0:
40,88,53399,1,0,0:0:0:0:
208,68,53557,6,0,L|228:240,1,160,2|8,0:0|0:0,0:0:0:0:
420,280,54030,2,0,P|488:244|508:160,1,160,0|2,0:0|0:0,0:0:0:0:
452,44,54503,1,8,0:0:0:0:
364,56,54661,1,0,0:0:0:0:
356,144,54819,6,0,L|348:240,1,80,2|0,0:0|0:0,0:0:0:0:
162,223,55134,2,0,L|156:144,1,80,8|0,0:0|0:0,0:0:0:0:
256,0,55450,2,0,B|236:80|276:80|256:160,1,160,2|8,0:0|0:0,0:0:0:0:
256,248,55923,1,0,0:0:0:0:
376,356,56081,6,0,L|389:196,1,160,2|0,0:0|0:0,0:0:0:0:
123,196,56554,2,0,L|136:355,1,160,2|0,0:0|0:0,0:0:0:0:
288,224,57027,1,8,0:0:0:0:
224,160,57185,1,0,0:0:0:0:
312,136,57343,6,0,P|360:120|392:100,1,80,2|0,0:0|0:0,0:0:0:0:
200,72,57658,2,0,P|152:56|120:36,1,80,8|0,0:0|0:0,0:0:0:0:
16,148,57973,2,0,P|0:228|40:296,1,160,2|8,0:0|0:0,0:0:0:0:
112,344,58447,1,0,0:0:0:0:
256,284,58604,6,0,P|336:300|400:344,1,160,2|8,0:0|0:0,0:0:0:0:
496,192,59078,2,0,L|328:208,1,160,0|2,0:0|0:0,0:0:0:0:
188,88,59551,1,8,0:0:0:0:
176,177,59708,1,0,0:0:0:0:
260,144,59866,6,0,L|271:64,1,80,2|0,0:0|0:0,0:0:0:0:
88,152,60182,2,0,P|88:200|108:236,1,80,8|0,0:0|0:0,0:0:0:0:
160,336,60497,5,2,0:0:0:0:
304,252,60655,1,8,0:0:0:0:
208,252,60813,1,8,0:0:0:0:
352,336,60970,1,8,0:0:0:0:
160,336,61128,6,0,L|148:172,1,160,2|8,0:0|0:0,0:0:0:0:
68,95,61601,2,0,P|137:59|212:81,1,160,2|0,0:0|0:0,0:0:0:0:
364,176,62074,2,0,L|372:80,1,80,8|0,0:0|0:0,0:0:0:0:
468,36,62390,6,0,P|482:72|482:112,1,80,2|2,0:0|0:0,0:0:0:0:
420,244,62705,1,8,0:0:0:0:
331,259,62863,2,0,P|279:203|290:126,1,160,2|0,0:0|0:0,0:0:0:0:
389,24,63336,2,0,P|428:32|467:35,1,80,8|0,0:0|0:0,0:0:0:0:
512,180,63652,6,0,L|492:352,1,160,2|8,0:0|0:0,0:0:0:0:
384,368,64125,2,0,P|268:348|228:312,1,160,2|0,0:0|0:0,0:0:0:0:
180,192,64598,2,0,L|195:74,1,80,8|0,0:0|0:0,0:0:0:0:
321,112,64914,6,0,L|332:192,1,80,2|2,0:0|0:0,0:0:0:0:
172,280,65229,1,8,0:0:0:0:
96,228,65387,2,0,L|114:69,1,160,2|0,0:0|0:0,0:0:0:0:
256,12,65860,2,0,P|292:20|340:20,1,80,8|0,0:0|0:0,0:0:0:0:
480,124,66175,6,0,P|402:117|336:172,1,160,2|8,0:0|0:0,0:0:0:0:
304,272,66649,2,0,L|120:296,1,160,2|0,0:0|0:0,0:0:0:0:
32,368,67122,2,0,P|12:333|8:293,1,80,8|0,0:0|0:0,0:0:0:0:
59,176,67437,6,0,P|94:194|134:199,1,80,2|2,0:0|0:0,0:0:0:0:
300,88,67753,1,8,0:0:0:0:
212,88,67910,2,0,L|236:272,1,160,2|0,0:0|0:0,0:0:0:0:
324,348,68384,2,0,P|363:343|398:324,1,80,8|0,0:0|0:0,0:0:0:0:
504,180,68699,6,0,L|328:164,1,160,2|8,0:0|0:0,0:0:0:0:
284,68,69172,2,0,P|220:108|132:100,1,160,2|0,0:0|0:0,0:0:0:0:
12,200,69645,2,0,L|2:120,1,80,8|0,0:0|0:0,0:0:0:0:
76,4,69961,6,0,L|155:13,1,80,2|2,0:0|0:0,0:0:0:0:
292,28,70268,1,8,0:0:0:0:
352,96,70422,2,0,P|364:140|360:184,1,80,2|0,0:0|0:0,0:0:0:0:
256,316,70729,1,0,0:0:0:0:
256,316,70806,1,0,0:0:0:0:
256,316,70883,1,4,0:2:0:0:
160,96,71223,6,0,P|148:176|164:256,1,160,2|8,0:0|0:0,0:0:0:0:
349,252,71696,2,0,P|364:174|352:96,1,160,2|0,0:0|0:0,0:0:0:0:
256,16,72169,1,8,0:0:0:0:
256,104,72327,1,0,0:0:0:0:
256,192,72484,6,0,L|160:208,1,80,2|2,0:0|0:0,0:0:0:0:
8,136,72800,2,0,L|86:122,1,80,8|2,0:0|0:0,0:0:0:0:
176,108,73115,5,2,0:0:0:0:
120,40,73273,1,2,0:0:0:0:
88,220,73431,1,8,0:0:0:0:
144,288,73588,1,0,0:0:0:0:
177,205,73746,6,0,L|208:36,1,160,2|8,0:0|0:0,0:0:0:0:
335,179,74219,2,0,L|304:348,1,160,2|0,0:0|0:0,0:0:0:0:
424,356,74693,1,8,0:0:0:0:
500,308,74850,1,0,0:0:0:0:
484,220,75008,6,0,P|447:234|400:232,1,80,2|2,0:0|0:0,0:0:0:0:
258,193,75323,2,0,P|295:178|335:179,1,80,8|2,0:0|0:0,0:0:0:0:
400,116,75639,5,2,0:0:0:0:
344,44,75797,1,0,0:0:0:0:
168,44,75954,1,8,0:0:0:0:
112,116,76112,1,0,0:0:0:0:
170,277,76270,6,0,P|205:206|199:127,1,160,2|8,0:0|0:0,0:0:0:0:
40,60,76743,2,0,L|12:220,1,160,2|0,0:0|0:0,0:0:0:0:
96,328,77216,1,8,0:0:0:0:
170,277,77374,1,0,0:0:0:0:
220,352,77532,6,0,P|276:348|316:324,1,80,2|2,0:0|0:0,0:0:0:0:
268,175,77847,2,0,P|228:175|190:189,1,80,8|2,0:0|0:0,0:0:0:0:
320,248,78163,5,2,0:0:0:0:
356,168,78320,1,0,0:0:0:0:
192,28,78478,1,8,0:0:0:0:
156,108,78636,1,0,0:0:0:0:
320,28,78793,6,0,L|488:44,1,160,2|8,0:0|0:0,0:0:0:0:
372,192,79267,2,0,L|204:176,1,160,2|0,0:0|0:0,0:0:0:0:
111,112,79740,2,0,P|75:128|35:128,1,80,8|0,0:0|0:0,0:0:0:0:
0,292,80055,5,2,0:0:0:0:
96,232,80213,1,8,0:0:0:0:
96,232,80292,1,8,0:0:0:0:
96,232,80371,2,0,L|116:328,1,80,8|8,0:0|0:0,0:0:0:0:
256,368,80686,2,0,L|256:272,1,80,8|8,0:0|0:0,0:0:0:0:
416,232,81002,2,0,L|399:310,1,80,8|8,0:0|0:0,0:0:0:0:
436,144,81317,6,0,L|272:108,1,160,6|0,0:0|0:0,0:0:0:0:
76,240,81790,2,0,L|240:276,1,160,2|0,0:0|0:0,0:0:0:0:
279,109,82264,1,8,0:0:0:0:
304,24,82421,1,0,0:0:0:0:
364,88,82579,6,0,P|376:124|376:172,1,80,2|0,0:0|0:0,0:0:0:0:
448,264,82894,2,0,L|463:185,1,80,8|0,0:0|0:0,0:0:0:0:
288,152,83210,2,0,L|257:311,1,160,2|8,0:0|0:0,0:0:0:0:
180,356,83683,1,0,0:0:0:0:
68,267,83841,6,0,P|122:212|200:214,1,160,6|0,0:0|0:0,0:0:0:0:
443,116,84314,2,0,P|389:171|311:169,1,160,2|0,0:0|0:0,0:0:0:0:
200,68,84787,1,8,0:0:0:0:
112,84,84945,1,0,0:0:0:0:
72,164,85103,6,0,L|88:260,1,80,2|0,0:0|0:0,0:0:0:0:
228,360,85418,2,0,L|241:281,1,80,8|0,0:0|0:0,0:0:0:0:
256,192,85734,1,2,0:0:0:0:
424,220,85891,1,0,0:0:0:0:
424,220,85970,1,0,0:0:0:0:
424,220,86049,1,4,0:2:0:0:
284,24,86364,6,0,P|208:48|112:40,1,160,6|8,0:0|0:0,0:0:0:0:
8,172,86838,2,0,P|87:168|163:192,1,160,0|2,0:0|0:0,0:0:0:0:
256,296,87311,1,8,0:0:0:0:
224,380,87469,1,0,0:0:0:0:
140,352,87626,6,0,P|128:320|128:268,1,80,2|0,0:0|0:0,0:0:0:0:
172,114,87942,2,0,P|173:153|162:192,1,80,8|0,0:0|0:0,0:0:0:0:
36,288,88257,2,0,L|17:129,1,160,2|12,0:0|0:0,0:0:0:0:
8,40,88730,1,0,0:0:0:0:
152,0,88888,6,0,P|229:10|280:70,1,160,6|8,0:0|0:0,0:0:0:0:
268,196,89361,2,0,L|249:354,1,160,0|2,0:0|0:0,0:0:0:0:
180,208,89834,1,8,0:0:0:0:
168,120,89992,1,0,0:0:0:0:
256,108,90150,6,0,L|360:92,1,80,2|0,0:0|0:0,0:0:0:0:
460,36,90465,2,0,P|476:72|473:111,1,80,8|0,0:0|0:0,0:0:0:0:
376,220,90781,2,0,P|298:191|216:192,1,160,2|8,0:0|0:0,0:0:0:0:
136,220,91254,1,0,0:0:0:0:
180,324,91412,6,0,P|256:344|340:320,1,160,6|0,0:0|0:0,0:0:0:0:
333,59,91885,2,0,P|256:39|180:60,1,160,2|0,0:0|0:0,0:0:0:0:
68,192,92358,1,8,0:0:0:0:
52,104,92516,1,0,0:0:0:0:
136,136,92674,6,0,P|156:180|152:228,1,80,2|0,0:0|0:0,0:0:0:0:
36,358,92989,2,0,L|52:280,1,80,8|0,0:0|0:0,0:0:0:0:
136,136,93305,2,0,P|216:128|304:116,1,160,2|8,0:0|0:0,0:0:0:0:
384,100,93778,1,0,0:0:0:0:
416,232,93935,6,0,P|384:304|288:336,1,160,2|0,0:0|0:0,0:0:0:0:
96,231,94409,2,0,P|127:303|198:336,1,160,2|0,0:0|0:0,0:0:0:0:
256,236,94882,1,8,0:0:0:0:
224,152,95040,1,0,0:0:0:0:
135,150,95197,6,0,P|92:144|40:128,1,80,2|0,0:0|0:0,0:0:0:0:
177,22,95513,2,0,P|216:17|255:7,1,80,8|0,0:0|0:0,0:0:0:0:
377,150,95828,2,0,P|453:134|497:70,1,160,2|12,0:0|0:0,0:0:0:0:
388,36,96301,1,0,0:0:0:0:
288,88,96459,6,0,L|320:256,1,160,6|8,0:0|0:0,0:0:0:0:
224,296,96932,2,0,L|192:128,1,160,0|2,0:0|0:0,0:0:0:0:
96,8,97405,1,8,0:0:0:0:
36,72,97563,1,0,0:0:0:0:
72,151,97721,6,0,P|104:129|120:93,1,80,2|0,0:0|0:0,0:0:0:0:
256,12,98036,2,0,P|312:28|352:32,1,80,12|0,0:0|0:0,0:0:0:0:
504,104,98352,2,0,L|344:119,1,160,2|12,0:0|0:0,0:0:0:0:
256,128,98825,1,0,0:0:0:0:
167,290,98983,6,0,P|149:213|168:136,1,160,6|8,0:0|0:0,0:0:0:0:
331,206,99456,2,0,L|304:364,1,160,0|2,0:0|0:0,0:0:0:0:
152,376,99929,1,8,0:0:0:0:
167,290,100087,1,0,0:0:0:0:
182,204,100245,6,0,P|143:197|94:184,1,80,2|8,0:0|0:0,0:0:0:0:
0,64,100560,2,0,P|39:57|78:47,1,80,2|8,0:0|0:0,0:0:0:0:
164,20,100875,1,8,0:0:0:0:
292,72,101033,1,2,0:0:0:0:
280,208,101191,1,2,0:0:0:0:
148,240,101349,1,2,0:0:0:0:
72,124,101506,6,0,P|152:112|244:152,1,160,2|8,0:0|0:0,0:0:0:0:
286,246,101980,2,0,P|361:272|439:260,1,160,0|2,0:0|0:0,0:0:0:0:
504,96,102453,1,8,0:0:0:0:
428,48,102611,1,0,0:0:0:0:
376,120,102768,6,0,P|336:128|264:140,1,80,2|0,0:0|0:0,0:0:0:0:
136,233,103084,2,0,P|175:240|215:249,1,80,8|0,0:0|0:0,0:0:0:0:
162,72,103399,2,0,P|99:116|24:98,1,160,2|8,0:0|0:0,0:0:0:0:
84,32,103872,1,0,0:0:0:0:
232,16,104030,6,0,L|256:200,1,160,2|8,0:0|0:0,0:0:0:0:
280,368,104503,2,0,P|348:320|348:220,1,160,0|2,0:0|0:0,0:0:0:0:
252,174,104976,1,8,0:0:0:0:
164,168,105134,1,0,0:0:0:0:
116,244,105292,6,0,L|126:323,1,80,2|0,0:0|0:0,0:0:0:0:
280,368,105607,2,0,L|268:280,1,80,8|0,0:0|0:0,0:0:0:0:
340,111,105923,2,0,P|416:132|504:124,1,160,2|8,0:0|0:0,0:0:0:0:
512,216,106396,1,0,0:0:0:0:
438,345,106554,6,0,L|279:367,1,160,2|8,0:0|0:0,0:0:0:0:
171,236,107027,2,0,P|152:312|192:380,1,160,0|2,0:0|0:0,0:0:0:0:
258,223,107500,1,8,0:0:0:0:
204,152,107658,1,0,0:0:0:0:
116,164,107816,6,0,P|52:152|12:136,1,80,2|0,0:0|0:0,0:0:0:0:
188,36,108131,2,0,P|226:47|265:52,1,80,8|0,0:0|0:0,0:0:0:0:
372,220,108446,2,0,L|353:61,1,160,2|8,0:0|0:0,0:0:0:0:
436,28,108920,1,0,0:0:0:0:
511,119,109077,6,0,P|508:198|455:255,1,160,2|8,0:0|0:0,0:0:0:0:
300,276,109551,2,0,L|141:257,1,160,0|2,0:0|0:0,0:0:0:0:
40,136,110024,1,8,0:0:0:0:
56,224,110181,1,0,0:0:0:0:
124,168,110339,6,0,L|160:64,1,80,2|0,0:0|0:0,0:0:0:0:
361,92,110655,2,0,L|388:168,1,80,8|0,0:0|0:0,0:0:0:0:
344,336,110970,5,2,0:0:0:0:
204,236,111128,1,8,0:0:0:0:
308,236,111286,1,8,0:0:0:0:
168,336,111443,1,8,0:0:0:0:
100,256,111601,6,0,P|80:192|124:88,1,160,2|8,0:0|0:0,0:0:0:0:
208,12,112074,2,0,L|392:32,1,160,2|0,0:0|0:0,0:0:0:0:
512,48,112547,1,8,0:0:0:0:
472,128,112705,1,0,0:0:0:0:
431,208,112863,6,0,P|354:195|300:138,1,160,2|8,0:0|0:0,0:0:0:0:
80,208,113494,2,0,P|157:195|211:138,1,160,0|8,0:0|0:0,0:0:0:0:
256,60,113967,1,0,0:0:0:0:
365,105,114125,6,0,L|341:289,1,160,2|8,0:0|0:0,0:0:0:0:
168,264,114598,2,0,L|147:105,1,160,2|0,0:0|0:0,0:0:0:0:
12,176,115071,1,8,0:0:0:0:
60,252,115229,1,0,0:0:0:0:
108,328,115387,6,0,P|184:348|248:300,1,160,2|8,0:0|0:0,0:0:0:0:
265,80,116017,2,0,P|329:35|403:55,1,160,0|8,0:0|0:0,0:0:0:0:
464,124,116491,1,0,0:0:0:0:
448,252,116648,6,0,L|256:228,1,160,2|8,0:0|0:0,0:0:0:0:
192,336,117122,2,0,P|172:252|180:176,1,160,2|0,0:0|0:0,0:0:0:0:
320,48,117595,1,8,0:0:0:0:
340,136,117752,1,0,0:0:0:0:
256,108,117910,6,0,P|180:76|100:108,1,160,2|8,0:0|0:0,0:0:0:0:
256,276,118541,2,0,P|327:307|402:284,1,160,0|8,0:0|0:0,0:0:0:0:
456,212,119014,1,0,0:0:0:0:
415,90,119172,6,0,P|335:100|256:108,1,160,2|0,0:0|0:0,0:0:0:0:
97,294,119645,2,0,P|176:283|255:275,1,160,2|0,0:0|0:0,0:0:0:0:
372,376,120118,1,8,0:0:0:0:
452,336,120276,1,0,0:0:0:0:
488,252,120434,6,0,P|492:168|464:88,1,160,2|8,0:0|0:0,0:0:0:0:
256,24,121065,2,0,L|241:102,1,80,0|0,3:0|3:0,3:3:0:0:
206,132,121301,1,0,0:0:0:0:
167,156,121380,2,0,P|128:154|91:139,1,80,2|0,3:2|3:0,3:3:0:0:
16,284,121696,6,0,L|175:268,1,160,2|8,0:0|0:0,0:0:0:0:
272,367,122169,2,0,P|313:301|303:223,1,160,2|0,0:0|0:0,0:0:0:0:
209,161,122642,1,8,0:0:0:0:
200,72,122800,1,0,0:0:0:0:
289,63,122958,6,0,L|373:55,1,80,2|2,0:0|0:0,0:0:0:0:
504,124,123273,2,0,P|496:196|480:224,1,80,8|2,0:0|0:0,0:0:0:0:
448,280,123588,5,2,0:0:0:0:
359,271,123746,1,0,0:0:0:0:
209,161,123904,1,8,0:0:0:0:
298,152,124062,1,0,0:0:0:0:
256,296,124219,6,0,L|64:276,1,160,2|8,0:0|0:0,0:0:0:0:
4,136,124693,2,0,P|69:180|156:164,1,160,2|0,0:0|0:0,0:0:0:0:
232,64,125166,1,8,0:0:0:0:
320,76,125323,1,0,0:0:0:0:
336,164,125481,6,0,L|352:260,1,80,2|2,0:0|0:0,0:0:0:0:
440,376,125797,2,0,L|453:297,1,80,8|2,0:0|0:0,0:0:0:0:
468,208,126112,5,2,0:0:0:0:
483,119,126270,1,0,0:0:0:0:
321,253,126428,1,8,0:0:0:0:
336,164,126585,1,0,0:0:0:0:
176,164,126743,6,0,L|208:348,1,160,2|8,0:0|0:0,0:0:0:0:
88,380,127216,2,0,P|20:344|0:260,1,160,2|0,0:0|0:0,0:0:0:0:
28,128,127689,1,8,0:0:0:0:
112,104,127847,1,0,0:0:0:0:
176,164,128005,6,0,P|232:176|268:176,1,80,2|2,0:0|0:0,0:0:0:0:
334,275,128320,2,0,P|294:278|256:287,1,80,8|2,0:0|0:0,0:0:0:0:
180,336,128636,5,2,0:0:0:0:
112,280,128793,1,0,0:0:0:0:
112,104,128951,1,8,0:0:0:0:
180,48,129109,1,0,0:0:0:0:
332,48,129267,6,0,P|380:104|380:188,1,160,2|0,0:0|0:0,0:0:0:0:
179,335,129740,2,0,P|130:275|131:197,1,160,2|0,0:0|0:0,0:0:0:0:
256,152,130213,2,0,L|280:240,1,80,8|0,0:0|0:0,0:0:0:0:
316,368,130528,5,2,0:0:0:0:
416,268,130686,1,8,0:0:0:0:
416,268,130765,1,8,0:0:0:0:
416,268,130844,2,0,L|437:190,1,80,8|8,0:0|0:0,0:0:0:0:
318,62,131159,2,0,P|354:76|394:82,1,80,8|8,0:0|0:0,0:0:0:0:
193,62,131475,2,0,P|155:77|116:84,1,80,8|8,0:0|0:0,0:0:0:0:
256,284,131790,5,4,0:0:0:0:
