osu file format v14

[General]
AudioFilename: ff hd.mp3
AudioLeadIn: 0
PreviewTime: 39519
Countdown: 0
SampleSet: Normal
StackLeniency: 0.3
Mode: 0
LetterboxInBreaks: 1
WidescreenStoryboard: 1

[Editor]
DistanceSpacing: 1.2
BeatDivisor: 4
GridSize: 4
TimelineZoom: 1

[Metadata]
Title:Feuer frei!
TitleUnicode:Feuer frei!
Artist:Rammstein
ArtistUnicode:Rammstein
Creator:Frey
Version:Fire at will! BANG! BANG!!
Source:
Tags:PeterEU Peter Mutter industrial metal NDH rock German cut version fire free
BeatmapID:1854467
BeatmapSetID:887102

[Difficulty]
HPDrainRate:7
CircleSize:4
OverallDifficulty:8
ApproachRate:9
SliderMultiplier:1.8
SliderTickRate:1

[Events]
//Background and Video events
0,0,"rs.jpg",0,0
//Break Periods
//Storyboard Layer 0 (Background)
//Storyboard Layer 1 (Fail)
//Storyboard Layer 2 (Pass)
//Storyboard Layer 3 (Foreground)
//Storyboard Sound Samples

[TimingPoints]
10640,315.955766192733,4,1,1,64,1,0
20750,315.457413249211,4,3,1,64,1,0
20750,-125,4,3,1,64,0,0
30844,-111.111111111111,4,3,1,64,0,0
39677,-100,4,1,1,60,0,0
40939,-100,4,1,1,66,0,1
51033,-66.6666666666667,4,1,2,71,0,1
51980,-100,4,1,1,66,0,1
56081,-66.6666666666667,4,1,2,71,0,1
57027,-100,4,1,1,66,0,1
60497,-100,4,1,1,66,0,1
61128,-100,4,1,1,60,0,0
69961,307.377049180328,4,1,1,60,1,0
70883,340.522133938706,4,1,1,60,1,0
71223,315.457413249211,4,1,1,60,1,0
73115,-100,4,1,0,64,0,0
73194,-100,4,1,1,64,0,0
73746,-100,4,1,1,60,0,0
75639,-100,4,1,0,64,0,0
75718,-100,4,1,1,64,0,0
76270,-100,4,1,1,60,0,0
78163,-100,4,1,0,64,0,0
78241,-100,4,1,1,64,0,0
78793,-100,4,1,1,60,0,0
80055,-100,4,1,1,62,0,0
80686,-100,4,1,1,64,0,0
81002,-100,4,1,1,66,0,0
81317,-66.6666666666667,4,1,2,71,0,1
82264,-100,4,1,1,66,0,1
83841,-66.6666666666667,4,1,2,71,0,1
84787,-100,4,1,1,66,0,1
91412,-66.6666666666667,4,1,2,71,0,1
92358,-100,4,1,1,66,0,1
93935,-66.6666666666667,4,1,2,71,0,1
94882,-100,4,1,1,66,0,1
111601,-100,4,1,1,60,0,0
119172,-66.6666666666667,4,1,2,70,0,0
120118,-100,4,1,1,60,0,0
121065,-100,4,3,1,64,0,0
121696,-100,4,1,1,60,0,0
123588,-100,4,1,0,64,0,0
123667,-100,4,1,1,64,0,0
124219,-100,4,1,1,60,0,0
126112,-100,4,1,0,64,0,0
126191,-100,4,1,1,64,0,0
126743,-100,4,1,1,60,0,0
128636,-100,4,1,0,64,0,0
128715,-100,4,1,1,64,0,0
129267,-66.6666666666667,4,1,2,70,0,0
130213,-100,4,1,1,60,0,0
130528,-100,4,1,1,62,0,0
131002,-100,4,1,1,64,0,0
131475,-100,4,1,1,66,0,0

[Colours]
Combo1 : 17,254,176
Combo2 : 173,255,95
Combo3 : 255,88,100
Combo4 : 255,94,55

[HitObjects]
340,168,10640,21,4,0:0:0:0:
256,192,10718,12,0,20434,0:0:0:0:
87,144,20750,6,0,P|75:214|100:280,1,144,6|2,0:1|0:2,0:0:0:0:
220,376,21223,2,0,L|248:232,1,144
278,78,21696,2,0,L|265:149,1,72,2|0,0:2|0:0,0:0:0:0:
332,251,22011,6,0,P|366:241|402:239,1,72
179,132,22327,2,0,P|145:142|109:144,1,72,2|0,0:2|0:0,0:0:0:0:
32,356,22642,2,0,L|16:260,1,72
4,200,22958,1,2,0:2:0:0:
28,116,23115,1,0,0:0:0:0:
104,76,23273,6,0,L|260:92,1,144,0|2,0:0|0:2,0:0:0:0:
408,308,23746,2,0,L|264:293,1,144
160,212,24220,2,0,L|175:282,1,72,2|0,0:2|0:0,0:0:0:0:
344,124,24535,6,0,P|376:109|405:87,1,72
168,124,24850,2,0,P|135:109|106:87,1,72,2|0,0:2|0:0,0:0:0:0:
256,272,25166,2,0,L|256:352,1,72
336,380,25481,1,2,0:2:0:0:
416,340,25639,1,0,0:0:0:0:
464,264,25797,6,0,P|480:192|464:124,1,144,0|2,0:0|0:2,0:0:0:0:
324,24,26270,2,0,L|164:8,1,144
4,140,26743,2,0,L|76:148,1,72,2|0,0:2|0:0,0:0:0:0:
256,172,27059,6,0,B|252:208|260:208|256:244,1,72
128,356,27374,2,0,L|114:285,1,72,2|0,0:2|0:0,0:0:0:0:
397,285,27690,2,0,L|384:356,1,72
300,384,28005,1,2,0:2:0:0:
212,384,28163,1,0,0:0:0:0:
128,356,28320,6,0,L|96:200,1,144,0|2,0:0|0:2,0:0:0:0:
131,67,28794,2,0,P|62:57|4:97,1,144
164,151,29267,2,0,P|194:133|213:103,1,72,2|0,0:2|0:0,0:0:0:0:
381,67,29582,6,0,L|396:168,1,72
381,317,29898,2,0,L|396:216,1,72,2|0,0:2|0:0,0:0:0:0:
480,48,30213,5,0,0:2:0:0:
484,80,30292,1,0,0:0:0:0:
489,112,30371,2,0,L|496:169,1,36
480,336,30529,1,2,0:2:0:0:
484,303,30608,1,0,0:0:0:0:
489,272,30686,2,0,L|496:215,1,36
391,138,30844,6,0,P|312:137|255:192,1,161.999995056153,6|2,0:1|0:2,0:0:0:0:
40,332,31317,2,0,L|12:140,1,161.999995056153,2|0,0:1|0:0,0:0:0:0:
0,60,31791,1,2,0:2:0:0:
111,44,31948,1,0,0:0:0:0:
216,198,32106,6,0,L|300:186,1,80.9999975280763
122,169,32421,2,0,P|119:209|132:248,1,80.9999975280763,2|0,0:2|0:0,0:0:0:0:
389,214,32737,2,0,P|392:174|379:136,1,80.9999975280763
328,52,33052,1,2,0:2:0:0:
232,32,33210,1,0,0:0:0:0:
300,252,33368,6,0,P|358:305|444:296,1,161.999995056153,2|2,0:1|0:2,0:0:0:0:
211,131,33841,2,0,P|153:78|68:88,1,161.999995056153,2|0,0:1|0:0,0:0:0:0:
0,172,34314,1,2,0:2:0:0:
100,232,34472,1,0,0:0:0:0:
256,324,34630,6,0,L|352:308,1,80.9999975280763
335,73,34945,2,0,L|256:60,1,80.9999975280763,2|0,0:2|0:0,0:0:0:0:
504,232,35261,2,0,P|512:192|504:152,1,80.9999975280763
408,144,35576,1,2,0:2:0:0:
408,240,35734,1,0,0:0:0:0:
163,288,35891,6,0,P|120:224|132:140,1,161.999995056153,2|2,0:1|0:2,0:0:0:0:
348,96,36365,2,0,P|392:161|382:240,1,161.999995056153,2|0,0:1|0:0,0:0:0:0:
284,304,36838,1,2,0:2:0:0:
256,192,36996,1,0,0:0:0:0:
228,80,37153,6,0,P|156:96|128:96,1,80.9999975280763
16,300,37469,2,0,P|88:284|116:284,1,80.9999975280763,2|0,0:2|0:0,0:0:0:0:
344,240,37784,2,0,L|328:344,1,80.9999975280763
256,384,38100,1,2,0:2:0:0:
181,320,38257,1,0,0:0:0:0:
304,151,38415,6,0,P|382:147|435:205,1,161.999995056153,2|2,0:1|0:2,0:0:0:0:
207,151,38888,2,0,P|128:147|75:205,1,161.999995056153,2|0,0:1|0:0,0:0:0:0:
336,60,39361,1,2,0:2:0:0:
176,60,39519,1,0,0:0:0:0:
256,236,39677,5,8,0:0:0:0:
256,236,39835,1,2,0:0:0:0:
324,164,39992,1,8,0:0:0:0:
188,164,40150,1,2,0:0:0:0:
352,260,40308,1,8,0:0:0:0:
160,260,40466,1,2,0:0:0:0:
420,188,40623,5,8,0:0:0:0:
92,188,40781,1,8,0:0:0:0:
256,236,40939,6,0,P|268:190|288:128,1,90,6|0,0:0|0:0,0:0:0:0:
144,4,41254,2,0,P|131:49|112:112,1,90,8|0,0:0|0:0,0:0:0:0:
92,188,41570,1,0,0:0:0:0:
16,88,41727,1,2,0:0:0:0:
204,144,41885,1,8,0:0:0:0:
84,332,42043,1,0,0:0:0:0:
16,88,42201,6,0,P|84:72|120:60,1,90,2|0,0:0|0:0,0:0:0:0:
384,92,42516,2,0,P|316:108|280:120,1,90,8|0,0:0|0:0,0:0:0:0:
84,332,42832,2,0,P|28:284|44:180,1,180,2|8,0:0|0:0,0:0:0:0:
188,220,43305,1,0,0:0:0:0:
212,124,43462,6,0,L|196:28,1,90,2|0,0:0|0:0,0:0:0:0:
300,260,43778,2,0,L|316:356,1,90,8|0,0:0|0:0,0:0:0:0:
412,368,44093,1,0,0:0:0:0:
324,164,44251,1,2,0:0:0:0:
208,324,44409,1,8,0:0:0:0:
396,236,44567,1,0,0:0:0:0:
224,164,44724,6,0,P|160:180|100:188,1,90,2|0,0:0|0:0,0:0:0:0:
8,328,45040,2,0,P|52:336|95:347,1,90,8|0,0:0|0:0,0:0:0:0:
300,92,45355,2,0,L|336:292,1,180,2|8,0:0|0:0,0:0:0:0:
460,296,45828,1,0,0:0:0:0:
500,88,45986,6,0,P|456:68|404:72,1,90,6|0,0:0|0:0,0:0:0:0:
243,287,46302,2,0,L|359:263,1,90,8|0,0:0|0:0,0:0:0:0:
380,184,46617,1,0,0:0:0:0:
188,60,46775,1,2,0:0:0:0:
132,184,46932,1,8,0:0:0:0:
324,60,47090,1,0,0:0:0:0:
188,60,47248,6,0,P|116:48|88:40,1,90,2|0,0:0|0:0,0:0:0:0:
16,280,47563,2,0,P|10:235|0:192,1,90,8|0,0:0|0:0,0:0:0:0:
293,139,47879,2,0,P|301:228|255:304,1,180,2|8,0:0|0:0,0:0:0:0:
132,340,48352,1,0,0:0:0:0:
100,219,48510,6,0,P|144:215|187:229,1,90,2|0,0:0|0:0,0:0:0:0:
324,380,48825,2,0,L|436:364,1,90,8|0,0:0|0:0,0:0:0:0:
488,300,49141,1,0,0:0:0:0:
464,124,49298,1,2,0:0:0:0:
252,244,49456,1,8,0:0:0:0:
428,220,49614,1,0,0:0:0:0:
320,80,49772,6,0,P|272:76|216:60,1,90,2|0,0:0|0:0,0:0:0:0:
0,188,50087,2,0,P|48:192|104:208,1,90,8|0,0:0|0:0,0:0:0:0:
256,356,50402,2,0,B|224:268|288:268|256:180,1,180,2|8,0:0|0:0,0:0:0:0:
256,28,50876,1,0,0:0:0:0:
172,228,51033,6,0,B|60:208|60:208|-4:140|40:64,1,270.000010299683,2|0,0:0|0:0,0:0:0:0:
472,65,51507,2,0,B|516:140|452:208|452:208|340:228,1,270.000010299683,2|0,0:0|0:0,0:0:0:0:
108,308,51980,5,8,0:0:0:0:
155,128,52138,1,0,0:0:0:0:
256,204,52295,2,0,L|274:292,1,90,2|0,0:0|0:0,0:0:0:0:
406,376,52611,2,0,L|387:288,1,90,8|0,0:0|0:0,0:0:0:0:
155,127,52926,2,0,P|107:202|124:288,1,180,2|8,0:0|0:0,0:0:0:0:
229,227,53399,1,0,0:0:0:0:
288,144,53557,6,0,L|300:52,1,90,2|0,0:0|0:0,0:0:0:0:
16,48,53873,2,0,L|104:33,1,90,8|0,0:0|0:0,0:0:0:0:
204,19,54188,1,0,0:0:0:0:
32,244,54346,1,2,0:0:0:0:
104,32,54503,1,8,0:0:0:0:
132,229,54661,1,0,0:0:0:0:
324,268,54819,6,0,P|344:228|348:176,1,90,2|0,0:0|0:0,0:0:0:0:
188,116,55134,2,0,P|168:156|164:208,1,90,8|0,0:0|0:0,0:0:0:0:
456,252,55450,2,0,L|436:136,1,90,2|0,0:0|0:0,0:0:0:0:
200,20,55765,1,8,0:0:0:0:
312,20,55923,1,0,0:0:0:0:
200,192,56081,6,0,B|108:228|16:152|32:48,1,270.000010299683,2|0,0:0|0:0,0:0:0:0:
480,48,56554,2,0,B|496:152|404:228|312:192,1,270.000010299683,2|0,0:0|0:0,0:0:0:0:
200,20,57027,5,8,0:0:0:0:
364,84,57185,1,0,0:0:0:0:
312,192,57343,2,0,P|268:203|224:209,1,90,2|0,0:0|0:0,0:0:0:0:
20,308,57658,2,0,P|64:313|108:324,1,90,8|0,0:0|0:0,0:0:0:0:
356,384,57973,2,0,P|416:316|396:216,1,180,2|8,0:0|0:0,0:0:0:0:
228,164,58447,1,0,0:0:0:0:
244,264,58604,6,0,L|257:352,1,90,2|0,0:0|0:0,0:0:0:0:
100,120,58920,2,0,L|87:32,1,90,8|0,0:0|0:0,0:0:0:0:
188,16,59235,1,0,0:0:0:0:
364,32,59393,1,2,0:0:0:0:
172,192,59551,1,8,0:0:0:0:
348,208,59708,1,0,0:0:0:0:
224,104,59866,6,0,P|177:101|112:92,1,90,2|0,0:0|0:0,0:0:0:0:
288,280,60182,2,0,P|334:282|400:292,1,90,8|0,0:0|0:0,0:0:0:0:
392,116,60497,5,2,0:0:0:0:
120,268,60655,1,8,0:0:0:0:
377,287,60813,1,8,0:0:0:0:
134,95,60970,1,8,0:0:0:0:
36,176,61128,6,0,P|6:257|24:352,1,180,2|8,0:0|0:0,0:0:0:0:
196,364,61601,2,0,P|225:282|208:188,1,180,2|0,0:0|0:0,0:0:0:0:
330,74,62074,2,0,L|343:162,1,90,8|0,0:0|0:0,0:0:0:0:
496,140,62390,6,0,L|482:50,1,90,2|2,0:0|0:0,0:0:0:0:
396,0,62705,1,8,0:0:0:0:
244,24,62863,2,0,P|160:40|72:8,1,180,2|0,0:0|0:0,0:0:0:0:
0,216,63336,1,8,0:0:0:0:
76,152,63494,1,0,0:0:0:0:
92,250,63652,6,0,P|164:202|168:115,1,180,2|8,0:0|0:0,0:0:0:0:
356,24,64125,2,0,L|348:224,1,180,2|0,0:0|0:0,0:0:0:0:
344,344,64598,2,0,P|392:335|436:332,1,90,8|0,0:0|0:0,0:0:0:0:
348,203,64914,6,0,P|299:211|256:215,1,90,2|2,0:0|0:0,0:0:0:0:
160,224,65229,1,8,0:0:0:0:
81,368,65387,2,0,P|59:281|63:191,1,180,2|0,0:0|0:0,0:0:0:0:
184,24,65860,1,8,0:0:0:0:
284,44,66018,1,0,0:0:0:0:
336,132,66175,6,0,L|304:328,1,180,2|8,0:0|0:0,0:0:0:0:
176,252,66649,2,0,L|208:56,1,180,2|0,0:0|0:0,0:0:0:0:
400,4,67122,2,0,P|452:36|472:84,1,90,8|0,0:0|0:0,0:0:0:0:
360,264,67437,6,0,P|348:192|344:144,1,90,2|2,0:0|0:0,0:0:0:0:
332,76,67753,1,8,0:0:0:0:
487,155,67910,2,0,P|504:256|460:320,1,180,2|0,0:0|0:0,0:0:0:0:
280,328,68384,1,8,0:0:0:0:
374,363,68541,1,0,0:0:0:0:
360,264,68699,6,0,L|152:232,1,180,2|8,0:0|0:0,0:0:0:0:
1,259,69172,2,0,P|56:327|144:332,1,180,2|0,0:0|0:0,0:0:0:0:
220,124,69645,2,0,L|205:35,1,90,8|0,0:0|0:0,0:0:0:0:
3,115,69961,6,0,L|91:100,1,90,2|2,0:0|0:0,0:0:0:0:
300,65,70268,1,8,0:0:0:0:
140,185,70422,1,2,0:0:0:0:
324,264,70575,1,0,0:0:0:0:
164,384,70729,2,0,L|159:339,1,45
232,228,70883,6,0,P|299:220|388:204,1,135,4|0,0:2|2:0,0:0:0:0:
496,188,71223,6,0,B|536:140|520:60|464:32,1,180,2|8,0:0|0:0,0:0:0:0:
256,60,71696,2,0,P|189:71|84:32,1,180,2|0,0:0|0:0,0:0:0:0:
20,260,72169,1,8,0:0:0:0:
0,160,72327,1,0,0:0:0:0:
184,173,72484,6,0,L|95:191,1,90,2|2,0:0|0:0,0:0:0:0:
328,244,72800,2,0,L|416:262,1,90,8|2,0:0|0:0,0:0:0:0:
132,360,73115,5,2,0:0:0:0:
95,190,73273,1,2,0:0:0:0:
380,360,73431,1,8,0:0:0:0:
417,190,73588,1,0,0:0:0:0:
277,351,73746,6,0,P|232:276|255:192,1,180,2|8,0:0|0:0,0:0:0:0:
464,104,74219,2,0,P|510:178|486:262,1,180,2|0,0:0|0:0,0:0:0:0:
232,92,74693,1,8,0:0:0:0:
328,68,74850,1,0,0:0:0:0:
255,191,75008,6,0,L|166:172,1,90,2|2,0:0|0:0,0:0:0:0:
0,16,75323,2,0,L|88:34,1,90,8|2,0:0|0:0,0:0:0:0:
360,92,75639,5,2,0:0:0:0:
156,296,75797,1,0,0:0:0:0:
152,92,75954,1,8,0:0:0:0:
356,296,76112,1,0,0:0:0:0:
480,180,76270,6,0,P|388:192|302:210,1,180,2|8,0:0|0:0,0:0:0:0:
31,204,76743,2,0,P|121:192|209:173,1,180,2|0,0:0|0:0,0:0:0:0:
452,72,77216,1,8,0:0:0:0:
364,28,77374,1,0,0:0:0:0:
314,190,77532,6,0,P|297:148|296:104,1,90,2|2,0:0|0:0,0:0:0:0:
148,28,77847,2,0,L|137:117,1,90,8|2,0:0|0:0,0:0:0:0:
107,340,78163,5,2,0:0:0:0:
405,340,78320,1,0,0:0:0:0:
122,228,78478,1,8,0:0:0:0:
390,228,78636,1,0,0:0:0:0:
256,370,78793,6,0,B|276:282|236:282|256:192,1,180,2|8,0:0|0:0,0:0:0:0:
464,96,79267,2,0,P|372:108|288:52,1,180,2|0,0:0|0:0,0:0:0:0:
48,96,79740,1,8,0:0:0:0:
140,140,79898,1,0,0:0:0:0:
100,332,80055,5,2,0:0:0:0:
36,220,80213,1,8,0:0:0:0:
36,220,80292,1,8,0:0:0:0:
36,220,80371,1,8,0:0:0:0:
204,252,80528,1,8,0:0:0:0:
476,304,80686,5,8,0:0:0:0:
309,337,80844,1,8,0:0:0:0:
140,140,81002,5,8,0:0:0:0:
372,140,81159,1,8,0:0:0:0:
56,328,81317,6,0,B|36:220|36:220|68:160|68:160|52:68,1,270.000010299683,6|0,0:0|0:0,0:0:0:0:
459,69,81790,2,0,B|444:160|444:160|476:220|476:220|456:328,1,270.000010299683,2|0,0:0|0:0,0:0:0:0:
192,376,82264,5,8,0:0:0:0:
164,220,82421,1,0,0:0:0:0:
276,280,82579,2,0,P|356:264|400:244,1,90,2|0,0:0|0:0,0:0:0:0:
236,104,82894,2,0,P|156:120|112:140,1,90,8|0,0:0|0:0,0:0:0:0:
78,278,83210,2,0,P|109:310|152:324,1,90,2|0,0:0|0:0,0:0:0:0:
348,163,83525,1,8,0:0:0:0:
164,220,83683,1,0,0:0:0:0:
16,48,83841,6,0,L|44:332,1,270.000010299683,6|0,0:0|0:0,0:0:0:0:
469,316,84314,2,0,L|496:48,1,270.000010299683,2|0,0:0|0:0,0:0:0:0:
380,268,84787,5,8,0:0:0:0:
399,80,84945,1,0,0:0:0:0:
303,168,85103,2,0,P|240:132|208:84,1,90,2|0,0:0|0:0,0:0:0:0:
0,60,85418,2,0,L|104:40,1,90,8|0,0:0|0:0,0:0:0:0:
256,12,85734,1,2,0:0:0:0:
92,172,85891,2,0,L|36:184,1,45
0,308,86049,6,0,P|32:356|104:376,1,135,4|0,0:2|2:0,0:0:0:0:
196,276,86364,6,0,P|247:281|308:292,1,90,6|0,0:0|0:0,0:0:0:0:
285,96,86680,2,0,P|240:103|196:108,1,90,8|0,0:0|0:0,0:0:0:0:
68,120,86995,1,0,0:0:0:0:
68,264,87153,1,2,0:0:0:0:
328,192,87311,1,8,0:0:0:0:
136,0,87469,1,0,0:0:0:0:
200,228,87626,6,0,P|209:182|220:108,1,90,2|0,0:0|0:0,0:0:0:0:
448,68,87942,2,0,P|397:61|328:48,1,90,8|0,0:0|0:0,0:0:0:0:
376,348,88257,2,0,P|476:316|504:228,1,180,2|12,0:0|0:0,0:0:0:0:
416,160,88730,1,0,0:0:0:0:
264,240,88888,6,0,L|280:344,1,90,6|0,0:0|0:0,0:0:0:0:
248,144,89204,2,0,L|234:55,1,90,8|0,0:0|0:0,0:0:0:0:
316,0,89519,1,0,0:0:0:0:
152,112,89677,1,2,0:0:0:0:
360,272,89834,1,8,0:0:0:0:
196,384,89992,1,0,0:0:0:0:
364,171,90150,6,0,P|406:184|441:213,1,90,2|0,0:0|0:0,0:0:0:0:
148,212,90465,2,0,P|105:199|70:170,1,90,8|0,0:0|0:0,0:0:0:0:
291,15,90781,2,0,L|256:192,1,180,2|8,0:0|0:0,0:0:0:0:
221,369,91254,1,0,0:0:0:0:
396,312,91412,6,0,B|379:167|497:207|485:68,1,270.000010299683,6|0,0:0|0:0,0:0:0:0:
26,70,91885,2,0,B|14:207|132:167|116:312,1,270.000010299683,2|0,0:0|0:0,0:0:0:0:
256,140,92358,5,8,0:0:0:0:
120,100,92516,1,0,0:0:0:0:
256,244,92674,2,0,P|320:256|356:268,1,90,2|0,0:0|0:0,0:0:0:0:
500,56,92989,2,0,P|456:68|412:75,1,90,8|0,0:0|0:0,0:0:0:0:
192,112,93305,2,0,P|164:72|160:16,1,90,2|0,0:0|0:0,0:0:0:0:
320,112,93620,1,8,0:0:0:0:
132,260,93778,1,0,0:0:0:0:
20,28,93935,6,0,P|0:136|40:292,1,270.000010299683,2|0,0:0|0:0,0:0:0:0:
473,289,94409,2,0,P|511:160|492:28,1,270.000010299683,2|0,0:0|0:0,0:0:0:0:
256,52,94882,5,8,0:0:0:0:
220,228,95040,1,0,0:0:0:0:
348,220,95197,2,0,P|321:175|288:108,1,90,2|0,0:0|0:0,0:0:0:0:
136,79,95513,2,0,P|92:92|48:97,1,90,8|0,0:0|0:0,0:0:0:0:
140,336,95828,2,0,L|336:364,1,180,2|12,0:0|0:0,0:0:0:0:
492,224,96301,1,0,0:0:0:0:
392,148,96459,6,0,P|384:216|372:268,1,90,6|0,0:0|0:0,0:0:0:0:
132,237,96775,2,0,P|124:192|120:148,1,90,8|0,0:0|0:0,0:0:0:0:
104,24,97090,1,0,0:0:0:0:
240,92,97248,1,2,0:0:0:0:
20,288,97405,1,8,0:0:0:0:
0,136,97563,1,0,0:0:0:0:
224,244,97721,6,0,P|280:216|304:176,1,90,2|0,0:0|0:0,0:0:0:0:
320,24,98036,2,0,L|230:10,1,90,12|0,0:0|0:0,0:0:0:0:
421,222,98352,2,0,P|433:132|448:44,1,180,2|12,0:0|0:0,0:0:0:0:
320,24,98825,1,0,0:0:0:0:
168,192,98983,6,0,P|126:175|96:143,1,90,6|0,0:0|0:0,0:0:0:0:
344,192,99298,2,0,P|386:175|416:143,1,90,8|0,0:0|0:0,0:0:0:0:
128,44,99614,1,0,0:0:0:0:
384,44,99771,1,2,0:0:0:0:
256,264,99929,1,8,0:0:0:0:
256,120,100087,1,0,0:0:0:0:
420,192,100245,5,2,0:0:0:0:
384,332,100402,1,8,0:0:0:0:
128,332,100560,1,2,0:0:0:0:
92,192,100718,1,8,0:0:0:0:
368,104,100875,5,8,0:0:0:0:
332,244,101033,1,2,0:0:0:0:
180,244,101191,1,2,0:0:0:0:
144,104,101349,1,2,0:0:0:0:
312,16,101506,6,0,P|356:8|401:5,1,90,2|0,0:0|0:0,0:0:0:0:
200,191,101822,2,0,P|155:199|110:202,1,90,8|0,0:0|0:0,0:0:0:0:
48,312,102137,1,0,0:0:0:0:
244,364,102295,1,2,0:0:0:0:
12,200,102453,1,8,0:0:0:0:
296,168,102611,1,0,0:0:0:0:
143,282,102768,6,0,P|119:245|109:201,1,90,2|0,0:0|0:0,0:0:0:0:
356,371,103084,2,0,L|369:282,1,90,8|0,0:0|0:0,0:0:0:0:
155,12,103399,2,0,L|142:101,1,90,2|0,0:0|0:0,0:0:0:0:
357,12,103715,1,8,0:0:0:0:
256,192,103872,1,0,0:0:0:0:
376,139,104030,6,0,P|418:125|463:123,1,90,2|0,0:0|0:0,0:0:0:0:
392,320,104346,2,0,P|347:318|304:303,1,90,8|0,0:0|0:0,0:0:0:0:
192,244,104661,1,0,0:0:0:0:
292,88,104819,1,2,0:0:0:0:
212,344,104976,1,8,0:0:0:0:
88,144,105134,1,0,0:0:0:0:
39,291,105292,6,0,P|12:255|9:210,1,90,2|0,0:0|0:0,0:0:0:0:
136,0,105607,2,0,P|162:35|165:80,1,90,8|0,0:0|0:0,0:0:0:0:
256,236,105923,2,0,L|272:136,1,90,2|0,0:0|0:0,0:0:0:0:
448,24,106238,1,8,0:0:0:0:
288,48,106396,1,0,0:0:0:0:
388,174,106554,6,0,P|440:148|468:100,1,90,2|0,0:0|0:0,0:0:0:0:
184,80,106869,2,0,L|168:180,1,90,8|0,0:0|0:0,0:0:0:0:
148,296,107185,1,0,0:0:0:0:
352,360,107342,1,2,0:0:0:0:
169,168,107500,1,8,0:0:0:0:
373,232,107658,1,0,0:0:0:0:
212,375,107816,6,0,P|240:339|248:296,1,90,2|0,0:0|0:0,0:0:0:0:
56,164,108131,2,0,P|44:240|44:288,1,90,8|0,0:0|0:0,0:0:0:0:
280,119,108446,2,0,P|288:75|292:31,1,90,2|0,0:0|0:0,0:0:0:0:
132,56,108762,1,8,0:0:0:0:
248,216,108920,1,0,0:0:0:0:
376,196,109077,6,0,L|464:181,1,90,2|0,0:0|0:0,0:0:0:0:
336,364,109393,2,0,P|291:360|251:340,1,90,8|0,0:0|0:0,0:0:0:0:
100,136,109708,1,0,0:0:0:0:
152,356,109866,1,2,0:0:0:0:
236,220,110024,1,8,0:0:0:0:
16,272,110181,1,0,0:0:0:0:
200,120,110339,6,0,P|240:140|300:140,1,90,2|0,0:0|0:0,0:0:0:0:
440,239,110655,2,0,P|395:240|352:252,1,90,8|0,0:0|0:0,0:0:0:0:
132,384,110970,5,2,0:0:0:0:
116,260,111128,1,8,0:0:0:0:
100,136,111286,1,8,0:0:0:0:
84,12,111443,1,8,0:0:0:0:
328,40,111601,6,0,P|351:124|300:204,1,180,2|8,0:0|0:0,0:0:0:0:
183,343,112074,2,0,P|160:259|204:184,1,180,2|0,0:0|0:0,0:0:0:0:
344,319,112547,2,0,P|384:299|414:266,1,90,8|0,0:0|0:0,0:0:0:0:
328,40,112863,6,0,L|216:28,1,90,2|2,0:0|0:0,0:0:0:0:
140,16,113178,1,8,0:0:0:0:
26,160,113336,2,0,L|204:183,1,180,2|0,0:0|0:0,0:0:0:0:
432,288,113809,1,8,0:0:0:0:
372,368,113967,1,0,0:0:0:0:
332,276,114125,6,0,P|328:180|360:96,1,180,2|8,0:0|0:0,0:0:0:0:
507,223,114598,2,0,P|523:309|469:378,1,180,2|0,0:0|0:0,0:0:0:0:
272,356,115071,2,0,P|242:322|231:278,1,90,8|0,0:0|0:0,0:0:0:0:
281,106,115387,6,0,L|289:195,1,90,2|2,0:0|0:0,0:0:0:0:
231,278,115702,1,8,0:0:0:0:
85,122,115860,2,0,P|69:210|104:292,1,180,2|0,0:0|0:0,0:0:0:0:
289,195,116333,1,8,0:0:0:0:
280,96,116491,1,0,0:0:0:0:
344,20,116648,6,0,B|440:12|416:76|512:68,1,180,2|8,0:0|0:0,0:0:0:0:
372,252,117122,2,0,L|152:228,1,180,2|0,0:0|0:0,0:0:0:0:
24,108,117595,2,0,P|68:100|108:72,1,90,8|0,0:0|0:0,0:0:0:0:
92,220,117910,6,0,L|80:331,1,90,2|2,0:0|0:0,0:0:0:0:
152,384,118226,1,8,0:0:0:0:
192,208,118383,2,0,P|272:172|364:192,1,180,2|0,0:0|0:0,0:0:0:0:
256,336,118857,1,8,0:0:0:0:
256,336,119014,1,0,0:0:0:0:
400,284,119172,6,0,B|453:263|453:263|469:51,1,270.000010299683,2|0,0:0|0:0,0:0:0:0:
42,51,119645,2,0,B|58:263|58:263|112:284,1,270.000010299683,2|0,0:0|0:0,0:0:0:0:
336,208,120118,5,8,0:0:0:0:
176,208,120276,1,0,0:0:0:0:
308,108,120434,2,0,P|352:96|396:64,1,90,2|0,0:0|0:0,0:0:0:0:
204,108,120749,2,0,P|160:96|116:64,1,90,8|0,0:0|0:0,0:0:0:0:
336,208,121065,5,0,3:2:0:0:
344,238,121144,1,0,3:0:0:0:
353,268,121222,2,0,L|376:352,1,45,0|0,3:0|3:0,3:0:0:0:
148,312,121380,1,2,3:2:0:0:
156,281,121459,1,0,3:0:0:0:
165,251,121538,2,0,L|176:207,1,45,0|0,3:0|3:0,3:0:0:0:
256,108,121696,6,0,B|320:92|320:92|368:108|368:108|429:94,1,180,2|8,0:0|0:0,0:0:0:0:
256,8,122169,2,0,B|194:21|194:21|146:5|146:5|82:21,1,180,2|0,0:0|0:0,0:0:0:0:
0,212,122642,1,8,0:0:0:0:
68,284,122800,1,0,0:0:0:0:
188,200,122958,6,0,P|143:199|100:188,1,90,2|2,0:0|0:0,0:0:0:0:
323,100,123273,2,0,P|368:99|412:87,1,90,8|2,0:0|0:0,0:0:0:0:
488,252,123588,5,2,0:0:0:0:
312,280,123746,1,0,0:0:0:0:
24,132,123904,1,8,0:0:0:0:
200,104,124062,1,0,0:0:0:0:
147,341,124219,6,0,L|120:164,1,180,2|8,0:0|0:0,0:0:0:0:
364,42,124693,2,0,L|392:220,1,180,2|0,0:0|0:0,0:0:0:0:
281,337,125166,1,8,0:0:0:0:
264,240,125323,1,0,0:0:0:0:
232,55,125481,6,0,L|247:143,1,90,2|2,0:0|0:0,0:0:0:0:
468,283,125797,2,0,L|483:195,1,90,8|2,0:0|0:0,0:0:0:0:
448,24,126112,5,2,0:0:0:0:
392,219,126270,1,0,0:0:0:0:
148,104,126428,1,8,0:0:0:0:
364,104,126585,1,0,0:0:0:0:
120,219,126743,6,0,P|46:171|31:85,1,180,2|8,0:0|0:0,0:0:0:0:
279,13,127216,2,0,L|256:192,1,180,2|0,0:0|0:0,0:0:0:0:
232,372,127689,1,8,0:0:0:0:
332,356,127847,1,0,0:0:0:0:
433,267,128005,6,0,P|388:264|345:255,1,90,2|2,0:0|0:0,0:0:0:0:
367,59,128320,2,0,P|412:62|455:71,1,90,8|2,0:0|0:0,0:0:0:0:
236,340,128636,5,2,0:0:0:0:
256,144,128793,1,0,0:0:0:0:
4,268,128951,1,8,0:0:0:0:
200,240,129109,1,0,0:0:0:0:
43,74,129267,6,0,B|100:120|72:192|72:192|128:248|92:320,1,270.000010299683,2|0,0:0|0:0,0:0:0:0:
468,74,129740,2,0,B|412:120|440:192|440:192|384:248|420:320,1,270.000010299683,2|0,0:0|0:0,0:0:0:0:
256,376,130213,5,8,0:0:0:0:
256,276,130371,1,0,0:0:0:0:
96,100,130528,1,2,0:0:0:0:
416,100,130686,1,8,0:0:0:0:
416,100,130765,1,8,0:0:0:0:
416,100,130844,1,8,0:0:0:0:
256,276,131002,5,8,0:0:0:0:
183,150,131159,1,8,0:0:0:0:
328,150,131317,1,8,0:0:0:0:
96,284,131475,5,8,0:0:0:0:
256,8,131633,1,8,0:0:0:0:
416,284,131790,1,4,0:0:0:0:
