osu file format v5

[General]
AudioFilename: rammstein - du hast.mp3
AudioLeadIn: 0
PreviewTime: 91998
Countdown: 1
SampleSet: Normal
StackLeniency: 0.3
Mode: 0
LetterboxInBreaks: 1
EditorBookmarks: 29438,45602,76173,91998,106997,137453,153160,180497,199442,214670

[Metadata]
Title:Du Hast
Artist:Rammstein
Creator:kingcobra52
Version:Du
Source:
Tags:

[Difficulty]
HPDrainRate:4
CircleSize:4
OverallDifficulty:5
SliderMultiplier:1.6
SliderTickRate:1

[Events]
//Background and Video events
0,0,"rammstein000214xr.jpg"
//Break Periods
2,58396,60354
2,63665,75572
2,122665,136972
2,168707,179657
//Storyboard Layer 0 (Background)
//Storyboard Layer 1 (Failing)
//Storyboard Layer 2 (Passing)
//Storyboard Layer 3 (Foreground)
//Storyboard Sound Samples
//Background Colour Transformations
3,100,0,0,0

[TimingPoints]
19348,479.616306954436,4,1,0,100,1
138292,479.616306954436,4,2,0,100,1
153639,479.616306954436,4,1,0,100,1

[HitObjects]
424,64,30858,1,4
112,192,32537,1,4
56,192,32777,1,4
368,336,34455,1,4
424,336,34695,2,4,B|480:272|424:184,1,160
256,192,35654,12,2,38053
64,56,38532,5,4
64,344,40211,1,4
120,344,40451,1,4
456,344,42129,1,4
456,288,42369,2,4,B|512:216|448:128,1,160
256,192,43328,12,2,45726
64,328,46206,5,4
448,296,47885,1,4
448,240,48124,1,4
192,80,49803,1,4
144,112,50043,2,4,C|96:144|128:176|72:216,1,160
256,192,51002,12,2,53400
432,320,53880,5,4
304,80,55559,1,4
248,104,55798,1,4
40,208,57477,1,4
40,264,57717,2,4,C|72:288|104:264|136:288|176:264,1,160
256,192,61554,12,4,63472
56,336,76901,5,4
56,224,77381,1,0
128,176,77741,1,0
56,128,78100,1,0
56,16,78580,1,4
112,16,78820,1,4
224,16,79300,1,0
304,16,79660,1,0
360,80,80019,1,0
472,96,80499,5,4
472,152,80738,2,4,C|448:200|496:216|456:272,1,160
392,304,81578,1,0
304,304,81937,1,0
240,208,82417,1,4
184,208,82657,2,4,C|136:184|120:232|64:192,1,160
80,120,83496,1,0
80,32,83856,1,0
192,32,84336,5,0
248,32,84575,2,8,C|328:32,1,80
384,32,85055,2,8,B|472:32,1,80
464,256,86254,5,0
408,256,86494,2,8,C|408:344,1,80
352,336,86974,2,8,B|352:248,1,80
144,336,88172,5,0
144,280,88412,2,8,C|72:232,1,80
80,176,88892,2,8,B|160:136,1,80
256,96,89611,2,8,B|304:88|320:48,2,80
256,192,90331,12,4,91770
256,40,92249,5,4
144,72,92729,1,4
80,168,93208,1,4
80,280,93688,1,4
184,328,94168,2,4,B|264:368|344:328,1,160
384,304,94887,2,4,B|472:184|368:88,1,240
256,80,96086,6,0,B|168:104|144:208,1,160
152,248,96806,2,0,B|208:368|368:328,1,240
352,216,98005,2,2,B|440:216,1,80
352,136,98724,2,2,B|216:144|144:32,1,240
256,192,99923,12,4,101842
256,272,102321,6,0,B|256:104,2,160
256,192,103760,12,4,105678
256,112,106158,6,0,B|256:288,2,160
392,40,107597,5,4
312,120,108077,1,4
240,32,108556,1,4
168,120,109036,1,4
88,200,109516,2,4,B|48:288|136:360,1,160
176,344,110235,2,4,B|296:392|408:320,1,240
328,240,111434,6,0,B|424:216|432:120,1,160
424,72,112154,2,0,B|320:0|184:64,1,240
96,120,113353,2,2,B|16:184,1,80
32,280,114072,2,2,B|192:288|208:128,1,240
256,192,115271,12,4,117190
336,192,117669,6,0,B|160:192,2,160
256,192,119108,12,4,121026
184,192,121506,6,0,B|352:192,2,160
134,94,138292,6,0,C|198:190|262:94|334:190|408:88,1,480
440,48,139970,1,0
384,48,140210,2,0,C|471:126|375:198|471:262|368:336,1,480
320,328,141889,1,0
264,328,142128,1,2
152,328,142608,1,2
256,192,143088,12,0,145486
47,175,145965,6,0,B|104:112|203:51|331:59|419:115|480:184,1,480
432,216,147644,1,0
472,248,147883,2,0,B|411:318|323:374|195:382|96:321|40:256,1,480
32,208,149562,1,0
72,176,149801,1,2
160,104,150281,1,2
256,192,150761,12,0,153159
256,48,153639,5,4
200,144,154118,1,0
312,144,154598,1,0
256,240,155077,1,0
208,264,155317,1,4
160,240,155557,1,4
48,240,156037,1,0
16,128,156516,1,0
96,48,156996,1,0
152,56,157236,1,4
208,64,157475,2,4,B|224:152|328:152,1,160
424,96,158435,5,0
424,208,158914,1,0
392,256,159154,1,4
343,279,159394,2,4,B|248:272|232:160,1,160
128,168,160353,1,0
48,240,160833,1,0
88,280,161073,5,0
128,320,161312,2,8,C|200:264,1,80
248,264,161792,2,8,B|320:328,1,80
472,168,162991,5,0
472,112,163231,2,8,C|384:56,1,80
344,64,163711,2,8,B|280:120,1,80
72,192,164909,5,0
128,192,165149,2,8,B|176:192|200:240,1,80
232,263,165629,2,8,B|251:301|299:301,1,80
400,248,166348,1,8
440,208,166588,1,8
440,152,166828,1,8
256,192,167068,12,4,168507
256,192,180497,12,4,184334
88,192,184814,5,4
200,192,185293,1,4
312,192,185773,1,4
424,192,186252,2,4,B|464:136|448:80|392:48,1,160
344,48,186972,2,4,B|248:-8|232:152|112:16,1,240,4|4
40,104,188171,6,0,B|49:193|145:225,1,160
104,272,188890,2,0,B|184:368|336:328,1,240
328,216,190089,2,2,B|416:208,1,80
328,128,190809,2,2,B|232:8|200:208|112:32,1,240
256,192,192008,12,4,193926
200,240,194406,5,0
312,240,194886,1,0
256,144,195365,1,0
256,192,195845,12,4,197763
256,136,198243,5,0
200,232,198722,1,0
312,232,199202,1,0
424,232,199682,5,4
480,136,200161,1,4
424,40,200641,1,4
312,40,201121,1,4
200,40,201600,2,4,B|32:40,1,160
40,96,202320,2,4,B|40:360,1,240
152,336,203519,6,0,B|256:352|304:280,1,160
295,231,204238,2,0,B|255:169|151:185,1,160
96,192,204958,1,0
96,72,205437,2,2,B|280:72,1,160
312,72,206157,2,2,B|360:200|448:16|504:152,1,240
256,192,207356,12,4,209274
184,112,209754,5,0
112,192,210233,1,0
184,272,210713,1,0
256,192,211193,12,4,213111
328,112,213591,5,0
400,192,214070,1,0
328,272,214550,1,0
216,272,215029,5,4
136,192,215508,1,4
216,112,215988,1,4
136,192,216468,1,4
64,280,216947,2,4,B|96:368|208:352,1,160
248,352,217667,2,4,B|392:344|408:184,1,240
376,72,218866,6,0,B|208:72,1,160
256,192,219586,12,4,222224
184,64,222703,5,0
104,144,223183,1,0
112,256,223662,1,0
184,344,224142,1,0
256,192,224622,5,4
320,56,225101,5,0
392,144,225581,1,0
392,256,226061,1,0
256,192,226540,12,4,228458
