osu file format v5

[General]
AudioFilename: rammstein - du hast.mp3
AudioLeadIn: 0
PreviewTime: 91998
Countdown: 1
SampleSet: Normal
StackLeniency: 0.3
Mode: 0
LetterboxInBreaks: 1
EditorBookmarks: 29438,45602,63352,76173,91998,106997,137453,153160,180497,199442,214670

[Metadata]
Title:Du Hast
Artist:Rammstein
Creator:kingcobra52
Version:Du Hast Mich
Source:
Tags:

[Difficulty]
HPDrainRate:7
CircleSize:5
OverallDifficulty:8
SliderMultiplier:2.4
SliderTickRate:2

[Events]
//Background and Video events
0,0,"rammstein000214xr.jpg"
//Break Periods
2,58397,60804
2,122904,137242
2,168707,179657
//Storyboard Layer 0 (Background)
//Storyboard Layer 1 (Failing)
//Storyboard Layer 2 (Passing)
//Storyboard Layer 3 (Foreground)
//Storyboard Sound Samples
//Background Colour Transformations
3,100,0,0,0

[TimingPoints]
19348,479.616306954436,4,1,0,100,1
138292,479.616306954436,4,2,0,100,1
153639,479.616306954436,4,1,0,100,1

[HitObjects]
456,48,30858,1,4
112,192,32537,1,4
16,192,32777,1,4
368,336,34455,1,4
464,336,34695,2,4,B|512:280|456:216,1,120
464,128,35175,1,4
256,192,35654,12,2,38053
48,32,38532,5,4
464,32,40211,1,4
464,128,40451,1,4
464,344,42129,1,4
368,344,42369,2,4,B|312:296|256:344,1,120
160,344,42849,1,4
256,192,43328,12,2,45726
88,336,46206,6,4,B|40:296|80:224,1,120
80,128,46686,1,0
176,128,46925,1,0
176,32,47165,1,0
272,32,47405,1,0
368,32,47645,1,0
368,128,47885,1,4
368,224,48124,2,4,B|432:248|424:336,1,120
328,328,48604,5,0
232,328,48844,1,0
136,328,49084,1,0
64,264,49324,1,0
64,168,49563,1,0
64,72,49803,1,4
144,120,50043,2,4,C|176:88|208:104|240:72,1,120
328,80,50523,1,4
256,192,51002,12,2,53400
424,48,53880,6,4,B|472:88|432:160,1,120
432,248,54360,1,0
336,248,54599,1,0
336,344,54839,1,0
240,344,55079,1,0
144,344,55319,1,0
144,248,55559,1,4
144,152,55798,2,4,B|80:128|88:40,1,120
184,56,56278,5,0
280,56,56518,1,0
280,152,56758,1,0
376,152,56998,1,0
376,248,57237,1,0
472,248,57477,1,4
376,248,57717,2,4,C|344:280|312:264|280:296,1,120
192,288,58197,1,4
256,192,61554,12,4,63472
256,192,63712,5,0
176,136,63952,1,0
256,80,64192,1,0
336,136,64431,1,0
376,152,64551,1,0
400,192,64671,1,0
400,288,64911,1,0
312,336,65151,1,4
224,288,65391,1,4
312,248,65630,1,4
224,200,65870,1,0
312,160,66110,1,0
224,112,66349,1,0
184,80,66469,1,0
144,112,66589,1,0
56,160,66829,1,0
48,208,66949,1,0
64,256,67069,1,0
104,280,67189,1,0
152,280,67309,1,4
272,280,67549,5,4
384,320,67789,1,0
360,200,68029,1,0
472,240,68268,1,0
448,184,68388,1,0
472,128,68508,1,0
368,72,68748,1,0
256,24,68988,1,4
144,72,69228,1,4
32,112,69467,1,4
144,152,69707,1,0
32,208,69947,1,0
88,312,70186,1,0
136,352,70306,1,0
184,312,70426,1,0
272,232,70666,1,0
328,232,70786,1,0
384,232,70906,1,0
328,232,71026,1,0
272,232,71146,1,4
384,136,71386,5,4
256,64,71626,1,0
128,136,71866,1,0
48,256,72105,1,0
88,312,72225,1,0
160,328,72345,1,0
304,328,72585,1,0
448,328,72825,1,4
376,200,73065,1,4
448,80,73304,1,4
304,80,73544,1,0
376,200,73784,1,0
232,200,74023,1,0
168,232,74143,1,0
104,200,74263,1,0
64,336,74503,1,0
136,344,74623,1,0
200,320,74743,1,0
256,272,74863,1,0
288,208,74983,1,4
280,40,75223,5,4
432,104,75463,1,0
424,272,75703,1,0
272,344,75942,1,0
184,344,76062,1,0
120,280,76182,1,0
48,128,76422,1,0
128,128,76542,1,0
208,128,76662,1,0
288,128,76782,1,0
368,128,76901,5,4
368,320,77381,1,0
232,264,77741,1,0
96,320,78100,1,0
96,128,78580,1,4
96,32,78820,1,4
288,32,79300,1,0
432,32,79660,1,0
360,152,80019,1,0
288,328,80499,5,4
192,328,80738,2,4,C|136:344|120:280,1,120
104,192,81218,1,0
184,72,81578,1,0
320,112,81937,1,0
344,304,82417,1,4
336,208,82657,2,4,C|400:240|440:184,1,120
464,112,83136,1,0
320,112,83496,1,0
176,112,83856,1,0
32,336,84336,6,0,B|160:336,1,120,0|8
248,336,84815,1,8
344,336,85055,1,8
440,336,85295,1,8
448,144,85774,1,0
448,96,85894,1,0
448,48,86014,1,0
192,48,86254,6,0,B|312:48,1,120,0|8
312,144,86733,1,8
216,144,86973,1,8
120,144,87213,1,8
32,312,87693,1,0
80,328,87813,1,0
128,312,87933,1,0
344,288,88172,6,0,B|304:336|232:312,1,120,0|8
232,216,88651,1,8
144,168,88891,1,8
232,128,89131,1,8
424,128,89611,1,8
328,128,89851,1,8
376,208,90091,1,8
472,208,90331,1,8
256,192,90810,12,4,91770
256,40,92249,5,4
64,192,92729,1,4
256,344,93208,1,4
448,192,93688,1,4
256,32,94168,2,4,B|288:96|232:144,1,120
144,160,94647,1,4
79,231,94887,2,4,B|152:336|304:296,1,240
368,264,95606,1,4
376,72,96086,6,0,B|320:40|256:80,1,120
168,96,96566,1,0
120,176,96806,2,0,B|152:312|312:272,1,240
392,240,97525,1,0
480,280,97765,1,0
416,352,98005,2,2,B|280:352,1,120
200,352,98484,1,0
200,256,98724,2,2,B|56:248|32:112,1,240
88,40,99443,1,2
272,32,99923,5,4
368,48,100163,1,0
432,112,100403,1,0
448,208,100642,1,0
392,288,100882,1,0
344,304,101002,1,0
304,280,101122,1,0
256,192,101242,12,4,101842
256,192,102081,5,4
192,88,102321,1,0
88,80,102561,1,0
24,184,102801,1,0
32,240,102921,1,0
88,264,103041,1,0
192,328,103280,1,0
312,328,103520,1,0
400,216,103760,6,4,B|472:216|496:144,1,120,4|4
376,72,104240,1,0
232,72,104479,1,0
88,72,104719,1,0
136,120,104839,1,0
184,168,104959,1,0
256,192,105079,12,4,105678
256,192,105918,5,4
360,320,106158,1,0
464,192,106398,1,0
360,64,106638,1,0
312,128,106758,1,0
256,192,106877,1,0
136,312,107117,1,0
16,192,107357,1,0
136,72,107597,5,4
480,176,108077,1,4
136,240,108556,1,4
480,336,109036,1,4
136,240,109515,2,4,B|40:152,1,120
48,56,109994,1,4
143,56,110234,2,4,B|240:144|376:72,1,240
464,80,110953,1,4
464,272,111433,6,0,B|424:328|344:288,1,120
264,256,111913,1,0
224,168,112153,2,0,B|144:280|-8:192,1,240
40,104,112872,1,0
120,40,113112,1,0
216,40,113352,2,2,B|344:120,1,120
400,152,113831,1,0
312,192,114071,2,2,B|344:336|184:352,1,240
88,352,114790,1,2
88,152,115271,5,4
152,72,115511,1,0
248,56,115751,1,0
344,80,115990,1,0
400,152,116230,1,0
392,200,116350,1,0
360,232,116470,1,0
256,192,116590,12,4,117190
256,192,117429,5,4
168,280,117669,1,0
280,328,117909,1,0
360,232,118149,1,0
408,272,118269,1,0
456,232,118389,1,0
408,120,118628,1,0
296,72,118868,1,0
152,72,119108,6,4,B|224:72|248:144,1,120,4|4
112,208,119588,1,0
184,336,119827,1,0
248,208,120067,1,0
184,240,120187,1,0
184,168,120307,1,0
256,192,120427,12,4,121026
256,192,121266,5,4
360,56,121506,1,0
464,192,121746,1,0
360,328,121986,1,0
304,264,122106,1,0
256,192,122225,1,0
152,56,122465,1,0
48,192,122705,1,0
40,304,138292,6,0,B|104:216|200:256,1,180
288,288,138891,1,0
320,256,139011,1,0
392,192,139251,2,0,B|424:81|344:33,1,180
248,40,139850,1,0
200,56,139970,5,0
112,96,140210,2,0,B|25:160|63:253,1,180
152,280,140809,1,0
192,296,140929,1,0
280,327,141169,2,0,B|392:359|439:280,1,180
456,184,141769,1,0
456,136,141889,1,0
384,72,142128,1,2
192,72,142608,1,2
256,192,143088,12,0,145486
40,80,145965,6,0,B|104:168|200:128,1,180
288,96,146564,1,0
320,128,146684,1,0
392,192,146924,2,0,B|424:303|344:351,1,180
248,344,147523,1,0
200,328,147643,5,0
112,287,147883,2,0,B|25:224|63:131,1,180
152,104,148482,1,0
192,88,148602,1,0
280,56,148842,2,0,B|392:25|439:104,1,180
456,200,149442,1,0
456,248,149562,1,0
360,248,149801,1,2
168,248,150281,1,2
256,192,150761,12,0,153159
64,48,153639,5,4
96,136,153878,1,4
168,192,154118,1,0
264,200,154358,1,0
352,168,154598,1,0
384,136,154718,1,0
392,88,154838,1,0
488,104,155077,1,0
480,152,155197,1,0
456,192,155317,1,4
392,264,155557,5,4
280,304,155797,1,0
168,264,156037,1,0
88,176,156276,1,0
64,56,156516,1,0
112,24,156636,1,0
168,24,156756,1,0
288,24,156996,1,0
328,64,157116,1,0
288,104,157236,1,0
328,152,157356,1,0
288,200,157475,5,4
216,328,157715,1,4
360,328,157955,1,0
432,200,158195,1,0
424,56,158435,1,0
352,32,158555,1,0
280,56,158674,1,0
136,56,158914,1,0
80,96,159034,1,0
56,168,159154,1,0
80,232,159274,1,0
120,288,159394,5,4
288,312,159634,1,4
440,240,159874,1,0
448,72,160113,1,0
280,56,160353,1,0
280,136,160473,1,0
208,96,160593,1,0
40,96,160833,1,0
40,264,161073,6,0,B|96:304|160:264,1,120,0|8
320,272,161552,1,8
472,344,161792,1,8
432,176,162032,1,8
112,80,162511,1,0
192,48,162631,1,0
112,80,162751,1,0
192,224,162991,6,0,B|112:216|104:288,1,120,0|8
264,224,163470,1,8
432,176,163710,1,8
304,64,163950,1,8
72,304,164430,1,0
136,360,164550,1,0
72,304,164670,1,0
232,360,164909,6,0,B|312:368|344:312,1,120
344,152,165388,1,8
176,152,165628,1,8
8,152,165868,1,8
344,152,166348,1,8
344,320,166588,1,8
488,232,166828,1,8
256,192,167068,12,4,168507
256,192,180497,12,4,184334
48,40,184814,5,4
256,192,185293,1,4
456,40,185773,1,4
456,280,186252,2,4,B|392:248|344:304,1,120
224,304,186731,1,4
256,192,186971,2,4,B|240:40|136:192|80:72,1,240
88,200,187690,1,4
448,48,188170,6,0,B|392:16|328:56,1,120
216,56,188650,1,0
96,56,188890,2,0,B|0:160|104:272,1,240
216,264,189609,1,0
296,176,189849,1,0
376,264,190089,2,2,B|240:264,1,120
136,264,190568,1,0
136,144,190808,2,2,B|280:152|304:288,1,240
424,280,191527,1,2
424,40,192007,5,4
312,80,192247,1,0
424,112,192487,1,0
312,152,192726,1,0
200,192,192966,1,0
144,176,193086,1,0
104,136,193206,1,0
256,192,193326,12,4,193926
256,192,194165,5,4
256,48,194405,1,0
256,192,194645,1,0
256,336,194885,1,0
256,264,195005,1,0
256,192,195125,1,0
112,192,195364,1,0
256,192,195604,1,0
408,264,195844,6,4,B|480:264|504:192,1,120,4|4
424,48,196324,1,0
264,96,196563,1,0
104,48,196803,1,0
40,104,196923,1,0
104,160,197043,1,0
256,192,197163,12,4,197762
256,192,198002,5,4
448,192,198242,1,0
352,24,198482,1,0
160,24,198722,1,0
88,88,198842,1,0
160,144,198961,1,0
160,336,199201,1,0
16,208,199441,1,0
160,88,199682,6,4,B|296:88,1,120
456,160,200161,2,4,B|320:160,1,120
160,232,200641,2,4,B|304:232,1,120
456,312,201121,2,4,B|328:312,1,120
160,232,201599,2,4,B|64:144,1,120
136,80,202078,1,4
231,80,202318,2,4,B|348:143|460:79,1,240
464,176,203037,1,4
48,272,203517,6,0,B|88:328|168:288,1,120
152,176,203997,1,0
152,56,204237,2,0,B|232:168|384:80,1,240
480,120,204956,1,0
448,232,205196,1,0
352,296,205436,2,2,B|224:376,1,120
144,296,205915,1,0
64,207,206155,2,2,B|56:80|208:32,1,240
320,32,206874,1,2
80,248,207355,5,4
184,304,207595,1,0
304,288,207835,1,0
400,216,208074,1,0
440,104,208314,1,0
392,64,208434,1,0
344,24,208554,1,0
256,192,208674,12,4,209274
256,192,209513,5,4
112,192,209753,1,0
184,312,209993,1,0
112,192,210233,1,0
64,136,210353,1,0
120,88,210473,1,0
256,40,210712,1,0
392,88,210952,1,0
392,256,211192,6,4,B|464:256|488:328,1,120,4|4
328,256,211672,1,0
184,336,211911,1,0
32,256,212151,1,0
96,200,212271,1,0
32,144,212391,1,0
256,192,212511,12,4,213110
256,192,213350,5,4
416,88,213590,1,0
416,280,213830,1,0
256,192,214070,1,0
160,192,214190,1,0
96,120,214309,1,0
96,312,214549,1,0
192,312,214670,1,0
288,312,214789,1,0
384,312,214909,1,0
480,312,215029,5,4
400,136,215269,1,0
240,32,215508,1,4
48,72,215749,1,0
40,264,215989,1,4
216,336,216228,1,0
160,152,216468,1,4
320,248,216708,1,0
480,152,216948,2,4,B|368:72,1,120
192,80,217427,1,4
40,200,217667,2,4,B|107:319|243:295,1,240
432,296,218386,1,4
312,40,218866,6,0,B|256:0|192:40,1,120
256,192,219346,1,0
256,192,219586,12,4,222224
64,48,222703,5,4
256,48,222943,1,4
448,48,223183,1,0
448,240,223422,1,0
256,240,223662,1,0
256,336,223782,1,0
176,288,223902,1,0
32,160,224142,1,0
32,352,224382,1,0
256,192,224622,5,4
480,24,224862,5,0
352,168,225101,1,0
480,312,225341,1,0
480,120,225581,1,0
480,216,225701,1,0
400,168,225821,1,0
232,264,226061,1,0
232,72,226300,1,0
256,192,226540,12,4,228458
