osu file format v13

[General]
AudioFilename: Ramin Djawadi - The Throne Is Mine.mp3
AudioLeadIn: 0
PreviewTime: 83341
Countdown: 0
SampleSet: None
StackLeniency: 0.7
Mode: 0
LetterboxInBreaks: 1
WidescreenStoryboard: 0

[Editor]
DistanceSpacing: 1.7
BeatDivisor: 4
GridSize: 4
TimelineZoom: 1

[Metadata]
Title:The Throne Is Mine
TitleUnicode:The Throne Is Mine
Artist:Ramin Djawadi
ArtistUnicode:Ramin Djawadi
Creator:TrigonometrY
Version:Hard
Source:Game of Thrones
Tags:
BeatmapID:456636
BeatmapSetID:191928

[Difficulty]
HPDrainRate:6
CircleSize:4
OverallDifficulty:6
ApproachRate:8
SliderMultiplier:1
SliderTickRate:1

[Events]
//Background and Video events
0,0,"bg.jpg",0,0
//Break Periods
2,111820,114225
//Storyboard Layer 0 (Background)
//Storyboard Layer 1 (Fail)
//Storyboard Layer 2 (Pass)
//Storyboard Layer 3 (Foreground)
//Storyboard Sound Samples
//Background Colour Transformations
3,100,0,0,0

[TimingPoints]
7063,288.461538461538,4,3,1,80,1,0
31210,288.461538461538,3,3,1,80,1,0
32940,284.36018957346,3,3,1,80,1,0
35499,285.714285714286,3,3,1,80,1,0
38070,284.36018957346,3,3,1,80,1,0
45747,340.909090909091,3,3,1,80,1,0
46087,280.373831775701,3,3,1,80,1,0
46367,250,3,3,1,80,1,0
46617,269.058295964126,3,3,1,80,1,0
47020,300,3,3,1,80,1,0
47470,280.373831775701,3,3,1,80,1,0
48311,285.171102661597,3,3,1,80,1,0
62005,-133.333333333333,3,3,1,45,0,0
65421,283.018867924528,3,3,1,45,1,0
65421,-133.333333333333,3,3,1,45,0,0
68817,291.26213592233,3,3,1,45,1,0
68817,-133.333333333333,3,3,1,45,0,0
69690,275.229357798165,3,3,1,45,1,0
69690,-133.333333333333,3,3,1,45,0,0
70515,285.714285714286,3,3,1,45,1,0
70515,-133.333333333333,3,3,1,45,0,0
71372,287.081339712919,3,3,1,45,1,0
71372,-133.333333333333,3,3,1,45,0,0
73094,288.461538461538,3,3,1,45,1,0
73094,-133.333333333333,3,3,1,45,0,0
74824,272.727272727273,3,3,1,45,1,0
74824,-133.333333333333,3,3,1,45,0,0
75642,288.461538461538,3,3,1,45,1,0
75642,-133.333333333333,3,3,1,45,0,0
78238,283.553875236295,3,3,1,45,1,0
83341,287.081339712919,3,2,1,30,1,0
83341,-200,3,2,1,30,0,0
85063,291.26213592233,3,2,1,30,1,0
85063,-200,3,2,1,30,0,0
95548,280.373831775701,3,3,1,80,1,0
101435,283.018867924528,3,3,1,80,1,0
107378,280.373831775701,3,3,1,80,1,0
110742,294.117647058824,3,3,1,80,1,0
110889,295.566502463054,3,3,1,80,1,0
111332,288.461538461538,3,3,1,80,1,0
111620,279.589934762349,3,3,1,80,1,0
114975,280.373831775701,3,3,1,80,1,0
117498,272.727272727273,3,3,1,80,1,0
118316,277.777777777778,3,3,1,80,1,0
138316,285.714285714286,3,3,1,80,1,0
139173,272.727272727273,3,3,1,80,1,0
139991,277.777777777778,3,3,1,80,1,0
142491,276.497695852535,3,3,1,80,1,0
144979,277.777777777778,3,3,1,80,1,0
151645,-83.3333333333333,3,3,1,90,0,0
158312,278.035217794254,3,3,1,90,1,0
158312,-83.3333333333333,3,3,1,90,0,0
171657,-90.9090909090909,3,3,1,90,0,0
172491,-100,3,3,1,80,0,0
173325,-111.111111111111,3,3,1,80,0,0
174994,-90.9090909090909,3,3,1,80,0,0
175828,-100,3,3,1,80,0,0
176662,-111.111111111111,3,3,1,80,0,0
178330,278.035217794254,3,3,1,80,1,0
178330,-83.3333333333333,3,3,1,80,0,0
189173,-83.3333333333333,3,3,1,90,0,0
189590,-83.3333333333333,3,3,1,95,0,0
190007,-83.3333333333333,3,3,1,100,0,0

[Colours]
Combo1 : 188,188,188
Combo2 : 168,0,43
Combo3 : 255,202,17

[HitObjects]
256,192,27832,12,0,30716,0:0:0:0:
256,192,31210,5,4,0:0:0:0:
256,192,32075,1,0,0:0:0:0:
356,144,32363,1,0,0:0:0:0:
352,256,32652,1,0,0:0:0:0:
256,192,32940,1,4,0:0:0:0:
256,292,33508,2,0,L|200:336,1,50
176,360,33793,2,0,P|128:344|76:344,1,100
20,252,34361,1,0,0:0:0:0:
24,240,34503,1,0,0:0:0:0:
28,228,34646,1,4,0:0:0:0:
148,52,35499,6,0,P|97:45|48:32,2,100,0|0|0,0:0|0:0|0:0,0:0:0:0:
240,168,36356,2,0,P|192:180|128:184,1,100,4|0,0:0|0:0,0:0:0:0:
88,176,36784,1,0,0:0:0:0:
272,268,37213,2,0,P|320:280|384:284,1,100,4|0,0:0|0:0,0:0:0:0:
400,328,37641,2,0,L|456:332,1,50
500,312,37927,1,0,0:0:0:0:
488,260,38070,6,0,P|469:187|471:112,1,150,4|0,0:0|0:0,0:0:0:0:
471,113,38923,2,0,L|363:105,1,100
264,132,39491,1,0,0:0:0:0:
172,72,39776,1,4,0:0:0:0:
172,72,40487,1,0,0:0:0:0:
172,72,40629,2,0,P|159:122|132:188,1,100
40,208,41197,2,0,L|52:268,1,50
48,312,41482,1,4,0:0:0:0:
48,312,42335,6,0,P|96:308|168:320,1,100
256,328,42904,1,0,0:0:0:0:
416,208,43188,1,4,0:0:0:0:
408,360,43615,1,0,0:0:0:0:
256,328,44041,2,0,P|204:308|156:316,1,100,4|0,0:0|0:0,0:0:0:0:
112,336,44468,1,0,0:0:0:0:
92,284,44610,1,0,0:0:0:0:
72,232,44752,1,0,0:0:0:0:
52,184,44894,1,4,0:0:0:0:
52,184,45747,6,0,P|56:136|88:84,1,100,0|0,0:0|0:0,0:0:0:0:
180,16,46367,1,0,0:0:0:0:
256,132,46617,1,4,0:0:0:0:
304,300,47170,2,0,L|248:288,1,50
356,236,47470,2,0,L|416:224,1,50
380,312,47750,2,0,L|390:364,1,50
284,216,48030,2,0,L|292:164,1,50
320,88,48311,5,4,0:0:0:0:
64,80,49023,1,0,0:0:0:0:
64,80,49166,2,0,P|36:192|136:112,2,300,0|4|0,0:0|0:0|0:0,0:0:0:0:
256,24,51162,1,0,0:0:0:0:
400,96,51447,1,0,0:0:0:0:
472,116,51590,1,0,0:0:0:0:
420,168,51733,1,4,0:0:0:0:
420,168,52588,6,0,P|364:176|312:196,1,100
276,268,53016,2,0,L|192:288,1,50
176,352,53301,2,0,L|112:340,1,50,0|4,0:0|0:0,0:0:0:0:
28,212,53729,2,0,L|32:160,1,50
96,96,54014,2,0,L|104:152,1,50
176,204,54299,2,0,L|180:148,1,50
244,88,54584,2,0,L|252:144,1,50
324,196,54869,2,0,L|328:140,1,50
388,56,55155,5,4,0:0:0:0:
388,56,56010,2,0,P|412:104|424:156,1,100
448,316,56580,1,0,0:0:0:0:
200,344,56866,1,4,0:0:0:0:
184,352,57293,2,0,L|120:344,1,50
56,356,57579,2,0,L|48:304,1,50
64,148,58006,1,0,0:0:0:0:
176,40,58291,1,0,0:0:0:0:
256,48,58434,1,0,0:0:0:0:
336,56,58577,1,4,0:0:0:0:
336,56,59432,6,0,P|339:112|364:176,1,100
384,236,59860,2,0,P|324:244|280:268,1,100
152,319,60288,2,0,P|34:249|91:124,1,300,4|0,0:0|0:0,0:0:0:0:
256,76,61428,1,0,0:0:0:0:
112,8,61714,1,0,0:0:0:0:
156,76,61856,1,0,0:0:0:0:
200,144,61999,1,4,0:0:0:0:
256,76,62426,5,0,0:0:0:0:
256,76,62569,2,0,L|316:92,1,37.5000014305115,0|0,0:0|0:0,0:0:0:0:
356,80,62854,2,0,P|343:157|388:212,1,150.000005722046
440,240,63567,1,0,0:0:0:0:
472,296,63710,2,0,P|364:276|243:322,1,225.000008583069,4|0,0:0|0:0,0:0:0:0:
140,348,64850,2,0,L|132:300,1,37.5000014305115
76,280,65136,2,0,L|80:220,1,37.5000014305115
132,76,65421,6,0,P|199:151|100:176,1,225.000008583069
132,76,66836,2,0,L|180:80,1,37.5000014305115
227,63,67119,2,0,P|310:134|414:105,1,225.000008583069
414,106,68534,2,0,L|422:142,1,37.5000014305115
436,204,68817,6,0,B|328:152|328:256|220:204,1,225.000008583069
60,124,70515,2,0,B|168:176|168:72|276:124,1,225.000008583069
444,168,72089,5,0,0:0:0:0:
444,168,72233,2,0,P|438:273|337:307,1,225.000008583069
68,168,73815,1,0,0:0:0:0:
67,168,73959,2,0,P|73:273|174:307,1,225.000008583069
420,224,75369,6,0,L|412:172,1,37.5000014305115
396,100,75642,2,0,B|336:116|316:160|328:220|328:220|348:300,1,225.000008583069
92,224,77084,2,0,L|100:172,1,37.5000014305115
116,100,77372,2,0,B|176:116|196:160|184:220|184:220|164:300,1,225.000008583069,0|0,0:0|0:0,0:0:0:0:
256,192,79088,12,0,82916,0:0:0:0:
320,268,83341,6,0,P|404:288|488:280,2,150,4|2|4,0:3|0:0|0:3,0:0:0:0:
84,176,85936,2,0,P|164:172|164:96,1,150,2|4,0:0|0:3,0:0:0:0:
336,114,87684,6,0,P|358:181|428:176,1,150,2|4,0:0|0:3,0:0:0:0:
256,342,89431,2,0,L|256:192,1,150,2|4,0:0|0:3,0:0:0:0:
256,192,91179,5,2,0:0:0:0:
256,192,92053,1,4,0:3:0:0:
219,96,92927,2,0,P|292:90|346:140,1,150,2|4,0:0|0:3,0:0:0:0:
346,140,94674,6,0,L|419:155,1,75,2|0,0:0|0:0,0:0:0:0:
436,196,95257,1,0,0:0:0:0:
452,236,95402,1,0,0:0:0:0:
468,276,95548,6,0,L|256:248,1,200,4|0,0:0|0:0,0:0:0:0:
108,300,96389,2,0,L|207:312,1,100,0|0,0:0|0:0,0:0:0:0:
360,264,96949,1,0,0:0:0:0:
240,156,97230,2,0,L|252:52,2,100,4|0|0,0:0|0:0|0:0,0:0:0:0:
88,108,98071,2,0,B|72:208|72:208|124:220|160:248|160:248|132:292|148:360,1,300,0|4,0:0|0:0,0:0:0:0:
304,324,99192,5,0,0:0:0:0:
464,344,99473,1,0,0:0:0:0:
468,184,99753,2,0,P|473:128|492:80,2,100,0|0|0,0:0|0:0|0:0,0:0:0:0:
312,212,100594,2,0,P|256:206|208:188,1,100,4|0,0:0|0:0,0:0:0:0:
64,136,101155,1,0,0:0:0:0:
123,284,101435,2,0,P|264:332|413:324,1,300,0|4,0:0|0:0,0:0:0:0:
508,196,102567,5,0,0:0:0:0:
348,180,102850,1,0,0:0:0:0:
414,325,103133,2,0,P|367:338|304:332,1,100
324,148,103699,1,0,0:0:0:0:
390,293,103982,2,0,P|343:306|280:300,1,100,4|0,0:0|0:0,0:0:0:0:
152,376,104548,1,0,0:0:0:0:
12,300,104831,2,0,B|-7:248|4:200|4:200|84:144|84:144|68:96|92:28,1,300,0|4,0:0|0:0,0:0:0:0:
244,24,105963,5,0,0:0:0:0:
316,168,106246,1,0,0:0:0:0:
388,312,106529,2,0,P|444:304|512:272,2,100,0|0|0,0:0|0:0|0:0,0:0:0:0:
316,168,107378,1,4,0:0:0:0:
280,320,107658,1,0,0:0:0:0:
424,160,107938,1,0,0:0:0:0:
280,88,108219,2,0,P|232:88|168:76,2,100,0|0|0,0:0|0:0|0:0,0:0:0:0:
424,160,109060,5,4,0:0:0:0:
356,340,109340,1,0,0:0:0:0:
204,224,109620,1,0,0:0:0:0:
388,172,109901,1,0,0:0:0:0:
332,356,110181,1,0,0:0:0:0:
180,240,110462,2,0,L|132:288,1,50
44,344,110742,1,0,0:0:0:0:
48,292,110889,1,0,0:0:0:0:
52,240,111036,1,0,0:0:0:0:
56,188,111184,1,0,0:0:0:0:
60,136,111332,1,0,0:0:0:0:
64,84,111476,1,0,0:0:0:0:
68,32,111620,1,4,0:0:0:0:
180,176,114975,5,4,0:0:0:0:
180,176,115816,2,0,P|241:164|284:168,1,100
451,82,116376,2,0,P|440:130|439:180,1,100,0|4,0:0|0:0,0:0:0:0:
439,180,117498,2,0,P|389:184|340:194,1,100
207,282,118043,2,0,P|157:278|108:266,1,100,0|4,0:0|0:0,0:0:0:0:
109,267,119149,6,0,P|111:218|120:168,1,100
176,20,119704,1,0,0:0:0:0:
122,169,119982,1,4,0:0:0:0:
122,169,120816,2,0,P|70:169|16:160,2,100,0|0|0,0:0|0:0|0:0,0:0:0:0:
256,60,121649,5,4,0:0:0:0:
256,60,122482,1,0,0:0:0:0:
392,92,122760,1,0,0:0:0:0:
296,192,123038,1,0,0:0:0:0:
256,60,123316,1,4,0:0:0:0:
256,60,124149,2,0,P|204:62|152:68,2,100,0|0|0,0:0|0:0|0:0,0:0:0:0:
416,72,124982,5,4,0:0:0:0:
280,156,125260,1,0,0:0:0:0:
344,8,125538,1,0,0:0:0:0:
376,164,125816,1,4,0:0:0:0:
108,64,126232,1,4,0:0:0:0:
156,348,126649,1,4,0:0:0:0:
156,348,127482,2,0,P|100:356|52:356,2,100,0|0|0,0:0|0:0|0:0,0:0:0:0:
220,224,128316,5,4,0:0:0:0:
220,224,129427,2,0,P|284:224|348:216,1,100,0|0,0:0|0:0,0:0:0:0:
480,272,129982,2,0,P|484:160|460:60,1,200,4|0,0:0|0:0,0:0:0:0:
304,79,130816,2,0,P|331:174|320:273,1,200
252,316,131510,1,0,0:0:0:0:
172,304,131649,6,0,P|235:235|321:274,1,200,4|0,0:0|0:0,0:0:0:0:
476,256,132482,2,0,P|424:164|336:104,1,200
396,304,133316,2,0,P|332:216|240:176,1,200,4|0,0:0|0:0,0:0:0:0:
32,120,134149,2,0,P|24:224|80:304,1,200
239,264,134982,5,4,0:0:0:0:
240,264,135816,2,0,P|319:248|400:248,1,150
452,308,136371,1,0,0:0:0:0:
476,232,136510,1,0,0:0:0:0:
500,156,136649,1,4,0:0:0:0:
492,148,137204,1,0,0:0:0:0:
484,140,137760,1,0,0:0:0:0:
324,132,138038,1,0,0:0:0:0:
164,32,138316,6,4,P|156:133|240:190,1,200,4|0,0:0|0:0,0:0:0:0:
396,185,139173,2,0,P|363:49|240:100,1,300,0|4,0:0|0:0,0:0:0:0:
12,188,140407,1,0,0:0:0:0:
248,148,140824,1,0,0:0:0:0:
24,228,141241,1,0,0:0:0:0:
260,188,141657,5,4,0:0:0:0:
260,187,142491,2,0,P|263:241|276:296,1,100
404,308,143043,1,0,0:0:0:0:
168,340,143320,2,0,P|144:220|144:128,1,200,4|0,0:0|0:0,0:0:0:0:
344,44,144149,2,0,P|368:164|368:256,1,200,0|0,0:0|0:0,0:0:0:0:
168,340,144979,5,4,0:0:0:0:
168,340,145812,2,0,P|168:290|160:232,1,100
80,68,146367,1,0,0:0:0:0:
72,240,146645,2,0,P|120:160|224:176,1,200,4|0,0:0|0:0,0:0:0:0:
412,224,147479,2,0,P|364:240|316:240,1,100
344,116,148034,1,0,0:0:0:0:
512,312,148312,6,0,P|352:364|192:332,2,300,4|0|4,0:0|0:0|0:0,0:0:0:0:
512,312,150812,1,0,0:0:0:0:
456,160,151090,1,0,0:0:0:0:
336,268,151367,2,0,L|312:224,1,50
267,136,151645,6,0,P|157:188|80:100,1,239.999992675781,4|0,0:0|0:0,0:0:0:0:
328,68,152479,2,0,P|376:48|472:48,2,119.999996337891,0|0|0,0:0|0:0|0:0,0:0:0:0:
80,101,153312,2,0,P|164:180|272:128,1,239.999992675781,4|0,0:0|0:0,0:0:0:0:
456,100,154145,2,0,P|420:224|320:324,1,239.999992675781
252,328,154840,1,0,0:0:0:0:
280,236,154979,6,0,P|340:140|252:52,1,239.999992675781,4|0,0:0|0:0,0:0:0:0:
400,256,155812,2,0,P|436:136|388:24,1,239.999992675781
256,144,156645,1,4,0:0:0:0:
256,144,157479,1,0,0:0:0:0:
108,100,157756,1,0,0:0:0:0:
404,188,158034,1,0,0:0:0:0:
107,100,158312,6,0,P|127:221|184:344,1,239.999992675781,4|0,0:0|0:0,0:0:0:0:
405,100,159146,2,0,P|385:221|328:344,1,239.999992675781,0|0,0:0|0:0,0:0:0:0:
108,100,159980,2,0,P|256:187|405:100,1,359.999989013672,4|0,0:0|0:0,0:0:0:0:
220,80,161092,1,0,0:0:0:0:
108,100,161370,1,0,0:0:0:0:
332,60,161648,6,0,P|336:184|380:296,1,239.999992675781,4|0,0:0|0:0,0:0:0:0:
512,208,162482,1,0,0:0:0:0:
512,208,163316,2,0,P|390:213|272:256,1,239.999992675781,4|0,0:0|0:0,0:0:0:0:
0,176,164150,2,0,P|122:171|240:128,1,239.999992675781,0|0,0:0|0:0,0:0:0:0:
128,280,164984,6,0,B|200:264|264:240|320:228|356:168|348:108|308:52,1,359.999989013672,4|0,0:0|0:0,0:0:0:0:
104,76,166236,2,0,P|73:55|16:48,2,59.9999981689454,0|0|0,0:0|0:0|0:0,0:0:0:0:
188,128,166653,2,0,P|160:218|16:240,1,239.999992675781,4|0,0:0|0:0,0:0:0:0:
324,128,167487,2,0,P|308:240|236:352,1,239.999992675781
188,128,168321,6,0,P|204:240|276:352,1,239.999992675781,4|0,0:0|0:0,0:0:0:0:
324,128,169155,2,0,P|352:218|496:240,1,239.999992675781,0|0,0:0|0:0,0:0:0:0:
500,152,169850,1,0,0:0:0:0:
424,92,169989,2,0,P|343:163|224:120,1,239.999992675781,4|0,0:0|0:0,0:0:0:0:
64,24,170823,1,0,0:0:0:0:
228,124,171101,1,0,0:0:0:0:
64,24,171379,2,0,P|53:53|53:84,1,59.9999981689454
56,184,171657,6,0,L|292:212,1,220.000006713867,4|0,0:0|0:0,0:0:0:0:
136,284,172491,6,0,L|368:312,1,200
96,168,173325,6,0,L|304:192,1,179.999994506836,4|0,0:0|0:0,0:0:0:0:
448,156,174160,1,0,0:0:0:0:
340,36,174438,1,0,0:0:0:0:
400,308,174716,1,0,0:0:0:0:
168,316,174994,6,0,L|132:64,1,220.000006713867,4|0,0:0|0:0,0:0:0:0:
72,268,175828,6,0,L|40:36,1,200,0|0,0:0|0:0,0:0:0:0:
184,284,176662,6,0,L|156:80,1,179.999994506836,4|0,0:0|0:0,0:0:0:0:
316,48,177496,2,0,P|371:40|420:40,2,89.9999972534181,0|4|0,0:0|0:0|0:0,0:0:0:0:
100,120,178330,6,0,P|192:224|296:192,1,239.999992675781,4|0,0:0|0:0,0:0:0:0:
404,60,179164,1,0,0:0:0:0:
216,108,179442,1,0,0:0:0:0:
208,300,179720,2,0,P|268:288|326:258,1,119.999996337891,0|4,0:0|0:0,0:0:0:0:
300,248,180832,2,0,P|246:274|187:286,1,119.999996337891,0|0,0:0|0:0,0:0:0:0:
100,348,181249,1,0,0:0:0:0:
84,268,181388,1,0,0:0:0:0:
68,188,181527,1,0,0:0:0:0:
52,108,181666,1,4,0:0:0:0:
60,100,182222,5,0,0:0:0:0:
224,116,182500,2,0,L|352:88,2,119.999996337891,0|0|0,0:0|0:0|0:0,0:0:0:0:
84,268,183334,2,0,L|344:216,1,239.999992675781,4|0,0:0|0:0,0:0:0:0:
484,184,184168,1,0,0:0:0:0:
372,60,184446,1,0,0:0:0:0:
320,220,184724,2,0,L|296:276,1,59.9999981689454
84,268,185002,6,0,P|134:367|220:304,1,239.999992675781,4|0,0:0|0:0,0:0:0:0:
412,280,185836,1,0,0:0:0:0:
256,160,186114,1,0,0:0:0:0:
104,44,186393,1,0,0:0:0:0:
256,160,186671,1,4,0:0:0:0:
388,276,187505,2,0,P|460:276|516:264,2,119.999996337891,0|0|0,0:0|0:0|0:0,0:0:0:0:
196,272,188339,5,4,0:0:0:0:
236,84,188617,1,0,0:0:0:0:
428,44,188895,1,0,0:0:0:0:
192,288,189173,1,4,0:0:0:0:
424,60,189590,1,4,0:0:0:0:
188,304,190007,1,4,0:0:0:0:
