osu file format v14

[General]
AudioFilename: The Children.mp3
AudioLeadIn: 0
PreviewTime: 43190
Countdown: 0
SampleSet: Soft
StackLeniency: 0.7
Mode: 0
LetterboxInBreaks: 0
WidescreenStoryboard: 0

[Editor]
Bookmarks: 31836,34545,43295,53295,63295,73295,83295,93295,98295,103295,108295,113295,118295,120795,130795,140795,150795
DistanceSpacing: 1.3
BeatDivisor: 4
GridSize: 4
TimelineZoom: 1

[Metadata]
Title:The Children
TitleUnicode:The Children
Artist:Ramin Djawadi
ArtistUnicode:Ramin Djawadi
Creator:Sieg
Version:Bakari's Normal
Source:Game of Thrones
Tags:got ost -bakari-
BeatmapID:664146
BeatmapSetID:291907

[Difficulty]
HPDrainRate:4
CircleSize:3.8
OverallDifficulty:4
ApproachRate:5
SliderMultiplier:1.2
SliderTickRate:1

[Events]
//Background and Video events
0,0,"bg.jpg",0,0
//Break Periods
2,115995,119595
//Storyboard Layer 0 (Background)
//Storyboard Layer 1 (Fail)
//Storyboard Layer 2 (Pass)
//Storyboard Layer 3 (Foreground)
//Storyboard Sound Samples

[TimingPoints]
34545,416.666666666667,3,2,1,30,1,0
35378,-100,3,2,1,25,0,0
37878,-100,3,2,1,30,0,0
40378,-100,3,2,1,35,0,0
43294,-100,3,2,1,45,0,0
53294,-100,3,2,1,50,0,0
63294,-100,3,2,1,55,0,0
73295,-100,3,2,1,60,0,0
82878,-100,3,2,1,65,0,0
83295,-100,3,2,1,75,0,0
83711,-100,3,2,1,60,0,0
93295,-100,3,2,1,40,0,0
93399,-100,3,2,1,50,0,0
98295,-100,3,2,1,60,0,0
98399,-100,3,2,1,50,0,0
98920,-100,3,2,1,45,0,0
99545,-100,3,2,1,40,0,0
100170,-100,3,2,1,35,0,0
100795,-100,3,2,1,50,0,0
103295,-100,3,2,1,60,0,0
103399,-100,3,2,1,50,0,0
103920,-100,3,2,1,45,0,0
104545,-100,3,2,1,40,0,0
105170,-100,3,2,1,35,0,0
105795,-100,3,2,1,50,0,0
108295,-100,3,2,1,60,0,0
108399,-100,3,2,1,50,0,0
108920,-100,3,2,1,45,0,0
109545,-100,3,2,1,40,0,0
110170,-100,3,2,1,35,0,0
110795,-100,3,2,1,50,0,0
113295,-100,3,2,1,60,0,0
113399,-100,3,2,1,50,0,0
113920,-100,3,2,1,45,0,0
114545,-100,3,2,1,40,0,0
115170,-100,3,2,1,35,0,0
115795,-100,3,2,1,50,0,0
121211,-100,3,2,1,40,0,0
125795,-100,3,2,1,50,0,0
130795,-100,3,2,1,60,0,0
135795,-100,3,2,1,70,0,0
140795,-100,3,2,1,80,0,0
145795,-100,3,2,1,90,0,0
149545,-100,3,2,1,95,0,0

[Colours]
Combo1 : 45,45,45
Combo2 : 101,0,11
Combo3 : 0,51,81

[HitObjects]
256,192,31628,12,12,34544,0:3:0:0:
80,84,35794,6,0,P|116:76|208:108,1,120,2|0,0:0|0:0,0:0:0:0:
300,212,36628,2,0,P|336:212|368:204,1,60
416,152,37044,1,2,0:0:0:0:
460,300,37461,1,0,0:0:0:0:
308,336,37878,2,0,P|272:332|240:308,1,60,0|0,0:0|0:0,0:0:0:0:
196,264,38294,6,0,L|56:252,1,120,2|0,0:0|0:0,0:0:0:0:
20,108,39128,2,0,P|52:100|96:104,1,60,0|0,0:0|0:0,0:0:0:0:
136,152,39544,1,2,0:0:0:0:
220,20,39961,1,0,0:0:0:0:
320,140,40378,2,0,P|348:140|384:128,1,60,0|0,0:0|0:0,0:0:0:0:
448,164,40794,6,0,L|444:300,1,120,2|0,0:0|0:0,0:0:0:0:
300,344,41628,2,0,P|296:320|296:284,1,60,0|0,0:0|0:0,0:0:0:0:
308,208,42044,2,0,L|312:148,2,60,2|0|0,0:0|0:0|0:0,0:0:0:0:
236,236,42669,1,0,0:0:0:0:
156,256,42878,2,0,L|162:191,1,60,2|0,0:0|0:0,0:0:0:0:
140,120,43294,6,0,P|160:96|352:92,1,240,12|8,0:1|0:0,0:0:0:0:
252,212,44544,2,0,L|8:188,1,240,12|8,0:0|0:0,0:0:0:0:
100,316,45794,6,0,P|136:348|208:368,1,120,12|8,0:1|0:0,0:0:0:0:
268,320,46419,2,0,P|300:316|344:320,2,60,0|8|0,0:0|0:0|0:0,0:0:0:0:
212,268,47044,2,0,P|196:224|304:60,1,240,12|8,0:0|0:0,0:0:0:0:
428,120,48294,6,0,P|452:156|460:240,1,120,12|0,0:1|0:0,0:0:0:0:
304,216,49128,2,0,P|272:212|240:192,1,60,8|0,0:0|0:0,0:0:0:0:
172,184,49544,2,0,P|136:208|96:296,1,120,10|0,0:0|0:0,0:0:0:0:
228,364,50378,2,0,P|244:340|248:308,1,60,8|0,0:0|0:0,0:0:0:0:
308,260,50794,6,0,P|332:264|416:324,2,120,10|0|8,0:0|0:0|0:0,0:0:0:0:
232,284,51836,1,0,0:0:0:0:
156,288,52044,2,0,P|120:252|100:176,2,120
296,360,53294,6,0,B|416:352|416:352|504:268,1,240,12|8,0:1|0:0,0:0:0:0:
392,156,54544,2,0,B|272:164|272:164|184:248,1,240,12|8,0:1|0:0,0:0:0:0:
60,340,55794,5,12,0:0:0:0:
64,184,56211,1,8,0:0:0:0:
76,28,56628,1,8,0:0:0:0:
196,124,57044,2,0,P|208:168|184:256,2,120,12|8|8,0:0|0:0|0:0,0:0:0:0:
336,52,58294,6,0,P|376:56|412:48,2,60,12|0|8,0:0|0:0|0:0,0:0:0:0:
184,20,59128,1,8,0:0:0:0:
220,172,59544,2,0,L|216:296,1,120,10|0,0:0|0:0,0:0:0:0:
355,363,60378,2,0,L|357:298,1,60,0|8,0:0|0:0,0:0:0:0:
316,236,60794,6,0,P|356:200|436:184,1,120,10|0,0:0|0:0,0:0:0:0:
484,48,61628,2,0,P|452:52|416:44,1,60,8|0,0:0|0:0,0:0:0:0:
352,20,62044,1,10,0:0:0:0:
336,176,62461,1,8,0:0:0:0:
192,116,62878,2,0,P|184:88|184:52,1,60,8|0,0:0|0:0,0:0:0:0:
260,72,63294,6,0,P|272:124|120:156,2,240,12|8|0,0:0|0:0|0:0,0:0:0:0:
104,52,65378,1,8,0:0:0:0:
12,180,65794,6,0,L|0:320,1,120,12|8,0:0|0:0,0:0:0:0:
144,368,66628,2,0,P|156:336|152:292,1,60,8|0,0:0|0:0,0:0:0:0:
200,244,67044,2,0,L|328:228,1,120,10|8,0:0|0:0,0:0:0:0:
364,80,67878,2,0,L|300:88,1,60,8|0,0:0|0:0,0:0:0:0:
232,120,68294,6,0,P|188:136|112:104,2,120,12|8|8,0:0|0:0|0:0,0:0:0:0:
384,164,69544,2,0,P|416:212|412:296,1,120
376,340,70170,1,0,0:0:0:0:
308,300,70378,2,0,P|280:292|248:288,1,60,8|0,0:0|0:0,0:0:0:0:
172,272,70795,6,0,P|152:240|144:152,1,120,12|0,0:1|0:0,0:0:0:0:
244,40,71628,2,0,L|312:32,1,60,8|0,0:0|0:0,0:0:0:0:
364,84,72045,1,10,0:0:0:0:
220,144,72461,1,8,0:0:0:0:
340,244,72878,2,0,L|346:312,1,60,8|0,0:0|0:0,0:0:0:0:
272,336,73295,6,0,L|260:200,1,120,12|0,0:0|0:0,0:0:0:0:
108,248,74128,2,0,L|96:308,1,60,8|0,0:0|0:0,0:0:0:0:
40,364,74545,1,10,0:0:0:0:
12,212,74961,2,0,L|24:144,1,60,8|0,0:0|0:0,0:0:0:0:
4,76,75378,1,8,0:0:0:0:
152,32,75795,6,0,P|184:52|248:232,1,240,12|8,0:0|0:0,0:0:0:0:
368,332,77045,2,0,P|416:324|512:164,1,240,12|8,0:1|0:0,0:0:0:0:
376,104,78295,6,0,P|360:140|368:224,1,120,12|0,0:0|0:0,0:0:0:0:
468,104,79128,2,0,P|460:72|436:40,1,60
368,28,79545,2,0,L|296:24,1,60,10|0,0:0|0:0,0:0:0:0:
232,8,79961,1,0,0:0:0:0:
188,156,80378,1,0,0:0:0:0:
308,252,80795,6,0,P|325:308|313:366,1,120,10|0,0:0|0:0,0:0:0:0:
156,356,81628,2,0,L|92:344,1,60,8|0,0:0|0:0,0:0:0:0:
64,272,82045,2,0,P|104:260|200:288,2,120,10|8|8,0:0|0:0|0:0,0:0:0:0:
128,128,83295,6,0,P|120:84|64:20,2,120,10|8|8,0:0|0:0|0:0,0:0:0:0:
264,204,84545,2,0,P|308:188|384:208,1,120,10|8,0:0|0:0,0:0:0:0:
456,340,85378,2,0,L|380:336,1,60
320,356,85795,6,0,P|280:368|124:256,1,240,10|8,0:0|0:0,0:0:0:0:
184,124,87045,2,0,L|52:120,2,120,10|8|8,0:0|0:0|0:0,0:0:0:0:
332,172,88295,2,0,P|340:136|340:100,2,60,10|0|8,0:0|0:0|0:0,0:0:0:0:
392,316,89128,2,0,P|424:316|456:308,1,60,0|8,0:0|0:0,0:0:0:0:
488,240,89545,6,0,L|504:120,2,120,10|8|8,0:0|0:0|0:0,0:0:0:0:
336,212,90795,2,0,L|320:336,1,120,10|8,0:0|0:0,0:0:0:0:
224,208,91628,2,0,L|216:132,1,60,8|0,0:0|0:0,0:0:0:0:
240,72,92045,2,0,P|280:60|368:80,1,120,10|8,0:0|0:0,0:0:0:0:
400,224,92878,2,0,P|396:248|372:288,1,60,8|0,0:0|0:0,0:0:0:0:
304,292,93295,6,0,L|292:144,1,120,14|0,0:3|0:0,0:0:0:0:
248,108,93920,2,0,P|244:88|244:44,2,60
216,180,94545,2,0,P|180:192|88:172,2,120,8|8|0,0:0|0:0|0:0,0:0:0:0:
348,100,95795,5,12,0:0:0:0:
152,178,97045,5,12,0:1:0:0:
264,336,98295,6,0,P|304:320|396:328,1,120,12|0,0:0|0:0,0:0:0:0:
436,268,98920,2,0,P|404:243|312:228,1,120,8|0,0:0|0:0,0:0:0:0:
292,156,99545,2,0,P|324:136|412:116,1,120,8|0,0:0|0:0,0:0:0:0:
436,44,100170,2,0,P|392:24|312:16,1,120,8|0,0:0|0:0,0:0:0:0:
248,44,100795,5,10,0:3:0:0:
184,184,101211,1,0,0:0:0:0:
252,324,101628,2,0,P|278:320|330:328,1,60
364,264,102045,2,0,P|320:240|236:236,1,120,10|10,0:0|0:0,0:0:0:0:
152,352,102878,2,0,L|84:344,1,60,10|0,0:0|0:0,0:0:0:0:
32,296,103295,6,0,P|68:272|156:264,1,120,12|0,0:0|0:0,0:0:0:0:
208,220,103920,2,0,P|236:188|252:108,1,120,8|0,0:0|0:0,0:0:0:0:
204,52,104545,2,0,P|162:43|85:69,1,120,8|0,0:0|0:0,0:0:0:0:
60,138,105170,2,0,P|73:178|134:232,1,120,8|0,0:0|0:0,0:0:0:0:
204,244,105795,5,10,0:3:0:0:
344,172,106211,1,0,0:0:0:0:
196,116,106628,2,0,P|200:88|220:56,1,60
292,56,107045,2,0,L|432:68,1,120,10|10,0:0|0:0,0:0:0:0:
500,196,107878,2,0,P|472:208|432:216,1,60,10|0,0:0|0:0,0:0:0:0:
368,192,108295,6,0,L|376:328,1,120,12|0,0:0|0:0,0:0:0:0:
308,356,108920,2,0,P|268:360|192:320,1,120,8|0,0:0|0:0,0:0:0:0:
164,256,109545,2,0,L|156:128,1,120,8|0,0:0|0:0,0:0:0:0:
220,92,110170,2,0,P|260:88|336:128,1,120,8|0,0:0|0:0,0:0:0:0:
368,188,110795,5,10,0:3:0:0:
420,40,111211,1,0,0:0:0:0:
500,172,111628,2,0,P|504:204|500:248,1,60
424,220,112045,2,0,L|412:360,2,120,10|10|10,0:0|0:0|0:0,0:0:0:0:
416,144,113086,1,0,0:0:0:0:
342,131,113295,6,0,P|306:143|258:219,1,120,12|0,0:0|0:0,0:0:0:0:
308,272,113920,2,0,P|272:284|188:248,1,120,8|0,0:0|0:0,0:0:0:0:
168,184,114545,2,0,P|175:146|248:92,1,120,8|0,0:0|0:0,0:0:0:0:
312,104,115170,2,0,P|340:129|351:219,1,120,8|0,0:0|0:0,0:0:0:0:
308,272,115795,5,14,0:3:0:0:
0,32,120795,6,0,P|68:24|220:100,1,240,10|8,0:3|0:0,0:0:0:0:
256,164,121836,1,0,0:0:0:0:
294,97,122045,2,0,P|393:32|512:32,1,240,12|8,0:1|0:0,0:0:0:0:
492,188,123295,6,0,L|364:160,1,120,12|8,0:0|0:0,0:0:0:0:
300,144,123920,2,0,P|288:112|288:72,2,60,0|8|0,0:0|0:0|0:0,0:0:0:0:
324,220,124545,2,0,P|315:247|245:308,2,120,8|8|8,0:0|0:0|0:0,0:0:0:0:
288,68,125795,6,0,P|368:108|324:8,1,240,12|8,0:1|0:0,0:0:0:0:
204,56,127045,2,0,P|216:112|380:188,1,240,12|8,0:0|0:0,0:0:0:0:
504,268,128295,6,0,P|508:296|504:336,1,60,12|0,0:1|0:0,0:0:0:0:
436,360,128711,1,8,0:0:0:0:
344,232,129128,1,8,0:0:0:0:
200,288,129545,1,12,0:0:0:0:
88,180,129961,2,0,P|76:144|76:108,1,60,8|0,0:0|0:0,0:0:0:0:
128,64,130378,2,0,P|164:68|200:64,1,60,8|0,0:0|0:0,0:0:0:0:
232,132,130795,6,0,P|213:176|145:222,2,120,12|8|8,0:1|0:0|0:0,0:0:0:0:
380,80,132045,2,0,P|392:124|336:320,1,240,12|8,0:0|0:0,0:0:0:0:
192,316,133295,6,0,P|196:272|248:200,1,120,12|8,0:1|0:0,0:0:0:0:
200,76,134128,2,0,P|164:68|128:52,1,60,8|0,0:0|0:0,0:0:0:0:
68,84,134545,2,0,P|64:132|96:220,1,120,12|0,0:0|0:0,0:0:0:0:
236,228,135378,2,0,P|236:204|216:160,1,60,8|0,0:0|0:0,0:0:0:0:
160,216,135795,6,0,P|168:264|236:304,2,120,12|8|8,0:1|0:0|0:0,0:0:0:0:
220,72,137045,1,12,0:0:0:0:
300,204,137461,2,0,L|296:268,1,60
224,304,137878,1,8,0:0:0:0:
380,296,138295,6,0,L|372:156,1,120,12|8,0:0|0:0,0:0:0:0:
483,66,139128,2,0,P|503:98|511:138,1,60,8|0,0:0|0:0,0:0:0:0:
472,188,139545,1,12,0:0:0:0:
356,84,139961,2,0,P|364:50|375:22,2,60,0|8|0,0:0|0:0|0:0,0:0:0:0:
360,164,140586,1,8,0:0:0:0:
292,128,140795,6,0,P|256:112|196:52,1,120,12|8,0:1|0:0,0:0:0:0:
184,212,141628,2,0,P|156:224|112:228,1,60,8|0,0:0|0:0,0:0:0:0:
88,296,142045,2,0,P|116:320|204:344,1,120,12|0,0:0|0:0,0:0:0:0:
324,260,142878,2,0,P|336:288|344:328,1,60,8|0,0:0|0:0,0:0:0:0:
416,340,143295,6,0,P|444:308|468:228,1,120,12|8,0:1|0:0,0:0:0:0:
432,88,144128,2,0,P|408:76|376:44,1,60,8|0,0:0|0:0,0:0:0:0:
304,56,144545,2,0,P|296:96|300:184,1,120,12|8,0:0|0:0,0:0:0:0:
356,320,145378,1,8,0:0:0:0:
208,276,145795,6,0,L|84:264,2,120,12|8|8,0:0|0:0|0:0,0:0:0:0:
244,124,147045,2,0,P|208:136|232:24,1,240,12|8,0:1|0:0,0:0:0:0:
344,124,148295,6,0,P|336:160|264:224,2,120,12|8|8,0:0|0:0|0:0,0:0:0:0:
488,68,149545,2,0,P|500:88|512:128,2,60,12|8|8,0:1|0:0|0:0,0:0:0:0:
412,76,150170,2,0,P|420:104|435:130,2,60,8|8|8,0:0|0:0|0:0,0:0:0:0:
444,4,150795,1,10,0:3:0:0:
