osu file format v14

[General]
AudioFilename: loveeeeee.mp3
AudioLeadIn: 0
PreviewTime: 45794
Countdown: 0
SampleSet: Soft
StackLeniency: 0.7
Mode: 0
LetterboxInBreaks: 0
WidescreenStoryboard: 1

[Editor]
Bookmarks: 25146,47215,69303,91353,96484,102388
DistanceSpacing: 1.4
BeatDivisor: 4
GridSize: 32
TimelineZoom: 1.7

[Metadata]
Title:We Love
TitleUnicode:We Love
Artist:Rameses B
ArtistUnicode:Rameses B
Creator:Milan-
Version:Normal
Source:
Tags:dnb drum and bass liquid uplifting melodic chopping chill
BeatmapID:974423
BeatmapSetID:239330

[Difficulty]
HPDrainRate:4
CircleSize:3
OverallDifficulty:4
ApproachRate:4.5
SliderMultiplier:1
SliderTickRate:1

[Events]
//Background and Video events
0,0,"bg.jpg",0,0
//Break Periods
//Storyboard Layer 0 (Background)
//Storyboard Layer 1 (Fail)
//Storyboard Layer 2 (Pass)
//Storyboard Layer 3 (Foreground)
//Storyboard Sound Samples

[TimingPoints]
3036,344.827586206897,4,2,2,20,1,0
25104,-142.857142857143,4,2,2,20,0,0
36139,-142.857142857143,4,2,2,40,0,0
47173,-100,4,2,2,60,0,1
47260,-100,4,2,2,60,0,0
69242,-100,4,2,2,60,0,1
69329,-100,4,2,2,60,0,0
91311,-100,4,2,2,40,0,0
96484,-100,4,2,2,45,0,0
101656,-100,4,2,2,50,0,0
102001,-100,4,2,2,55,0,0
102346,-100,4,2,2,65,0,0

[Colours]
Combo1 : 219,77,101
Combo2 : 198,204,149
Combo3 : 118,108,236
Combo4 : 105,209,159

[HitObjects]
235,36,25104,6,0,L|385:24,1,139.999995727539,4|0,0:0|0:0,0:0:0:0:
499,176,26484,2,0,L|349:164,1,139.999995727539
164,148,27863,6,0,P|107:187|88:253,1,139.999995727539
260,347,29242,2,0,P|240:281|184:241,1,139.999995727539
30,119,30622,6,0,L|176:95,1,139.999995727539,4|0,0:0|0:0,0:0:0:0:
303,238,32001,2,0,L|441:215,1,139.999995727539
460,20,33380,6,0,L|321:42,1,139.999995727539
302,237,34760,2,0,P|282:304|232:351,1,139.999995727539
125,198,36139,6,0,P|99:154|56:124,2,104.999996795654,4|0|0,0:0|0:0|0:0,0:0:0:0:
127,248,37346,1,2,0:0:0:0:
193,379,37863,2,0,L|344:355,1,139.999995727539
379,363,38725,6,0,P|412:331|428:265,1,104.999996795654,2|2,0:0|0:0,0:0:0:0:
411,178,39587,1,2,0:0:0:0:
320,214,39932,1,2,0:0:0:0:
237,161,40277,2,0,L|224:77,1,69.9999978637696,0|2,0:0|0:0,0:0:0:0:
143,38,40967,2,0,P|132:75|132:107,1,69.9999978637696,2|2,0:0|0:0,0:0:0:0:
149,202,41656,6,0,L|37:191,2,104.999996795654,0|0|0,0:0|0:0|0:0,0:0:0:0:
189,230,42863,1,2,0:0:0:0:
320,164,43380,2,0,L|462:148,1,139.999995727539,0|0,0:0|0:0,0:0:0:0:
497,179,44242,6,0,P|506:232|481:286,1,104.999996795654,2|2,0:0|0:0,0:0:0:0:
404,330,45104,2,0,L|262:314,1,139.999995727539,2|4,0:0|0:0,0:0:0:0:
48,253,47173,6,0,P|93:238|133:200,1,100,4|8,0:0|0:0,0:0:0:0:
126,152,47691,2,0,L|246:135,1,100,2|0,0:0|0:0,0:0:0:0:
274,132,48208,1,8,0:0:0:0:
317,222,48553,2,0,P|358:247|421:248,1,100,0|8,0:0|0:0,0:0:0:0:
456,236,49070,2,0,L|489:87,1,150,2|8,0:0|0:0,0:0:0:0:
431,7,49932,5,0,0:0:0:0:
340,50,50277,2,0,L|239:49,2,100,10|0|10,0:0|0:0|0:0,0:0:0:0:
421,108,51311,1,0,0:0:0:0:
330,151,51656,2,0,L|229:150,2,100,10|8|10,0:0|0:0|0:0,0:0:0:0:
413,206,52691,6,0,P|424:244|424:318,1,100,4|8,0:0|0:0,0:0:0:0:
407,350,53208,2,0,P|366:341|301:342,1,100,2|0,0:0|0:0,0:0:0:0:
259,350,53725,1,8,0:0:0:0:
167,308,54070,2,0,P|126:317|61:316,1,100,0|8,0:0|0:0,0:0:0:0:
23,292,54587,2,0,L|6:136,1,150,2|8,0:0|0:0,0:0:0:0:
36,47,55449,5,0,0:0:0:0:
118,103,55794,1,10,0:0:0:0:
202,49,56139,2,0,P|255:42|310:49,1,100,0|8,0:0|0:0,0:0:0:0:
346,136,56829,2,0,P|293:143|238:136,1,100,0|10,0:0|0:0,0:0:0:0:
147,133,57518,1,8,0:0:0:0:
194,221,57863,1,8,0:0:0:0:
94,217,58208,6,0,P|60:253|47:302,1,100,4|8,0:0|0:0,0:0:0:0:
73,343,58725,2,0,L|186:336,1,100,2|0,0:0|0:0,0:0:0:0:
222,346,59242,1,8,0:0:0:0:
313,306,59587,2,0,L|412:312,1,100,0|8,0:0|0:0,0:0:0:0:
449,346,60104,2,0,P|486:286|482:197,1,150,2|8,0:0|0:0,0:0:0:0:
437,120,60967,5,0,0:0:0:0:
342,153,61311,2,0,P|338:110|367:48,2,100,10|0|10,0:0|0:0|0:0,0:0:0:0:
414,222,62346,1,0,0:0:0:0:
318,250,62691,2,0,L|199:231,2,100,10|8|10,0:0|0:0|0:0,0:0:0:0:
414,222,63725,6,0,P|430:268|425:334,1,100,4|8,0:0|0:0,0:0:0:0:
393,353,64242,2,0,L|288:351,1,100,2|0,0:0|0:0,0:0:0:0:
242,349,64760,1,8,0:0:0:0:
181,270,65104,2,0,P|171:216|174:159,1,100,0|8,0:0|0:0,0:0:0:0:
206,133,65622,2,0,L|52:149,1,150,2|8,0:0|0:0,0:0:0:0:
2,232,66484,5,0,0:0:0:0:
101,239,66829,1,10,0:0:0:0:
151,325,67173,2,0,P|180:344|327:295,1,200,0|4,0:0|0:0,0:0:0:0:
448,142,68553,2,0,P|408:142|349:119,1,100,2|10,0:0|0:0,0:0:0:0:
268,66,69242,6,0,P|194:54|123:76,2,150,4|2|8,0:0|0:0|0:0,0:0:0:0:
261,166,70622,2,0,L|281:318,1,150,0|2,0:0|0:0,0:0:0:0:
269,363,71311,2,0,P|306:348|377:336,1,100,0|8,0:0|0:0,0:0:0:0:
457,375,72001,6,0,L|476:226,2,150,0|0|10,0:0|0:0|0:0,0:0:0:0:
364,336,73380,2,0,L|349:225,1,100,2|8,0:0|0:0,0:0:0:0:
369,138,74070,1,10,0:0:0:0:
315,53,74415,1,10,0:0:0:0:
249,128,74760,6,0,P|211:144|97:120,2,150,4|2|8,0:0|0:0|0:0,0:0:0:0:
315,53,76139,2,0,P|386:33|457:54,1,150,0|2,0:0|0:0,0:0:0:0:
478,99,76829,2,0,L|483:209,1,100,0|8,0:0|0:0,0:0:0:0:
415,273,77518,6,0,P|362:300|265:266,2,150,0|0|10,0:0|0:0|0:0,0:0:0:0:
345,200,78898,2,0,L|351:98,1,100,2|8,0:0|0:0,0:0:0:0:
376,56,79415,2,0,P|343:70|230:61,1,150,0|10,0:0|0:0,0:0:0:0:
142,106,80277,6,0,P|74:74|0:77,2,150,4|2|8,0:0|0:0|0:0,0:0:0:0:
180,198,81656,2,0,L|174:314,1,100,0|8,0:0|0:0,0:0:0:0:
265,341,82346,2,0,L|270:241,1,100,0|8,0:0|0:0,0:0:0:0:
283,192,82863,6,0,P|344:142|421:131,1,150,2|8,0:0|0:0,0:0:0:0:
490,192,83725,2,0,P|508:145|506:96,1,100,2|8,0:0|0:0,0:0:0:0:
412,130,84415,6,0,P|349:120|290:49,1,150,2|0,0:0|0:0,0:0:0:0:
294,8,85104,1,10,0:0:0:0:
199,40,85449,1,10,0:0:0:0:
103,10,85794,6,0,P|101:59|130:118,1,100,4|8,0:0|0:0,0:0:0:0:
192,174,86484,2,0,P|210:219|209:269,1,100,0|8,0:0|0:0,0:0:0:0:
186,314,87001,2,0,L|38:296,1,150,2|10,0:0|0:0,0:0:0:0:
0,198,87863,2,0,L|107:184,1,100,0|8,0:0|0:0,0:0:0:0:
130,145,88380,6,0,P|198:173|270:158,1,150,2|8,0:0|0:0,0:0:0:0:
355,106,89242,1,2,0:0:0:0:
447,144,89587,1,10,0:0:0:0:
480,238,89932,5,12,0:3:0:0:
249,110,91311,6,0,L|150:128,1,100,4|0,0:0|0:0,0:0:0:0:
108,98,91829,2,0,P|138:167|139:241,1,150,4|0,0:3|0:0,0:0:0:0:
177,334,92691,2,0,L|275:315,1,100,4|0,0:3|0:0,0:0:0:0:
317,345,93208,2,0,P|287:276|286:202,1,150,4|0,0:3|0:0,0:0:0:0:
329,112,94070,6,0,L|307:10,1,100,4|0,0:3|0:0,0:0:0:0:
268,45,94587,2,0,P|220:67|128:39,1,150,4|0,0:3|0:0,0:0:0:0:
32,18,95449,2,0,P|32:62|54:120,1,100,4|0,0:3|0:0,0:0:0:0:
87,153,95967,2,0,P|103:217|76:310,1,150,4|10,0:3|0:0,0:0:0:0:
150,372,96829,6,0,L|255:354,1,100,4|8,0:0|0:0,0:0:0:0:
296,368,97346,2,0,P|368:348|412:279,1,150,2|8,0:0|0:0,0:0:0:0:
367,198,98208,6,0,P|346:161|347:89,1,100,4|8,0:0|0:0,0:0:0:0:
373,64,98725,2,0,L|214:63,1,150,2|8,0:0|0:0,0:0:0:0:
143,123,99587,6,0,P|95:128|33:105,1,100,4|8,0:0|0:0,0:0:0:0:
9,78,100104,2,0,L|28:240,1,150,2|8,0:0|0:0,0:0:0:0:
42,326,100967,5,4,0:0:0:0:
210,218,101656,1,2,0:0:0:0:
203,317,102001,1,10,0:0:0:0:
294,277,102346,5,4,0:0:0:0:
