osu file format v14

[General]
AudioFilename: loveeeeee.mp3
AudioLeadIn: 0
PreviewTime: 45794
Countdown: 0
SampleSet: Soft
StackLeniency: 0.5
Mode: 0
LetterboxInBreaks: 0
WidescreenStoryboard: 1

[Editor]
Bookmarks: 25146,47215,69303,91353,96484,102388
DistanceSpacing: 1.1
BeatDivisor: 4
GridSize: 32
TimelineZoom: 2.1

[Metadata]
Title:We Love
TitleUnicode:We Love
Artist:Rameses B
ArtistUnicode:Rameses B
Creator:Milan-
Version:Insane
Source:
Tags:dnb drum and bass liquid uplifting melodic chopping chill
BeatmapID:966001
BeatmapSetID:239330

[Difficulty]
HPDrainRate:6
CircleSize:4
OverallDifficulty:7.5
ApproachRate:8.7
SliderMultiplier:1.6
SliderTickRate:2

[Events]
//Background and Video events
0,0,"bg.jpg",0,0
//Break Periods
//Storyboard Layer 0 (Background)
//Storyboard Layer 1 (Fail)
//Storyboard Layer 2 (Pass)
//Storyboard Layer 3 (Foreground)
//Storyboard Sound Samples

[TimingPoints]
3036,344.827586206897,4,2,2,20,1,0
25104,-200,4,2,2,20,0,0
36139,-166.666666666667,4,2,2,40,0,0
47173,-100,4,2,2,60,0,1
47260,-100,4,2,2,60,0,0
69242,-100,4,2,2,60,0,1
69329,-100,4,2,2,60,0,0
91311,-100,4,2,2,40,0,0
96484,-100,4,2,2,45,0,0
101656,-100,4,2,2,50,0,0
102001,-100,4,2,2,55,0,0
102346,-100,4,2,2,65,0,0

[Colours]
Combo1 : 219,77,101
Combo2 : 198,204,149
Combo3 : 118,108,236
Combo4 : 105,209,159

[HitObjects]
148,24,25104,6,0,P|185:93|186:173,1,160,4|0,0:0|0:0,0:0:0:0:
309,118,26484,2,0,P|271:187|270:267,1,160,0|0,0:0|0:0,0:0:0:0:
109,361,27863,6,0,P|146:291|147:211,1,160,0|0,0:0|0:0,0:0:0:0:
270,267,29242,2,0,P|232:197|231:117,1,160,0|0,0:0|0:0,0:0:0:0:
491,218,30622,6,0,P|427:173|348:170,1,160,4|0,0:0|0:0,0:0:0:0:
270,263,32001,2,0,P|205:308|126:311,1,160
20,165,33380,6,0,P|84:210|163:213,1,160,0|0,0:0|0:0,0:0:0:0:
242,121,34760,2,0,P|306:75|385:72,1,160
376,270,36139,6,0,P|357:231|359:179,1,95.9999970703126,4|0,0:0|0:0,0:0:0:0:
434,212,36656,2,0,P|453:251|451:303,1,95.9999970703126,0|0,0:0|0:0,0:0:0:0:
387,352,37173,2,0,P|366:351|329:355,1,47.9999985351563,0|2,0:0|0:0,0:0:0:0:
153,287,37691,1,0,0:0:0:0:
229,260,37863,1,0,0:0:0:0:
217,340,38036,2,0,P|176:366|117:364,1,95.9999970703126,0|0,0:0|0:0,0:0:0:0:
153,287,38553,1,0,0:0:0:0:
229,260,38725,6,0,P|240:215|226:162,1,95.9999970703126,2|0,0:0|0:0,0:0:0:0:
171,109,39242,2,0,P|163:86|158:42,1,47.9999985351563,2|0,0:0|0:0,0:0:0:0:
240,71,39587,2,0,P|260:67|277:62,3,23.9999992675781,2|0|0|0,0:0|0:0|0:0|0:0,0:0:0:0:
279,53,39932,2,0,P|314:69|340:73,1,47.9999985351563,2|2,0:0|0:0,0:0:0:0:
406,74,40277,6,0,P|410:97|411:169,1,95.9999970703126,0|2,0:0|0:0,0:0:0:0:
377,244,40794,1,0,0:0:0:0:
458,237,40967,2,0,L|496:251,3,23.9999992675781,2|0|0|0,0:0|0:0|0:0|0:0,0:0:0:0:
501,250,41311,2,0,L|505:312,1,47.9999985351563,2|2,0:0|0:0,0:0:0:0:
484,377,41656,6,0,P|463:369|433:340,1,47.9999985351563
362,369,42001,1,0,0:0:0:0:
308,314,42173,1,0,0:0:0:0:
308,314,42260,1,0,0:0:0:0:
308,314,42346,2,0,P|279:323|250:324,1,47.9999985351563,0|0,0:0|0:0,0:0:0:0:
186,290,42691,1,0,0:0:0:0:
125,344,42863,6,0,P|106:302|119:240,1,95.9999970703126,2|0,0:0|0:0,0:0:0:0:
156,184,43380,2,0,P|162:136|142:93,1,95.9999970703126,0|0,0:0|0:0,0:0:0:0:
78,41,43898,1,0,0:0:0:0:
78,41,43984,1,0,0:0:0:0:
78,41,44070,1,0,0:0:0:0:
172,9,44242,1,2,0:0:0:0:
172,9,44329,1,0,0:0:0:0:
172,9,44415,6,0,L|235:16,1,47.9999985351563,0|0,0:0|0:0,0:0:0:0:
306,84,44760,2,0,L|243:91,1,47.9999985351563,2|0,0:0|0:0,0:0:0:0:
180,166,45104,2,0,P|213:169|284:195,1,95.9999970703126,2|2,0:0|0:0,0:0:0:0:
332,274,45622,1,0,0:0:0:0:
337,262,45708,1,0,0:0:0:0:
344,250,45794,5,4,0:0:0:0:
413,97,47173,6,0,P|342:129|266:112,1,160,4|8,0:0|0:0,0:0:0:0:
205,45,47691,2,0,P|185:74|178:127,1,80,2|0,0:0|0:0,0:0:0:0:
177,117,47949,1,0,0:0:0:0:
177,117,48036,1,0,0:0:0:0:
266,112,48208,1,8,0:0:0:0:
111,185,48380,1,2,0:0:0:0:
111,185,48467,1,0,0:0:0:0:
111,185,48553,6,0,P|94:155|91:100,1,80,0|0,0:0|0:0,0:0:0:0:
194,211,48898,1,8,0:0:0:0:
269,166,49070,1,2,0:0:0:0:
269,166,49156,1,0,0:0:0:0:
269,166,49242,2,0,P|315:161|355:173,1,80,0|0,0:0|0:0,0:0:0:0:
275,255,49587,1,8,0:0:0:0:
194,211,49760,6,0,P|229:274|237:380,1,160,2|0,0:0|0:0,0:0:0:0:
334,330,50277,2,0,P|361:301|398:287,1,80,10|0,0:0|0:0,0:0:0:0:
410,291,50536,2,0,P|385:259|375:221,1,80,2|0,0:0|0:0,0:0:0:0:
380,209,50794,2,0,L|355:170,1,40,2|0,0:0|0:0,0:0:0:0:
470,217,50967,1,10,0:0:0:0:
286,254,51139,1,0,0:0:0:0:
286,254,51225,1,0,0:0:0:0:
286,254,51311,6,0,L|199:241,1,80,0|0,0:0|0:0,0:0:0:0:
242,94,51656,2,0,P|264:126|275:165,1,80,10|0,0:0|0:0,0:0:0:0:
275,165,51915,1,2,0:0:0:0:
275,165,52001,2,0,L|217:155,1,40,8|8,0:0|0:0,0:0:0:0:
354,102,52173,2,0,L|412:92,1,40,10|0,0:0|0:0,0:0:0:0:
367,199,52346,1,10,0:0:0:0:
257,63,52518,1,0,0:0:0:0:
257,63,52604,1,0,0:0:0:0:
257,63,52691,6,0,P|177:54|98:67,1,160,4|8,0:0|0:0,0:0:0:0:
37,134,53208,2,0,P|15:100|8:61,1,80,2|0,0:0|0:0,0:0:0:0:
8,61,53467,1,0,0:0:0:0:
8,61,53553,1,0,0:0:0:0:
125,149,53725,1,8,0:0:0:0:
112,239,53898,5,2,0:0:0:0:
112,239,53984,1,0,0:0:0:0:
112,239,54070,2,0,P|143:231|203:234,1,80,0|0,0:0|0:0,0:0:0:0:
265,278,54415,1,8,0:0:0:0:
339,168,54587,1,2,0:0:0:0:
339,168,54673,1,0,0:0:0:0:
339,168,54760,2,0,L|350:258,1,80,0|0,0:0|0:0,0:0:0:0:
333,333,55104,1,8,0:0:0:0:
265,278,55277,6,0,P|182:305|115:283,1,160,2|0,0:0|0:0,0:0:0:0:
58,215,55794,2,0,L|74:128,1,80,10|0,0:0|0:0,0:0:0:0:
72,136,56053,1,2,0:0:0:0:
72,136,56139,2,0,P|111:141|149:129,1,80,0|2,0:0|0:0,0:0:0:0:
159,123,56398,1,0,0:0:0:0:
165,113,56484,1,8,0:0:0:0:
309,203,56656,1,2,0:0:0:0:
309,203,56742,1,0,0:0:0:0:
309,203,56829,6,0,P|269:197|234:178,1,80,0|0,0:0|0:0,0:0:0:0:
157,220,57173,2,0,L|176:297,1,80,10|0,0:0|0:0,0:0:0:0:
250,370,57518,1,8,0:0:0:0:
261,358,57604,1,8,0:0:0:0:
274,348,57691,1,10,0:0:0:0:
288,342,57777,1,0,0:0:0:0:
303,337,57863,1,8,0:0:0:0:
176,297,58036,1,0,0:0:0:0:
258,250,58208,6,0,P|281:175|260:99,1,160,4|8,0:0|0:0,0:0:0:0:
368,10,58725,2,0,P|350:46|347:86,1,80,2|0,0:0|0:0,0:0:0:0:
347,86,58984,1,0,0:0:0:0:
347,86,59070,1,0,0:0:0:0:
260,99,59242,1,8,0:0:0:0:
193,156,59415,1,2,0:0:0:0:
193,156,59501,1,0,0:0:0:0:
193,156,59587,6,0,P|150:167|88:153,1,80,0|0,0:0|0:0,0:0:0:0:
147,78,59932,1,8,0:0:0:0:
57,225,60104,1,2,0:0:0:0:
57,225,60191,1,0,0:0:0:0:
57,225,60277,2,0,P|32:173|39:123,1,80,0|0,0:0|0:0,0:0:0:0:
58,67,60622,1,8,0:0:0:0:
0,8,60794,6,0,P|75:38|165:12,1,160,2|0,0:0|0:0,0:0:0:0:
234,39,61311,2,0,P|250:67|257:130,1,80,10|0,0:0|0:0,0:0:0:0:
250,124,61570,2,0,P|306:112|359:117,1,80,2|0,0:0|0:0,0:0:0:0:
339,120,61829,2,0,P|338:139|342:165,1,40,2|0,0:0|0:0,0:0:0:0:
402,63,62001,1,10,0:0:0:0:
431,204,62173,1,0,0:0:0:0:
431,204,62260,1,0,0:0:0:0:
431,204,62346,6,0,P|463:193|523:194,1,80,0|0,0:0|0:0,0:0:0:0:
461,307,62691,2,0,P|421:306|383:294,1,80,10|0,0:0|0:0,0:0:0:0:
383,294,62949,1,2,0:0:0:0:
383,294,63036,2,0,L|335:306,1,40,8|8,0:0|0:0,0:0:0:0:
256,346,63208,2,0,L|208:333,1,40,10|0,0:0|0:0,0:0:0:0:
128,295,63380,1,10,0:0:0:0:
212,226,63553,1,0,0:0:0:0:
212,226,63639,1,0,0:0:0:0:
212,226,63725,6,0,P|137:258|50:216,1,160,4|8,0:0|0:0,0:0:0:0:
21,157,64242,2,0,P|58:146|103:154,1,80,2|0,0:0|0:0,0:0:0:0:
98,152,64501,1,0,0:0:0:0:
98,152,64587,1,0,0:0:0:0:
106,64,64760,1,8,0:0:0:0:
189,118,64932,1,2,0:0:0:0:
189,118,65018,1,0,0:0:0:0:
189,118,65104,6,0,P|228:124|266:113,1,80,0|0,0:0|0:0,0:0:0:0:
328,49,65449,1,8,0:0:0:0:
389,182,65622,1,2,0:0:0:0:
389,182,65708,1,0,0:0:0:0:
389,182,65794,2,0,L|400:92,1,80,0|0,0:0|0:0,0:0:0:0:
477,151,66139,1,8,0:0:0:0:
298,152,66311,6,0,P|228:115|149:118,1,160,2|0,0:0|0:0,0:0:0:0:
80,174,66829,2,0,P|61:128|75:69,1,80,10|0,0:0|0:0,0:0:0:0:
165,203,67173,1,0,0:0:0:0:
164,219,67260,1,0,0:0:0:0:
161,234,67346,1,2,0:0:0:0:
159,249,67432,1,0,0:0:0:0:
158,264,67518,2,0,L|168:313,1,40,10|0,0:0|0:0,0:0:0:0:
262,348,67691,1,0,0:0:0:0:
265,333,67777,1,0,0:0:0:0:
270,318,67863,5,4,0:0:0:0:
79,174,68553,6,0,L|69:253,1,80,2|0,0:0|0:0,0:0:0:0:
146,117,68898,1,10,0:0:0:0:
165,203,69070,1,0,0:0:0:0:
59,82,69242,6,0,P|136:82|216:31,1,160,4|8,0:0|0:0,0:0:0:0:
294,32,69760,1,2,0:0:0:0:
373,123,69932,2,0,L|380:44,1,80,0|0,0:0|0:0,0:0:0:0:
278,131,70277,2,0,L|284:210,1,80,8|2,0:0|0:0,0:0:0:0:
284,210,70536,1,0,0:0:0:0:
284,210,70622,5,0,0:0:0:0:
202,179,70794,1,0,0:0:0:0:
209,267,70967,1,8,0:0:0:0:
372,166,71139,1,2,0:0:0:0:
372,166,71225,1,0,0:0:0:0:
372,166,71311,2,0,P|381:204|378:244,1,80,0|0,0:0|0:0,0:0:0:0:
278,131,71656,1,8,0:0:0:0:
347,76,71829,6,0,P|275:81|193:35,1,160,2|0,0:0|0:0,0:0:0:0:
115,16,72346,2,0,P|110:61|132:109,1,80,10|0,0:0|0:0,0:0:0:0:
120,93,72604,1,0,0:0:0:0:
119,93,72691,2,0,P|87:116|48:124,1,80,2|0,0:0|0:0,0:0:0:0:
179,159,73036,1,10,0:0:0:0:
122,225,73208,1,0,0:0:0:0:
122,225,73294,1,0,0:0:0:0:
122,225,73380,6,0,P|114:277|132:318,1,80,2|0,0:0|0:0,0:0:0:0:
280,268,73725,2,0,L|201:262,1,80,8|0,0:0|0:0,0:0:0:0:
321,352,74070,1,10,0:0:0:0:
321,352,74156,1,8,0:0:0:0:
321,352,74242,2,0,P|340:341|356:319,1,40,8|0,0:0|0:0,0:0:0:0:
226,342,74415,1,10,0:0:0:0:
374,247,74587,1,0,0:0:0:0:
374,247,74673,1,0,0:0:0:0:
373,246,74760,6,0,P|357:168|376:91,1,160,4|8,0:0|0:0,0:0:0:0:
322,21,75277,1,2,0:0:0:0:
259,82,75449,2,0,P|214:75|172:42,1,80,0|0,0:0|0:0,0:0:0:0:
322,21,75794,1,8,0:0:0:0:
320,159,75967,1,2,0:0:0:0:
320,159,76053,1,0,0:0:0:0:
319,159,76139,6,0,P|282:175|243:177,1,80,0|0,0:0|0:0,0:0:0:0:
259,82,76484,1,8,0:0:0:0:
167,223,76656,1,2,0:0:0:0:
167,223,76742,1,0,0:0:0:0:
167,223,76829,2,0,P|157:184|160:144,1,80,0|0,0:0|0:0,0:0:0:0:
243,177,77173,1,8,0:0:0:0:
242,265,77346,6,0,P|172:264|83:313,1,160,2|0,0:0|0:0,0:0:0:0:
42,376,77863,2,0,P|15:346|5:307,1,80,10|0,0:0|0:0,0:0:0:0:
45,228,78208,1,2,0:0:0:0:
45,228,78294,1,0,0:0:0:0:
45,228,78380,1,0,0:0:0:0:
131,302,78553,2,0,P|111:305|92:303,1,40,10|0,0:0|0:0,0:0:0:0:
124,180,78725,2,0,P|133:197|142:231,1,40,0|0,0:0|0:0,0:0:0:0:
213,272,78898,5,2,0:0:0:0:
264,200,79070,1,0,0:0:0:0:
300,279,79242,2,0,P|299:317|285:376,1,80,8|0,0:0|0:0,0:0:0:0:
264,200,79587,1,10,0:0:0:0:
264,200,79673,1,8,0:0:0:0:
264,200,79760,2,0,P|266:181|277:154,1,40,8|0,0:0|0:0,0:0:0:0:
351,202,79932,1,10,0:0:0:0:
213,272,80104,1,0,0:0:0:0:
213,272,80191,1,0,0:0:0:0:
213,272,80277,6,0,P|143:235|64:231,1,160,4|8,0:0|0:0,0:0:0:0:
13,302,80794,1,2,0:0:0:0:
63,231,80967,2,0,P|69:192|62:148,1,80
129,13,81311,2,0,P|123:52|129:92,1,80,8|2,0:0|0:0,0:0:0:0:
129,92,81570,1,0,0:0:0:0:
129,92,81656,5,0,0:0:0:0:
215,78,81829,1,0,0:0:0:0:
281,136,82001,1,8,0:0:0:0:
356,90,82173,1,2,0:0:0:0:
356,90,82260,1,0,0:0:0:0:
356,90,82346,2,0,P|365:128|362:168,1,80,0|0,0:0|0:0,0:0:0:0:
281,136,82691,1,8,0:0:0:0:
440,205,82863,6,0,P|361:202|277:253,1,160,2|0,0:0|0:0,0:0:0:0:
238,310,83380,2,0,P|207:333|168:341,1,80,8|0,0:0|0:0,0:0:0:0:
168,341,83639,1,0,0:0:0:0:
168,341,83725,2,0,P|157:295|135:258,1,80,2|0,0:0|0:0,0:0:0:0:
80,203,84070,1,8,0:0:0:0:
192,107,84242,1,2,0:0:0:0:
192,107,84329,1,0,0:0:0:0:
192,107,84415,6,0,P|173:142|165:181,1,80,2|0,0:0|0:0,0:0:0:0:
253,172,84760,2,0,P|290:158|336:154,1,80,8|0,0:0|0:0,0:0:0:0:
379,265,85104,1,10,0:0:0:0:
379,265,85191,1,8,0:0:0:0:
379,265,85277,2,0,P|360:254|344:232,1,40,8|0,0:0|0:0,0:0:0:0:
419,191,85449,1,10,0:0:0:0:
299,322,85622,1,0,0:0:0:0:
299,322,85708,1,0,0:0:0:0:
299,322,85794,6,0,P|235:277|156:273,1,160,4|8,0:0|0:0,0:0:0:0:
78,317,86311,1,2,0:0:0:0:
78,228,86484,2,0,P|73:188|59:151,1,80,0|0,0:0|0:0,0:0:0:0:
1,268,86829,1,8,0:0:0:0:
161,279,87001,1,2,0:0:0:0:
161,279,87087,1,0,0:0:0:0:
160,279,87173,6,0,P|176:231|174:193,1,80,0|0,0:0|0:0,0:0:0:0:
152,116,87518,1,10,0:0:0:0:
248,140,87691,1,0,0:0:0:0:
248,140,87777,1,0,0:0:0:0:
248,140,87863,2,0,P|291:113|343:105,1,80,0|0,0:0|0:0,0:0:0:0:
269,227,88208,1,8,0:0:0:0:
348,189,88380,6,0,P|292:260|308:338,1,160,2|0,0:0|0:0,0:0:0:0:
392,281,88898,1,8,0:0:0:0:
216,216,89070,1,0,0:0:0:0:
200,214,89156,1,0,0:0:0:0:
184,211,89242,1,2,0:0:0:0:
168,208,89329,1,0,0:0:0:0:
152,205,89415,1,0,0:0:0:0:
276,138,89587,1,10,0:0:0:0:
178,84,89760,1,8,0:0:0:0:
183,98,89846,1,8,0:0:0:0:
188,112,89932,5,12,0:3:0:0:
276,138,90104,1,0,0:0:0:0:
276,138,90449,5,0,0:0:0:0:
211,198,90622,2,0,P|212:240|231:281,1,80,0|8,0:0|0:3,0:0:0:0:
296,328,90967,2,0,P|311:291|311:251,1,80,4|0,0:3|0:0,0:0:0:0:
225,123,91311,5,4,0:0:0:0:
223,135,91398,1,0,0:0:0:0:
221,148,91484,1,0,0:0:0:0:
218,160,91570,1,0,0:0:0:0:
216,173,91656,1,0,0:0:0:0:
214,185,91742,1,0,0:0:0:0:
211,198,91829,6,0,P|180:204|140:205,3,40,4|0|0|0,0:3|0:0|0:0|0:0,0:0:0:0:
94,166,92173,2,0,P|86:147|82:119,1,40
104,261,92346,2,0,P|86:257|64:246,3,40
195,298,92691,5,4,0:3:0:0:
197,310,92777,1,0,0:0:0:0:
199,323,92863,1,0,0:0:0:0:
202,335,92949,1,0,0:0:0:0:
204,348,93036,1,0,0:0:0:0:
206,360,93122,1,0,0:0:0:0:
209,372,93208,6,0,P|236:364|279:356,3,40,4|0|0|0,0:3|0:0|0:0|0:0,0:0:0:0:
293,288,93553,2,0,P|291:268|286:248,1,40
334,365,93725,2,0,P|353:371|372:376,3,40
448,384,94070,5,4,0:3:0:0:
461,364,94156,1,0,0:0:0:0:
470,341,94242,1,0,0:0:0:0:
474,318,94329,1,0,0:0:0:0:
473,294,94415,1,0,0:0:0:0:
468,271,94501,1,0,0:0:0:0:
457,249,94587,6,0,P|456:224|463:189,3,40,4|0|0|0,0:3|0:0|0:0|0:0,0:0:0:0:
490,128,94932,2,0,P|510:111|528:102,1,40
408,128,95104,2,0,P|409:108|407:88,3,40
330,23,95449,5,4,0:3:0:0:
313,51,95536,1,0,0:0:0:0:
308,82,95622,1,0,0:0:0:0:
311,113,95708,1,0,0:0:0:0:
321,143,95794,2,0,P|302:159|270:182,1,40
316,292,95967,1,4,0:3:0:0:
289,274,96053,1,0,0:0:0:0:
258,264,96139,1,0,0:0:0:0:
226,265,96225,1,0,0:0:0:0:
196,276,96311,2,0,P|168:284|132:284,1,40,0|0,0:0|0:0,0:0:0:0:
68,258,96484,5,10,0:0:0:0:
135,202,96656,1,0,0:0:0:0:
51,171,96829,2,0,P|43:133|51:83,1,80,4|0,0:0|0:0,0:0:0:0:
116,36,97173,2,0,L|208:31,1,80,8|2,0:0|0:0,0:0:0:0:
290,93,97518,1,0,0:0:0:0:
317,93,97604,1,0,0:0:0:0:
344,86,97691,1,0,0:0:0:0:
368,71,97777,1,0,0:0:0:0:
384,48,97863,2,0,P|403:77|425:144,1,80,8|0,0:0|0:0,0:0:0:0:
331,259,98208,6,0,P|334:219|346:181,1,80,4|0,0:0|0:0,0:0:0:0:
422,240,98553,1,8,0:0:0:0:
392,330,98725,1,2,0:0:0:0:
297,350,98898,1,0,0:0:0:0:
276,337,98984,1,0,0:0:0:0:
252,331,99070,1,0,0:0:0:0:
228,335,99156,1,0,0:0:0:0:
206,345,99242,2,0,P|166:352|128:343,1,80,8|0,0:0|0:0,0:0:0:0:
149,189,99587,6,0,P|166:225|170:265,1,80,4|0,0:0|0:0,0:0:0:0:
82,252,99932,1,8,0:0:0:0:
62,166,100104,1,2,0:0:0:0:
126,105,100277,2,0,P|156:95|195:89,1,40,8|8,0:0|0:0,0:0:0:0:
271,163,100449,2,0,P|240:153|202:147,1,40,0|0,0:0|0:0,0:0:0:0:
149,189,100622,6,0,P|128:226|88:252,1,80,8|0,0:0|0:0,0:0:0:0:
11,107,100967,2,0,P|42:130|61:165,1,80,4|0,0:0|0:0,0:0:0:0:
13,239,101311,1,0,0:0:0:0:
126,105,101484,1,2,0:0:0:0:
185,269,101656,5,2,0:0:0:0:
204,282,101742,1,0,0:0:0:0:
226,290,101829,1,2,0:0:0:0:
249,291,101915,1,0,0:0:0:0:
272,287,102001,2,0,P|301:283|342:283,1,40,10|0,0:0|0:0,0:0:0:0:
344,194,102173,2,0,P|374:202|414:224,1,40,2|0,0:0|0:0,0:0:0:0:
468,262,102346,5,4,0:0:0:0:
