osu file format v14

[General]
AudioFilename: loveeeeee.mp3
AudioLeadIn: 0
PreviewTime: 45794
Countdown: 0
SampleSet: Soft
StackLeniency: 0.7
Mode: 0
LetterboxInBreaks: 0
WidescreenStoryboard: 1

[Editor]
Bookmarks: 25146,47215,69303,91353,96484,102388
DistanceSpacing: 1.3
BeatDivisor: 4
GridSize: 32
TimelineZoom: 2.1

[Metadata]
Title:We Love
TitleUnicode:We Love
Artist:Rameses B
ArtistUnicode:Rameses B
Creator:Milan-
Version:Hard
Source:
Tags:dnb drum and bass liquid uplifting melodic chopping chill
BeatmapID:974421
BeatmapSetID:239330

[Difficulty]
HPDrainRate:5
CircleSize:3.5
OverallDifficulty:6
ApproachRate:7
SliderMultiplier:1.3
SliderTickRate:2

[Events]
//Background and Video events
0,0,"bg.jpg",0,0
//Break Periods
//Storyboard Layer 0 (Background)
//Storyboard Layer 1 (Fail)
//Storyboard Layer 2 (Pass)
//Storyboard Layer 3 (Foreground)
//Storyboard Sound Samples

[TimingPoints]
3036,344.827586206897,4,2,2,20,1,0
25104,-200,4,2,2,20,0,0
36139,-166.666666666667,4,2,2,40,0,0
47173,-100,4,2,2,60,0,1
47260,-100,4,2,2,60,0,0
69242,-100,4,2,2,60,0,1
69329,-100,4,2,2,60,0,0
91311,-100,4,2,2,40,0,0
96484,-100,4,2,2,45,0,0
101656,-100,4,2,2,50,0,0
102001,-100,4,2,2,55,0,0
102346,-100,4,2,2,65,0,0

[Colours]
Combo1 : 219,77,101
Combo2 : 198,204,149
Combo3 : 118,108,236
Combo4 : 105,209,159

[HitObjects]
200,174,25104,6,0,P|262:188|321:163,1,130,4|0,0:0|0:0,0:0:0:0:
200,174,26484,2,0,P|141:149|78:163,1,130,0|0,0:0|0:0,0:0:0:0:
200,174,27863,6,0,P|185:236|210:295,1,130,0|0,0:0|0:0,0:0:0:0:
200,174,29242,2,0,P|224:115|210:52,1,130,0|0,0:0|0:0,0:0:0:0:
9,97,30622,6,0,P|72:87|134:106,1,130,4|0,0:0|0:0,0:0:0:0:
254,243,32001,2,0,P|317:252|379:233,1,130,0|0,0:0|0:0,0:0:0:0:
413,45,33380,6,0,P|349:35|287:54,1,130,0|0,0:0|0:0,0:0:0:0:
168,191,34760,2,0,P|104:200|42:181,1,130,0|0,0:0|0:0,0:0:0:0:
287,54,36139,6,0,P|309:85|319:123,1,77.999997619629,4|0,0:0|0:0,0:0:0:0:
301,166,36656,2,0,P|306:235|340:274,1,116.999996429443,0|0,0:0|0:0,0:0:0:0:
378,288,37346,2,0,P|319:291|266:331,1,116.999996429443,2|0,0:0|0:0,0:0:0:0:
248,363,38036,2,0,P|193:375|130:344,1,116.999996429443,0|0,0:0|0:0,0:0:0:0:
116,311,38725,6,0,L|108:191,1,116.999996429443,2|2,0:0|0:0,0:0:0:0:
139,105,39587,2,0,L|146:51,1,38.9999988098145,2|0,0:0|0:0,0:0:0:0:
167,25,39932,2,0,L|254:17,2,77.999997619629,2|0|2,0:0|0:0|0:0,0:0:0:0:
232,106,40967,2,0,L|270:112,2,38.9999988098145,2|0|2,0:0|0:0|0:0,0:0:0:0:
248,198,41656,6,0,L|335:190,1,77.999997619629
343,147,42173,2,0,P|404:150|461:121,1,116.999996429443
476,85,42863,2,0,L|503:211,1,116.999996429443,2|0,0:0|0:0,0:0:0:0:
492,292,43725,2,0,P|467:280|405:277,1,77.999997619629
379,301,44242,6,0,P|328:328|271:321,1,116.999996429443,2|2,0:0|0:0,0:0:0:0:
192,270,45104,2,0,P|152:248|113:243,1,77.999997619629,2|2,0:0|0:0,0:0:0:0:
74,254,45622,2,0,P|52:256|19:256,1,38.9999988098145,0|4,0:0|0:0,0:0:0:0:
154,93,47173,6,0,L|294:84,1,130,4|8,0:0|0:0,0:0:0:0:
346,26,47691,2,0,P|379:82|384:147,1,130,2|0,0:0|0:0,0:0:0:0:
412,227,48208,1,8,0:0:0:0:
327,220,48380,1,2,0:0:0:0:
327,220,48467,1,0,0:0:0:0:
327,220,48553,6,0,L|187:211,1,130,0|8,0:0|0:0,0:0:0:0:
112,204,49070,1,2,0:0:0:0:
141,283,49242,2,0,P|141:321|117:368,1,65
56,303,49587,1,8,0:0:0:0:
7,233,49760,6,0,P|1:177|35:84,1,130,2|0,0:0|0:0,0:0:0:0:
91,60,50277,2,0,L|195:48,1,97.5,10|2,0:0|0:0,0:0:0:0:
211,65,50622,2,0,L|327:59,1,97.5,0|0,0:0|0:0,0:0:0:0:
334,72,50967,1,10,0:0:0:0:
457,235,51311,6,0,P|426:227|326:238,1,130,0|10,0:0|0:0,0:0:0:0:
261,285,51829,1,0,0:0:0:0:
182,253,52001,1,8,0:0:0:0:
182,253,52087,1,8,0:0:0:0:
182,253,52173,1,10,0:0:0:0:
122,313,52346,2,0,P|84:326|41:323,1,65,10|0,0:0|0:0,0:0:0:0:
0,240,52691,6,0,P|65:236|110:184,1,130,4|8,0:0|0:0,0:0:0:0:
28,158,53208,2,0,P|18:95|45:37,1,130,2|0,0:0|0:0,0:0:0:0:
121,76,53725,1,8,0:0:0:0:
198,25,53898,5,2,0:0:0:0:
198,25,53984,1,0,0:0:0:0:
198,25,54070,2,0,P|229:17|335:20,1,130,0|8,0:0|0:0,0:0:0:0:
393,70,54587,1,2,0:0:0:0:
462,20,54760,2,0,P|474:46|474:93,1,65
425,148,55104,1,8,0:0:0:0:
340,136,55277,6,0,P|296:127|203:141,1,130,2|0,0:0|0:0,0:0:0:0:
142,93,55794,2,0,P|99:114|51:121,1,97.5,10|2,0:0|0:0,0:0:0:0:
25,129,56139,2,0,P|64:143|103:184,1,97.5,0|0,0:0|0:0,0:0:0:0:
108,209,56484,2,0,L|99:291,1,65,8|2,0:0|0:0,0:0:0:0:
177,342,56829,6,0,L|194:206,1,130,0|10,0:0|0:0,0:0:0:0:
245,145,57346,1,0,0:0:0:0:
307,220,57518,1,8,0:0:0:0:
307,220,57604,1,8,0:0:0:0:
307,220,57691,1,10,0:0:0:0:
384,186,57863,2,0,P|419:179|466:176,1,65,8|0,0:0|0:0,0:0:0:0:
512,256,58208,6,0,P|437:258|373:274,1,130,4|8,0:0|0:0,0:0:0:0:
317,326,58725,2,0,P|264:328|166:306,1,130,2|0,0:0|0:0,0:0:0:0:
104,328,59242,1,8,0:0:0:0:
133,248,59415,1,2,0:0:0:0:
133,248,59501,1,0,0:0:0:0:
133,248,59587,6,0,P|145:193|139:118,1,130,0|8,0:0|0:0,0:0:0:0:
80,58,60104,2,0,P|142:77|223:53,1,130,2|0,0:0|0:0,0:0:0:0:
277,20,60622,1,8,0:0:0:0:
281,104,60794,6,0,P|274:168|287:232,1,130,2|0,0:0|0:0,0:0:0:0:
361,272,61311,2,0,L|480:257,1,97.5,10|2,0:0|0:0,0:0:0:0:
489,288,61656,2,0,P|510:259|519:180,1,97.5,0|0,0:0|0:0,0:0:0:0:
511,158,62001,1,10,0:0:0:0:
349,22,62346,6,0,P|367:70|355:161,1,130,0|10,0:0|0:0,0:0:0:0:
277,162,62863,1,0,0:0:0:0:
252,243,63036,2,0,L|255:295,2,32.5,8|8|10,0:0|0:0|0:0,0:0:0:0:
194,181,63380,2,0,P|184:160|170:93,1,65,10|0,0:0|0:0,0:0:0:0:
138,38,63725,6,0,P|92:87|96:167,1,130,4|8,0:0|0:0,0:0:0:0:
63,228,64242,2,0,P|104:278|111:342,1,130,2|0,0:0|0:0,0:0:0:0:
193,312,64760,1,8,0:0:0:0:
274,362,64932,1,2,0:0:0:0:
274,362,65018,1,0,0:0:0:0:
274,362,65104,6,0,P|339:338|420:340,1,130,0|8,0:0|0:0,0:0:0:0:
472,379,65622,2,0,P|447:334|445:241,1,130,2|0,0:0|0:0,0:0:0:0:
486,185,66139,1,8,0:0:0:0:
401,181,66311,6,0,P|357:167|250:170,1,130,2|0,0:0|0:0,0:0:0:0:
211,223,66829,2,0,P|196:193|191:156,1,65,10|0,0:0|0:0,0:0:0:0:
206,79,67173,2,0,L|216:40,2,32.5,0|0|2,0:0|0:0|0:0,0:0:0:0:
125,106,67518,2,0,L|112:155,2,32.5,10|0|0,0:0|0:0|0:0,0:0:0:0:
129,21,67863,5,4,0:0:0:0:
0,287,68553,6,0,P|33:276|73:271,1,65,2|0,0:0|0:0,0:0:0:0:
149,208,68898,2,0,P|116:202|86:192,1,65,10|0,0:0|0:0,0:0:0:0:
194,131,69242,6,0,P|256:114|339:136,1,130,4|8,0:0|0:0,0:0:0:0:
393,187,69760,1,2,0:0:0:0:
393,187,69932,2,0,L|385:268,1,65,0|0,0:0|0:0,0:0:0:0:
301,250,70277,2,0,L|309:331,1,65,8|2,0:0|0:0,0:0:0:0:
231,353,70622,6,0,P|205:322|101:300,1,130,0|8,0:0|0:0,0:0:0:0:
43,328,71139,1,2,0:0:0:0:
55,244,71311,2,0,P|46:208|32:167,2,65,0|0|8,0:0|0:0|0:0,0:0:0:0:
134,212,71829,6,0,P|169:176|266:155,1,130,2|0,0:0|0:0,0:0:0:0:
331,187,72346,1,10,0:0:0:0:
331,187,72518,2,0,P|394:199|455:180,1,130,0|0,0:0|0:0,0:0:0:0:
505,110,73036,1,10,0:0:0:0:
449,46,73208,1,0,0:0:0:0:
449,46,73380,6,0,P|385:33|324:52,1,130,2|8,0:0|0:0,0:0:0:0:
268,117,73898,1,0,0:0:0:0:
201,65,74070,1,10,0:0:0:0:
201,65,74156,1,8,0:0:0:0:
201,65,74242,1,8,0:0:0:0:
187,148,74415,2,0,P|191:177|195:234,1,65,10|0,0:0|0:0,0:0:0:0:
112,239,74760,6,0,P|126:277|141:382,1,130,4|8,0:0|0:0,0:0:0:0:
224,349,75277,1,2,0:0:0:0:
224,349,75449,2,0,P|262:346|317:355,1,65,0|0,0:0|0:0,0:0:0:0:
373,347,75794,2,0,P|359:304|342:282,1,65,8|2,0:0|0:0,0:0:0:0:
283,233,76139,6,0,P|266:175|286:100,1,130,0|8,0:0|0:0,0:0:0:0:
345,53,76656,2,0,L|480:45,1,130,2|0,0:0|0:0,0:0:0:0:
508,123,77173,1,8,0:0:0:0:
445,180,77346,6,0,L|310:172,1,130,2|0,0:0|0:0,0:0:0:0:
233,148,77863,2,0,P|183:157|117:234,1,130,10|2,0:0|0:0,0:0:0:0:
149,291,78380,1,0,0:0:0:0:
65,274,78553,2,0,L|9:270,2,32.5,10|0|0,0:0|0:0|0:0,0:0:0:0:
149,291,78898,6,0,L|303:276,1,130,2|8,0:0|0:0,0:0:0:0:
360,267,79415,1,0,0:0:0:0:
440,322,79587,1,10,0:0:0:0:
440,322,79673,1,8,0:0:0:0:
440,322,79760,1,8,0:0:0:0:
445,230,79932,2,0,P|444:194|437:157,1,65,10|0,0:0|0:0,0:0:0:0:
367,119,80277,6,0,P|338:76|328:-17,1,130,4|8,0:0|0:0,0:0:0:0:
243,19,80794,1,2,0:0:0:0:
243,19,80967,2,0,P|201:42|164:51,1,65,0|0,0:0|0:0,0:0:0:0:
110,8,81311,6,0,P|139:75|139:158,2,130,8|0|8,0:0|0:0|0:0,0:0:0:0:
25,9,82173,1,2,0:0:0:0:
39,91,82346,2,0,P|43:153|18:218,1,130,0|8,0:0|0:0,0:0:0:0:
5,299,82863,6,0,P|58:288|146:286,1,130,2|0,0:0|0:0,0:0:0:0:
215,306,83380,2,0,L|225:377,1,65,8|0,0:0|0:0,0:0:0:0:
304,328,83725,2,0,L|313:263,1,65,2|0,0:0|0:0,0:0:0:0:
386,210,84070,2,0,L|376:145,1,65,8|2,0:0|0:0,0:0:0:0:
414,69,84415,6,0,P|353:102|286:93,1,130,2|8,0:0|0:0,0:0:0:0:
227,44,84932,1,0,0:0:0:0:
154,87,85104,1,10,0:0:0:0:
154,87,85191,1,8,0:0:0:0:
154,87,85277,1,8,0:0:0:0:
219,140,85449,2,0,P|225:170|221:216,1,65,10|0,0:0|0:0,0:0:0:0:
178,276,85794,6,0,P|241:242|320:241,1,130,4|8,0:0|0:0,0:0:0:0:
374,274,86311,1,2,0:0:0:0:
420,202,86484,2,0,L|415:65,1,130,0|8,0:0|0:0,0:0:0:0:
342,28,87001,1,2,0:0:0:0:
342,28,87087,1,0,0:0:0:0:
342,28,87173,6,0,P|279:62|200:63,2,130,0|10|0,0:0|0:0|0:0,0:0:0:0:
415,72,88036,2,0,P|452:79|499:75,1,65,0|8,0:0|0:0,0:0:0:0:
512,161,88380,6,0,P|459:173|379:230,1,130,2|0,0:0|0:0,0:0:0:0:
348,284,88898,2,0,P|315:296|265:299,1,65,8|0,0:0|0:0,0:0:0:0:
202,284,89242,2,0,L|152:300,2,32.5,2|0|0,0:0|0:0|0:0,0:0:0:0:
204,199,89587,2,0,L|155:194,2,32.5,10|0|8,0:0|0:0|0:0,0:0:0:0:
265,140,89932,2,0,L|342:127,1,65,12|0,0:3|0:0,0:0:0:0:
168,24,90449,5,0,0:0:0:0:
179,108,90622,2,0,L|34:85,1,130,0|4,0:0|0:3,0:0:0:0:
194,195,91311,6,0,P|192:259|160:315,1,130,4|0,0:0|0:0,0:0:0:0:
96,371,91829,2,0,P|158:355|220:372,1,130,4|0,0:3|0:0,0:0:0:0:
301,347,92346,1,0,0:0:0:0:
414,221,92691,6,0,L|407:77,1,130,4|0,0:3|0:0,0:0:0:0:
324,76,93208,2,0,L|331:220,1,130,4|0,0:3|0:0,0:0:0:0:
303,286,93725,1,0,0:0:0:0:
201,150,94070,6,0,P|141:124|77:126,1,130,4|0,0:3|0:0,0:0:0:0:
54,207,94587,2,0,P|113:232|177:230,1,130,4|0,0:3|0:0,0:0:0:0:
261,216,95104,1,0,0:0:0:0:
384,100,95449,6,0,P|408:124|429:173,1,65,4|0,0:3|0:0,0:0:0:0:
417,235,95794,2,0,L|424:283,2,32.5,0|0|4,0:0|0:0|0:3,0:0:0:0:
338,201,96139,1,0,0:0:0:0:
340,295,96311,1,0,0:0:0:0:
340,295,96398,1,0,0:0:0:0:
340,295,96484,2,0,P|309:319|280:332,1,65,10|0,0:0|0:0,0:0:0:0:
201,322,96829,6,0,L|64:318,1,130,4|8,0:0|0:0,0:0:0:0:
43,220,97346,2,0,L|180:216,1,130,2|0,0:0|0:0,0:0:0:0:
186,226,97777,1,0,0:0:0:0:
200,234,97863,2,0,P|218:207|228:176,1,65,8|0,0:0|0:0,0:0:0:0:
241,92,98208,6,0,P|257:153|313:196,1,130,4|8,0:0|0:0,0:0:0:0:
363,128,98725,2,0,L|496:124,1,130,2|0,0:0|0:0,0:0:0:0:
501,139,99156,1,0,0:0:0:0:
509,153,99242,2,0,P|509:185|490:242,1,65,8|0,0:0|0:0,0:0:0:0:
447,281,99587,6,0,L|314:277,1,130,4|8,0:0|0:0,0:0:0:0:
232,274,100104,1,2,0:0:0:0:
158,315,100277,2,0,L|105:322,3,32.5,8|8|0|0,0:0|0:0|0:0|0:0,0:0:0:0:
104,335,100622,2,0,L|36:323,1,65,8|0,0:0|0:0,0:0:0:0:
100,237,100967,6,0,P|122:181|103:87,1,130,4|0,0:0|0:0,0:0:0:0:
57,50,101484,1,2,0:0:0:0:
138,29,101656,2,0,L|191:14,3,32.5,2|0|2|0,0:0|0:0|0:0|0:0,0:0:0:0:
195,27,102001,2,0,L|238:23,3,32.5,10|0|2|0,0:0|0:0|0:0|0:0,0:0:0:0:
253,34,102346,5,4,0:0:0:0:
