osu file format v14

[General]
AudioFilename: loveeeeee.mp3
AudioLeadIn: 0
PreviewTime: 45794
Countdown: 0
SampleSet: Soft
StackLeniency: 0.5
Mode: 0
LetterboxInBreaks: 0
WidescreenStoryboard: 1

[Editor]
Bookmarks: 25146,47215,69303,91353,96484,102388
DistanceSpacing: 1.1
BeatDivisor: 4
GridSize: 32
TimelineZoom: 1.9

[Metadata]
Title:We Love
TitleUnicode:We Love
Artist:Rameses B
ArtistUnicode:Rameses B
Creator:Milan-
Version:Expert
Source:
Tags:dnb drum and bass liquid uplifting melodic chopping chill
BeatmapID:974422
BeatmapSetID:239330

[Difficulty]
HPDrainRate:7
CircleSize:5
OverallDifficulty:8.5
ApproachRate:9
SliderMultiplier:1.7
SliderTickRate:2

[Events]
//Background and Video events
0,0,"bg.jpg",0,0
//Break Periods
//Storyboard Layer 0 (Background)
//Storyboard Layer 1 (Fail)
//Storyboard Layer 2 (Pass)
//Storyboard Layer 3 (Foreground)
//Storyboard Sound Samples

[TimingPoints]
3036,344.827586206897,4,2,2,20,1,0
25104,-200,4,2,2,20,0,0
36139,-166.666666666667,4,2,2,40,0,0
47173,-100,4,2,2,60,0,1
47260,-100,4,2,2,60,0,0
69242,-100,4,2,2,60,0,1
69329,-100,4,2,2,60,0,0
91311,-100,4,2,2,40,0,0
96484,-100,4,2,2,45,0,0
101656,-100,4,2,2,50,0,0
102001,-100,4,2,2,55,0,0
102346,-100,4,2,2,65,0,0

[Colours]
Combo1 : 219,77,101
Combo2 : 198,204,149
Combo3 : 118,108,236
Combo4 : 105,209,159

[HitObjects]
121,80,25104,6,0,P|204:95|262:155,1,170,4|0,0:0|0:0,0:0:0:0:
366,153,26484,2,0,P|283:167|225:227,1,170
110,370,27863,6,0,P|192:355|250:295,1,170
365,301,29242,2,0,P|282:286|224:226,1,170
418,55,30622,6,0,B|382:148|437:124|390:226,1,170,4|0,0:0|0:0,0:0:0:0:
298,116,32001,2,0,B|333:209|278:185|325:287,1,170
416,362,33380,6,0,P|371:327|253:335,1,170
251,244,34760,2,0,P|168:255|97:211,1,170
187,158,36139,6,0,P|238:164|288:153,1,101.999996887207,4|0,0:0|0:0,0:0:0:0:
357,110,36656,1,0,0:0:0:0:
357,110,37001,1,0,0:0:0:0:
414,168,37173,1,0,0:0:0:0:
357,110,37346,2,0,P|356:66|396:16,1,101.999996887207,2|0,0:0|0:0,0:0:0:0:
434,87,37863,1,0,0:0:0:0:
414,168,38036,2,0,P|417:199|425:237,2,50.9999984436036
434,87,38553,1,0,0:0:0:0:
357,110,38725,6,0,P|304:110|242:94,1,101.999996887207,2|0,0:0|0:0,0:0:0:0:
190,51,39242,1,2,0:0:0:0:
111,116,39415,2,0,L|137:113,2,25.4999992218018,0|0|2,0:0|0:0|0:0,0:0:0:0:
194,181,39760,2,0,L|168:184,2,25.4999992218018,0|0|2,0:0|0:0|0:0,0:0:0:0:
112,243,40104,5,2,0:0:0:0:
112,243,40191,1,0,0:0:0:0:
112,243,40277,2,0,P|129:270|138:300,1,50.9999984436036
54,301,40622,1,2,0:0:0:0:
165,354,40794,2,0,L|140:360,2,25.4999992218018,0|0|2,0:0|0:0|0:0,0:0:0:0:
245,293,41139,2,0,L|219:291,2,25.4999992218018,0|0|2,0:0|0:0|0:0,0:0:0:0:
187,216,41484,5,2,0:0:0:0:
187,216,41570,1,0,0:0:0:0:
187,216,41656,2,0,P|190:197|208:158,1,50.9999984436036
270,122,42001,1,0,0:0:0:0:
188,61,42173,1,0,0:0:0:0:
188,61,42260,1,0,0:0:0:0:
188,61,42346,2,0,L|200:104,3,25.4999992218018
182,98,42691,2,0,P|155:100|115:96,1,50.9999984436036,0|2,0:0|0:0,0:0:0:0:
270,122,43036,6,0,P|297:120|337:124,1,50.9999984436036
396,151,43380,1,0,0:0:0:0:
455,68,43553,1,0,0:0:0:0:
455,68,43639,1,0,0:0:0:0:
455,68,43725,2,0,L|452:100,3,25.4999992218018
460,106,44070,1,0,0:0:0:0:
473,197,44242,5,2,0:0:0:0:
473,197,44329,1,0,0:0:0:0:
473,197,44415,2,0,L|468:230,3,25.4999992218018
399,248,44760,2,0,L|394:215,3,25.4999992218018,2|0|0|0,0:0|0:0|0:0|0:0,0:0:0:0:
324,193,45104,2,0,L|319:226,3,25.4999992218018,2|0|0|0,0:0|0:0|0:0|0:0,0:0:0:0:
248,244,45449,1,2,0:0:0:0:
195,181,45622,1,0,0:0:0:0:
183,177,45708,1,0,0:0:0:0:
170,173,45794,5,4,0:0:0:0:
403,92,47173,5,4,0:0:0:0:
351,160,47346,1,0,0:0:0:0:
321,80,47518,1,8,0:0:0:0:
437,170,47691,1,2,0:0:0:0:
303,230,47863,1,0,0:0:0:0:
303,230,47949,1,0,0:0:0:0:
303,230,48036,1,0,0:0:0:0:
403,92,48208,1,8,0:0:0:0:
240,60,48380,5,2,0:0:0:0:
240,60,48467,1,0,0:0:0:0:
240,60,48553,1,0,0:0:0:0:
261,141,48725,1,0,0:0:0:0:
178,120,48898,1,8,0:0:0:0:
321,80,49070,1,2,0:0:0:0:
339,112,49156,1,0,0:0:0:0:
343,150,49242,1,0,0:0:0:0:
331,186,49329,1,0,0:0:0:0:
305,214,49415,1,0,0:0:0:0:
422,184,49587,1,8,0:0:0:0:
261,141,49760,5,2,0:0:0:0:
261,141,49846,1,0,0:0:0:0:
261,141,49932,1,0,0:0:0:0:
321,80,50104,1,0,0:0:0:0:
186,93,50277,1,10,0:0:0:0:
248,36,50449,1,0,0:0:0:0:
215,15,50536,1,2,0:0:0:0:
178,11,50622,1,0,0:0:0:0:
142,22,50708,1,0,0:0:0:0:
114,48,50794,1,2,0:0:0:0:
186,93,50967,1,10,0:0:0:0:
28,51,51139,5,0,0:0:0:0:
34,71,51225,1,0,0:0:0:0:
40,91,51311,1,0,0:0:0:0:
98,179,51484,1,0,0:0:0:0:
104,159,51570,1,0,0:0:0:0:
110,139,51656,1,10,0:0:0:0:
174,53,51829,5,0,0:0:0:0:
180,73,51915,1,2,0:0:0:0:
186,93,52001,2,0,L|212:126,1,42.5,8|8,0:0|0:0,0:0:0:0:
327,170,52173,2,0,L|277:177,1,42.5,10|0,0:0|0:0,0:0:0:0:
200,235,52346,1,10,0:0:0:0:
296,88,52518,5,0,0:0:0:0:
296,88,52604,1,0,0:0:0:0:
296,88,52691,1,4,0:0:0:0:
327,170,52863,1,0,0:0:0:0:
380,103,53036,1,8,0:0:0:0:
243,148,53208,1,2,0:0:0:0:
204,158,53295,1,0,0:0:0:0:
167,153,53381,1,0,0:0:0:0:
135,133,53467,1,0,0:0:0:0:
115,100,53553,1,0,0:0:0:0:
201,60,53725,1,8,0:0:0:0:
134,237,53898,5,2,0:0:0:0:
134,237,53984,1,0,0:0:0:0:
134,237,54070,1,0,0:0:0:0:
167,153,54242,1,0,0:0:0:0:
176,317,54415,1,8,0:0:0:0:
46,245,54587,1,2,0:0:0:0:
46,245,54673,1,0,0:0:0:0:
46,245,54760,1,0,0:0:0:0:
226,232,54932,1,0,0:0:0:0:
226,232,55018,1,0,0:0:0:0:
226,232,55104,1,8,0:0:0:0:
167,153,55277,5,2,0:0:0:0:
315,212,55449,1,0,0:0:0:0:
258,143,55622,1,0,0:0:0:0:
285,296,55794,1,10,0:0:0:0:
315,212,55967,1,0,0:0:0:0:
344,187,56053,1,2,0:0:0:0:
379,173,56139,1,0,0:0:0:0:
417,171,56225,1,0,0:0:0:0:
454,183,56311,2,0,P|483:191|503:193,1,42.5,2|0,0:0|0:0,0:0:0:0:
395,95,56484,1,8,0:0:0:0:
397,266,56656,5,2,0:0:0:0:
392,278,56742,1,0,0:0:0:0:
387,290,56829,1,0,0:0:0:0:
285,296,57001,1,0,0:0:0:0:
290,308,57087,1,0,0:0:0:0:
294,320,57173,1,10,0:0:0:0:
193,372,57346,1,0,0:0:0:0:
205,376,57432,1,2,0:0:0:0:
216,382,57518,1,8,0:0:0:0:
203,346,57604,1,8,0:0:0:0:
172,322,57691,1,10,0:0:0:0:
133,323,57777,1,0,0:0:0:0:
99,341,57863,1,8,0:0:0:0:
213,246,58036,5,0,0:0:0:0:
186,165,58208,1,4,0:0:0:0:
131,229,58380,1,0,0:0:0:0:
268,180,58553,1,8,0:0:0:0:
158,83,58725,1,2,0:0:0:0:
158,83,58811,1,0,0:0:0:0:
158,83,58898,1,0,0:0:0:0:
186,165,59070,1,0,0:0:0:0:
241,101,59242,1,8,0:0:0:0:
299,268,59415,5,2,0:0:0:0:
299,268,59501,1,0,0:0:0:0:
299,268,59587,1,0,0:0:0:0:
268,180,59760,1,0,0:0:0:0:
431,183,59932,1,8,0:0:0:0:
384,252,60104,1,2,0:0:0:0:
359,222,60191,1,0,0:0:0:0:
350,186,60277,1,0,0:0:0:0:
357,148,60363,1,0,0:0:0:0:
379,118,60449,1,0,0:0:0:0:
431,183,60622,1,8,0:0:0:0:
268,180,60794,5,2,0:0:0:0:
268,180,60880,1,0,0:0:0:0:
268,180,60967,1,0,0:0:0:0:
290,98,61139,1,0,0:0:0:0:
111,177,61311,1,10,0:0:0:0:
187,138,61484,1,0,0:0:0:0:
187,138,61570,1,2,0:0:0:0:
187,138,61656,1,0,0:0:0:0:
234,294,61829,1,2,0:0:0:0:
234,294,61915,1,0,0:0:0:0:
234,294,62001,1,10,0:0:0:0:
165,244,62173,1,0,0:0:0:0:
345,199,62346,5,0,0:0:0:0:
317,279,62518,1,0,0:0:0:0:
429,186,62691,1,10,0:0:0:0:
289,135,62863,1,0,0:0:0:0:
284,122,62949,1,2,0:0:0:0:
279,109,63036,2,0,P|280:97|290:61,1,42.5,8|8,0:0|0:0,0:0:0:0:
195,11,63208,2,0,P|201:27|204:52,1,42.5,10|0,0:0|0:0,0:0:0:0:
370,112,63380,1,10,0:0:0:0:
209,170,63553,1,0,0:0:0:0:
329,35,63725,5,4,0:0:0:0:
370,112,63898,1,0,0:0:0:0:
415,40,64070,1,8,0:0:0:0:
289,135,64242,1,2,0:0:0:0:
256,156,64329,1,0,0:0:0:0:
219,160,64415,1,0,0:0:0:0:
183,149,64501,1,0,0:0:0:0:
155,123,64587,1,0,0:0:0:0:
212,235,64760,1,8,0:0:0:0:
227,53,64932,5,2,0:0:0:0:
227,53,65018,1,0,0:0:0:0:
227,53,65104,1,0,0:0:0:0:
256,156,65277,1,0,0:0:0:0:
350,44,65449,1,8,0:0:0:0:
339,128,65622,1,2,0:0:0:0:
376,124,65708,1,0,0:0:0:0:
409,104,65794,1,0,0:0:0:0:
429,72,65880,1,0,0:0:0:0:
434,35,65967,1,0,0:0:0:0:
487,135,66139,1,8,0:0:0:0:
350,44,66311,5,2,0:0:0:0:
350,44,66398,1,0,0:0:0:0:
350,44,66484,1,0,0:0:0:0:
339,128,66656,1,0,0:0:0:0:
271,75,66829,1,10,0:0:0:0:
320,212,67001,1,0,0:0:0:0:
328,222,67087,1,2,0:0:0:0:
336,232,67173,2,0,P|312:239|288:248,1,42.5
176,300,67346,2,0,P|155:293|135:286,1,42.5,2|0,0:0|0:0,0:0:0:0:
219,226,67518,1,10,0:0:0:0:
262,337,67691,1,0,0:0:0:0:
256,348,67777,1,0,0:0:0:0:
250,359,67863,5,4,0:0:0:0:
301,185,68380,5,0,0:0:0:0:
301,185,68467,1,0,0:0:0:0:
301,185,68553,2,0,P|307:204|307:242,1,42.5,2|0,0:0|0:0,0:0:0:0:
219,186,68725,2,0,P|220:164|226:144,1,42.5
304,103,68898,1,10,0:0:0:0:
221,198,69070,1,0,0:0:0:0:
352,285,69242,5,4,0:0:0:0:
352,285,69587,1,8,0:0:0:0:
411,223,69760,1,2,0:0:0:0:
411,223,69846,1,0,0:0:0:0:
411,223,69932,1,0,0:0:0:0:
434,304,70104,1,0,0:0:0:0:
277,318,70277,1,8,0:0:0:0:
349,370,70449,5,2,0:0:0:0:
349,370,70536,1,0,0:0:0:0:
349,370,70622,1,0,0:0:0:0:
352,285,70794,1,0,0:0:0:0:
207,360,70967,1,8,0:0:0:0:
277,318,71139,1,2,0:0:0:0:
277,318,71225,1,0,0:0:0:0:
277,318,71311,1,0,0:0:0:0:
198,279,71484,1,0,0:0:0:0:
222,125,71656,1,8,0:0:0:0:
245,208,71829,1,2,0:0:0:0:
89,195,72001,5,0,0:0:0:0:
136,124,72173,1,0,0:0:0:0:
4,187,72346,1,10,0:0:0:0:
131,274,72518,1,0,0:0:0:0:
131,274,72604,1,0,0:0:0:0:
131,274,72691,1,2,0:0:0:0:
211,165,72863,1,0,0:0:0:0:
216,183,72949,1,0,0:0:0:0:
221,201,73036,1,10,0:0:0:0:
280,299,73208,5,0,0:0:0:0:
285,281,73294,1,0,0:0:0:0:
290,263,73380,1,2,0:0:0:0:
337,192,73553,1,0,0:0:0:0:
403,245,73725,1,8,0:0:0:0:
485,133,73898,1,0,0:0:0:0:
485,133,73984,1,0,0:0:0:0:
485,133,74070,1,10,0:0:0:0:
464,165,74156,1,8,0:0:0:0:
426,160,74242,1,8,0:0:0:0:
404,127,74329,1,0,0:0:0:0:
418,91,74415,1,10,0:0:0:0:
507,240,74587,1,0,0:0:0:0:
494,47,74760,5,4,0:0:0:0:
418,91,74932,1,0,0:0:0:0:
342,53,75104,1,8,0:0:0:0:
245,170,75277,1,2,0:0:0:0:
245,170,75363,1,0,0:0:0:0:
245,170,75449,1,0,0:0:0:0:
325,142,75622,1,0,0:0:0:0:
342,53,75794,1,8,0:0:0:0:
200,9,75967,5,2,0:0:0:0:
200,9,76053,1,0,0:0:0:0:
200,9,76139,1,0,0:0:0:0:
239,84,76311,1,0,0:0:0:0:
153,82,76484,1,8,0:0:0:0:
285,11,76656,1,2,0:0:0:0:
322,3,76742,1,0,0:0:0:0:
360,7,76829,1,0,0:0:0:0:
393,25,76915,1,0,0:0:0:0:
411,58,77001,1,0,0:0:0:0:
324,87,77173,1,8,0:0:0:0:
468,130,77346,5,2,0:0:0:0:
468,130,77432,1,0,0:0:0:0:
468,130,77518,1,0,0:0:0:0:
386,155,77691,1,0,0:0:0:0:
242,62,77863,1,10,0:0:0:0:
324,87,78036,1,0,0:0:0:0:
308,178,78208,1,2,0:0:0:0:
308,178,78294,1,0,0:0:0:0:
308,178,78380,2,0,P|307:208|311:231,1,42.5,0|0,0:0|0:0,0:0:0:0:
386,155,78553,1,10,0:0:0:0:
223,208,78725,5,0,0:0:0:0:
223,208,78811,1,0,0:0:0:0:
223,208,78898,1,2,0:0:0:0:
229,123,79070,1,0,0:0:0:0:
66,169,79242,1,8,0:0:0:0:
129,225,79415,1,0,0:0:0:0:
137,237,79501,1,0,0:0:0:0:
146,249,79587,2,0,P|142:224|143:200,1,42.5,10|8,0:0|0:0,0:0:0:0:
232,80,79760,2,0,P|228:105|229:129,1,42.5,8|0,0:0|0:0,0:0:0:0:
301,250,79932,1,10,0:0:0:0:
146,117,80104,5,0,0:0:0:0:
146,117,80191,1,0,0:0:0:0:
146,117,80277,1,4,0:0:0:0:
232,80,80449,1,0,0:0:0:0:
50,104,80622,1,8,0:0:0:0:
172,204,80794,1,2,0:0:0:0:
204,185,80880,1,0,0:0:0:0:
227,154,80967,1,0,0:0:0:0:
236,117,81053,1,0,0:0:0:0:
231,79,81139,1,0,0:0:0:0:
146,117,81311,1,8,0:0:0:0:
319,155,81484,5,2,0:0:0:0:
319,155,81570,1,0,0:0:0:0:
319,155,81656,1,0,0:0:0:0:
344,73,81829,1,0,0:0:0:0:
366,229,82001,1,8,0:0:0:0:
281,235,82173,1,2,0:0:0:0:
270,246,82260,1,0,0:0:0:0:
258,256,82346,1,0,0:0:0:0:
311,339,82518,1,0,0:0:0:0:
295,339,82604,1,0,0:0:0:0:
279,338,82691,1,8,0:0:0:0:
181,188,82863,5,2,0:0:0:0:
181,203,82949,1,0,0:0:0:0:
180,219,83036,1,0,0:0:0:0:
262,149,83208,1,0,0:0:0:0:
190,103,83380,1,8,0:0:0:0:
332,100,83553,1,0,0:0:0:0:
345,135,83639,1,0,0:0:0:0:
342,173,83725,1,2,0:0:0:0:
324,207,83811,1,0,0:0:0:0:
294,230,83898,1,0,0:0:0:0:
405,233,84070,1,8,0:0:0:0:
262,149,84242,5,2,0:0:0:0:
262,149,84329,1,0,0:0:0:0:
262,149,84415,1,2,0:0:0:0:
345,135,84587,1,0,0:0:0:0:
347,295,84760,1,8,0:0:0:0:
405,233,84932,1,0,0:0:0:0:
405,233,85018,1,0,0:0:0:0:
405,233,85104,1,10,0:0:0:0:
425,265,85191,1,8,0:0:0:0:
429,302,85277,1,8,0:0:0:0:
417,338,85363,1,0,0:0:0:0:
391,366,85449,1,10,0:0:0:0:
347,295,85622,1,0,0:0:0:0:
218,371,85794,5,4,0:0:0:0:
303,368,85967,1,0,0:0:0:0:
347,295,86139,1,8,0:0:0:0:
243,184,86311,1,2,0:0:0:0:
243,184,86398,1,0,0:0:0:0:
243,184,86484,1,0,0:0:0:0:
263,266,86656,1,0,0:0:0:0:
347,295,86829,1,8,0:0:0:0:
358,178,87001,5,2,0:0:0:0:
353,194,87087,1,0,0:0:0:0:
347,210,87173,1,0,0:0:0:0:
439,152,87346,1,0,0:0:0:0:
271,179,87518,1,10,0:0:0:0:
429,233,87691,1,0,0:0:0:0:
420,247,87777,1,0,0:0:0:0:
410,261,87863,1,0,0:0:0:0:
508,206,88036,1,0,0:0:0:0:
375,100,88208,1,8,0:0:0:0:
497,295,88380,5,2,0:0:0:0:
484,306,88467,1,0,0:0:0:0:
471,317,88553,1,0,0:0:0:0:
508,206,88725,1,0,0:0:0:0:
347,295,88898,1,8,0:0:0:0:
444,149,89070,1,0,0:0:0:0:
449,133,89156,1,0,0:0:0:0:
455,117,89242,2,0,P|425:125|399:126,1,42.5,2|0,0:0|0:0,0:0:0:0:
283,149,89415,2,0,P|304:151|324:158,1,42.5,0|0,0:0|0:0,0:0:0:0:
429,233,89587,1,10,0:0:0:0:
290,267,89760,5,8,0:0:0:0:
290,267,89846,1,8,0:0:0:0:
290,267,89932,1,12,0:3:0:0:
369,295,90104,1,0,0:0:0:0:
96,286,90449,5,0,0:0:0:0:
169,201,90622,1,0,0:0:0:0:
166,217,90708,1,0,0:0:0:0:
163,233,90794,1,8,0:3:0:0:
96,286,90967,1,4,0:3:0:0:
174,318,91139,1,0,0:0:0:0:
252,170,91311,5,4,0:0:0:0:
254,182,91398,1,0,0:0:0:0:
256,195,91484,1,0,0:0:0:0:
259,207,91570,1,0,0:0:0:0:
261,220,91656,1,0,0:0:0:0:
263,232,91742,1,0,0:0:0:0:
266,245,91829,5,4,0:3:0:0:
275,221,91915,1,0,0:0:0:0:
289,199,92001,1,0,0:0:0:0:
306,181,92087,1,0,0:0:0:0:
326,165,92173,1,0,0:0:0:0:
349,154,92260,1,0,0:0:0:0:
374,148,92346,2,0,P|399:148|429:155,3,42.5
320,76,92691,5,4,0:3:0:0:
322,64,92778,1,0,0:0:0:0:
324,51,92864,1,0,0:0:0:0:
327,39,92950,1,0,0:0:0:0:
329,26,93036,1,0,0:0:0:0:
331,14,93122,1,0,0:0:0:0:
333,1,93208,5,4,0:3:0:0:
317,20,93294,1,0,0:0:0:0:
296,34,93380,1,0,0:0:0:0:
271,40,93467,1,0,0:0:0:0:
245,39,93553,1,0,0:0:0:0:
220,32,93639,1,0,0:0:0:0:
198,18,93725,2,0,P|180:10|148:6,3,42.5
186,98,94070,5,4,0:3:0:0:
189,122,94156,1,0,0:0:0:0:
193,147,94242,1,0,0:0:0:0:
197,173,94329,1,0,0:0:0:0:
200,198,94415,1,0,0:0:0:0:
204,223,94501,1,0,0:0:0:0:
208,248,94587,6,0,P|236:257|268:257,3,42.5,4|0|0|0,0:3|0:0|0:0|0:0,0:0:0:0:
350,226,94932,2,0,P|336:244|326:272,1,42.5
293,333,95104,2,0,P|265:342|233:342,3,42.5,0|0|0|0,0:3|0:0|0:0|0:0,0:0:0:0:
158,312,95449,5,4,0:3:0:0:
137,297,95535,1,0,0:0:0:0:
113,288,95621,1,0,0:0:0:0:
88,287,95707,1,0,0:0:0:0:
63,292,95793,1,0,0:0:0:0:
41,305,95880,1,0,0:0:0:0:
24,323,95967,6,0,P|12:310|-5:268,1,42.5,4|0,0:3|0:0,0:0:0:0:
41,161,96139,2,0,P|41:178|32:210,1,42.5
164,221,96311,2,0,P|157:189|147:164,1,42.5
169,81,96484,5,10,0:0:0:0:
249,111,96656,1,0,0:0:0:0:
256,120,96742,1,0,0:0:0:0:
263,129,96829,1,4,0:0:0:0:
339,92,97001,1,0,0:0:0:0:
332,176,97173,1,8,0:0:0:0:
178,159,97346,1,2,0:0:0:0:
188,172,97432,1,0,0:0:0:0:
198,186,97518,1,0,0:0:0:0:
208,199,97604,1,0,0:0:0:0:
219,213,97691,1,0,0:0:0:0:
229,226,97777,1,0,0:0:0:0:
239,240,97863,1,8,0:0:0:0:
321,262,98036,5,0,0:0:0:0:
324,275,98122,1,0,0:0:0:0:
327,288,98208,1,4,0:0:0:0:
332,176,98380,1,0,0:0:0:0:
398,228,98553,1,8,0:0:0:0:
247,323,98725,1,2,0:0:0:0:
230,319,98811,1,0,0:0:0:0:
213,316,98898,1,0,0:0:0:0:
196,313,98984,1,0,0:0:0:0:
180,310,99070,1,0,0:0:0:0:
163,307,99156,1,0,0:0:0:0:
146,304,99242,1,8,0:0:0:0:
60,231,99415,5,0,0:0:0:0:
66,245,99501,1,0,0:0:0:0:
73,259,99587,1,4,0:0:0:0:
148,220,99760,1,0,0:0:0:0:
95,153,99932,1,8,0:0:0:0:
192,117,100104,1,2,0:0:0:0:
186,131,100191,1,0,0:0:0:0:
179,145,100277,2,0,P|206:146|243:151,1,42.5,8|8,0:0|0:0,0:0:0:0:
285,60,100449,2,0,P|303:79|326:109,1,42.5
347,216,100622,1,8,0:0:0:0:
401,150,100794,5,0,0:0:0:0:
401,150,100880,1,0,0:0:0:0:
401,150,100967,1,4,0:0:0:0:
430,229,101139,1,0,0:0:0:0:
347,216,101311,1,0,0:0:0:0:
237,318,101484,1,2,0:0:0:0:
237,318,101570,1,0,0:0:0:0:
237,318,101656,5,2,0:0:0:0:
260,299,101742,1,0,0:0:0:0:
264,264,101829,1,2,0:0:0:0:
237,237,101915,1,0,0:0:0:0:
195,246,102001,1,10,0:0:0:0:
182,286,102087,1,0,0:0:0:0:
206,320,102173,1,2,0:0:0:0:
248,324,102260,1,0,0:0:0:0:
284,295,102346,5,4,0:0:0:0:
