osu file format v14

[General]
AudioFilename: audio.mp3
AudioLeadIn: 0
PreviewTime: 23477
Countdown: 0
SampleSet: Soft
StackLeniency: 0.4
Mode: 0
LetterboxInBreaks: 0
StoryFireInFront: 0
EpilepsyWarning: 1
WidescreenStoryboard: 1

[Editor]
DistanceSpacing: 1
BeatDivisor: 4
GridSize: 4
TimelineZoom: 1.199998

[Metadata]
Title:We Are One (feat. Veela)
TitleUnicode:We Are One (feat. Veela)
Artist:Rameses B
ArtistUnicode:Rameses B
Creator:Yamicchi
Version:Normal
Source:
Tags:edm drum and bass dnb cut version vocal liquicity alchemy 2 Strategas MrSergio Hokichi
BeatmapID:1310797
BeatmapSetID:522920

[Difficulty]
HPDrainRate:4
CircleSize:3
OverallDifficulty:4
ApproachRate:5.5
SliderMultiplier:1
SliderTickRate:1

[Events]
//Background and Video events
0,0,"background.jpg",0,0
//Break Periods
2,9954,11372
//Storyboard Layer 0 (Background)
//Storyboard Layer 1 (Fail)
//Storyboard Layer 2 (Pass)
//Storyboard Layer 3 (Foreground)
Sprite,Foreground,Centre,"SB/cre/yami.png",320,240 L,37183,8 F,0,0,343,1,0.75 S,0,37183,,0.6 MX,0,37183,,520 P,0,37183,,A F,0,37183,37354,0,1 MY,0,37183,37354,360,260 MY,0,37354,39926,260,220 F,0,39926,40097,1,0 MY,0,39926,40097,220,120
//Storyboard Sound Samples

[TimingPoints]
155,342.8571428571,4,2,1,70,1,0
1526,-100,4,2,1,50,0,0
3926,-100,4,2,1,10,0,0
4269,-100,4,2,1,50,0,0
6326,-100,4,2,1,10,0,0
7012,-100,4,2,1,50,0,0
9069,-100,4,2,1,10,0,0
9754,-100,4,2,1,50,0,0
12497,-100,4,2,1,55,0,0
13869,-100,4,2,1,57,0,0
15240,-100,4,2,1,59,0,0
16612,-100,4,2,1,63,0,0
17983,-100,4,2,1,70,0,0
22097,-100,4,2,1,70,0,0
23469,-100,4,2,1,80,0,1
29640,-100,4,2,1,80,0,1
30326,-100,4,2,1,80,0,1
44726,-100,4,2,1,70,0,1
45069,-100,4,2,1,60,0,1
45412,-100,4,2,1,50,0,0
47297,-100,4,2,1,50,0,0
55526,-100,4,2,1,70,0,0
55612,-100,4,2,1,65,0,0
55697,-100,4,2,1,60,0,0
55783,-100,4,2,1,55,0,0
55869,-100,4,2,1,50,0,0
55955,-100,4,2,1,45,0,0
56040,-100,4,2,1,40,0,0
56126,-100,4,2,1,35,0,0
56212,-100,4,2,1,30,0,0
56383,-100,4,2,1,70,0,0
56897,-100,4,2,1,70,0,0
61869,-100,4,2,1,60,0,0
64612,-100,4,2,1,70,0,0
67869,-100,4,2,1,70,0,0
68726,-100,4,2,1,75,0,0
78326,-100,4,2,1,80,0,1
88612,-100,4,2,1,70,0,1
88697,-100,4,2,1,65,0,1
88783,-100,4,2,1,60,0,1
88869,-100,4,2,1,55,0,1
88955,-100,4,2,1,50,0,1
89040,-100,4,2,1,45,0,1
89126,-100,4,2,1,40,0,1
89212,-100,4,2,1,35,0,1
89297,-100,4,2,1,50,0,0

[Colours]
Combo1 : 248,30,24
Combo2 : 254,224,54
Combo3 : 250,128,69
Combo4 : 224,56,102

[HitObjects]
399,153,1526,6,0,B|392:240|324:296|324:296|284:284|284:284|242:296|242:296|200:284|200:284|112:336|12:316|12:316|0:272|24:200|24:200|68:220|113:199,1,700,4|0,0:0|0:0,0:0:0:0:
68,108,4269,6,0,B|60:52|80:8|80:8|148:12|184:44|200:104|200:104|232:100|256:84|256:84|284:112|284:164|256:192|256:192|233:200|210:202|210:202|264:248|236:316,1,600,4|0,0:0|0:0,0:0:0:0:
243,296,7012,6,0,B|212:300|192:320|192:320|148:320|104:288|104:288|56:312|32:288|32:288|-4:196|68:108|68:108|96:152|140:160|140:160|172:204|210:202,1,600,4|0,0:0|0:0,0:0:0:0:
314,31,9754,5,4,0:0:0:0:
424,295,12497,6,0,P|428:228|420:183,1,100,4|8,0:1|0:0,0:0:0:0:
388,160,13012,2,0,P|384:93|392:48,1,100,0|0,0:0|3:0,0:0:0:0:
356,24,13526,1,8,0:0:0:0:
272,80,13869,1,0,3:0:0:0:
172,80,14212,2,0,P|132:72|88:80,2,75,8|0|0,0:0|0:0|3:0,0:0:0:0:
196,124,14897,1,8,0:0:0:0:
198,224,15240,6,0,L|303:229,1,100,4|8,0:1|0:0,0:0:0:0:
312,276,15754,2,0,L|417:271,1,100,0|0,0:0|3:0,0:0:0:0:
441,230,16269,1,8,0:0:0:0:
499,149,16612,1,0,3:0:0:0:
416,93,16954,2,0,P|441:66|476:52,2,75,8|0|0,0:0|0:0|3:0,0:0:0:0:
372,116,17640,1,8,0:0:0:0:
283,70,17983,5,4,0:1:0:0:
288,169,18326,1,8,0:0:0:0:
293,268,18669,1,4,0:1:0:0:
298,367,19012,1,8,0:0:0:0:
381,313,19354,5,4,0:1:0:0:
293,268,19697,1,8,0:0:0:0:
205,223,20040,1,4,0:1:0:0:
116,178,20383,1,8,0:0:0:0:
256,192,20726,12,4,22097,0:0:0:0:
26,168,23469,6,0,P|24:224|30:280,1,100,4|8,0:1|0:1,0:0:0:0:
60,308,23983,2,0,P|116:310|172:304,1,100,0|0,0:1|3:1,0:0:0:0:
208,324,24497,1,8,0:1:0:0:
260,236,24840,2,0,P|272:196|260:132,1,100,4|8,0:1|0:1,0:0:0:0:
300,104,25354,2,0,P|346:120|382:155,1,100,0|0,0:1|3:1,0:0:0:0:
392,204,25869,1,8,0:1:0:0:
344,292,26212,6,0,P|304:328|248:336,1,100,4|8,0:1|0:1,0:0:0:0:
212,328,26726,2,0,P|172:292|116:284,1,100,0|0,0:1|3:1,0:0:0:0:
80,292,27240,1,8,0:1:0:0:
24,208,27583,2,0,P|20:164|28:100,1,100,4|8,0:1|0:1,0:0:0:0:
68,84,28097,2,0,P|117:87|167:82,1,100,0|0,0:1|3:1,0:0:0:0:
216,72,28612,2,0,P|252:68|268:68,1,50,8|0,0:1|0:0,0:0:0:0:
316,68,28954,6,0,B|332:120|332:120|328:172,1,100,4|8,0:1|0:1,0:0:0:0:
372,192,29469,2,0,B|334:231|334:231|287:254,1,100,0|0,0:1|3:1,0:0:0:0:
284,300,29983,1,8,0:1:0:0:
192,344,30326,2,0,P|184:292|200:240,1,100,4|8,0:1|0:1,0:0:0:0:
176,200,30840,2,0,P|140:165|94:147,1,100,0|0,0:1|3:1,0:0:0:0:
48,164,31354,1,8,0:1:0:0:
40,264,31697,6,0,P|84:276|148:268,1,100,4|8,0:1|0:1,0:0:0:0:
184,296,32212,2,0,P|228:284|292:292,1,100,0|0,0:1|3:1,0:0:0:0:
328,268,32726,1,8,0:1:0:0:
340,168,33069,1,4,0:1:0:0:
272,92,33412,2,0,B|228:72|176:92|176:92|124:68|64:92,1,200,8|8,0:1|0:1,0:0:0:0:
40,180,34440,6,0,B|32:228|32:228|40:296,1,100,4|8,0:1|0:1,0:0:0:0:
76,312,34954,2,0,B|123:332|123:332|160:363,1,100,0|0,0:1|3:1,0:0:0:0:
208,348,35469,1,8,0:1:0:0:
280,276,35812,2,0,P|324:268|384:272,1,100,4|8,0:1|0:1,0:0:0:0:
428,284,36326,2,0,P|420:240|424:180,1,100,0|0,0:1|3:1,0:0:0:0:
432,136,36840,1,8,0:1:0:0:
352,76,37183,6,0,P|244:84|240:84,1,100,4|8,0:1|0:1,0:0:0:0:
224,124,37697,2,0,P|116:116|112:116,1,100,0|0,0:1|3:1,0:0:0:0:
84,88,38212,1,8,0:1:0:0:
24,168,38554,2,0,P|8:216|24:280,1,100,4|8,0:1|0:1,0:0:0:0:
46,304,39069,2,0,P|93:320|157:303,1,100,0|0,0:1|3:1,0:0:0:0:
190,299,39583,2,0,P|218:295|242:299,1,50,8|0,0:1|0:0,0:0:0:0:
288,308,39926,6,0,L|292:200,1,100,4|8,0:1|0:1,0:0:0:0:
332,180,40440,2,0,L|328:72,1,100,0|0,0:1|3:1,0:0:0:0:
356,36,40954,1,8,0:1:0:0:
456,24,41297,2,0,P|448:76|408:124,1,100,4|8,0:1|0:1,0:0:0:0:
424,164,41812,2,0,P|452:204|458:253,1,100,0|0,0:1|3:1,0:0:0:0:
440,300,42326,1,8,0:1:0:0:
360,240,42669,6,0,P|248:248|240:248,1,100,4|8,0:1|0:1,0:0:0:0:
216,224,43183,2,0,P|104:216|96:216,1,100,0|0,0:1|3:1,0:0:0:0:
68,232,43697,1,8,0:1:0:0:
20,144,44040,2,0,P|16:92|32:40,1,100,4|8,0:1|0:1,0:0:0:0:
76,28,44554,1,0,0:1:0:0:
124,40,44726,2,0,B|168:36|168:36|180:40|180:40|228:36,1,100,0|0,0:1|0:1,0:0:0:0:
324,28,45412,5,4,0:1:0:0:
436,127,45926,2,0,P|468:196|448:278,1,150,0|8,3:0|0:3,0:0:0:0:
360,304,46783,2,0,L|204:312,2,150,0|0|8,0:0|0:0|0:3,0:0:0:0:
376,256,47983,1,0,3:0:0:0:
376,256,48154,5,0,3:0:0:0:
324,172,48497,2,0,P|312:124|328:72,2,100,8|0|8,0:3|0:0|0:3,0:0:0:0:
224,192,49526,2,0,P|216:116|232:36,2,150,0|0|8,3:0|0:0|0:3,0:0:0:0:
195,233,50726,1,0,3:0:0:0:
195,233,50897,5,0,3:0:0:0:
283,280,51240,2,0,P|335:280|379:252,2,100,8|0|8,0:3|0:0|0:3,0:0:0:0:
195,233,52269,2,0,P|188:308|237:369,2,150,0|0|8,3:0|0:0|0:3,0:0:0:0:
224,192,53469,1,0,3:0:0:0:
224,192,53640,5,0,3:0:0:0:
312,236,53983,2,0,P|320:308|320:344,2,100,8|0|8,0:3|0:0|0:3,0:0:0:0:
405,199,55012,2,0,P|397:127|397:91,1,100,0|8,3:0|0:3,0:0:0:0:
417,54,55526,2,0,B|377:70|345:54|345:54|313:38|265:54,1,150,0|8,3:0|0:3,0:0:0:0:
196,120,56383,6,0,L|136:116,2,50,0|0|8,3:0|3:0|0:1,0:0:0:0:
240,144,56897,1,0,3:0:0:0:
240,244,57240,1,0,3:0:0:0:
196,264,57412,2,0,L|136:268,1,50,8|0,0:1|0:0,0:0:0:0:
100,244,57754,1,0,3:0:0:0:
56,156,58097,1,8,0:1:0:0:
56,156,58269,2,0,P|48:108|80:44,1,100,0|0,3:0|3:0,0:0:0:0:
106,32,58783,1,8,0:1:0:0:
203,55,59126,6,0,P|205:28|199:-1,2,50,0|0|8,3:0|3:0|0:1,0:0:0:0:
236,92,59640,1,0,3:0:0:0:
336,92,59983,1,0,3:0:0:0:
367,130,60154,2,0,P|365:157|371:186,1,50,8|0,0:1|0:0,0:0:0:0:
402,217,60497,2,0,B|336:228|336:228|280:225,1,100,0|8,3:0|0:1,0:0:0:0:
252,222,61012,2,0,B|218:220|218:220|152:231,1,100,0|0,3:0|3:0,0:0:0:0:
104,243,61526,1,8,0:1:0:0:
42,163,61869,5,4,0:1:0:0:
95,78,62212,1,8,0:1:0:0:
95,78,62383,2,0,B|128:67|160:80|160:80|184:72|184:72|216:88|256:80,1,150,4|8,0:1|0:1,0:0:0:0:
290,74,63069,1,0,0:0:0:0:
290,74,63240,1,4,0:1:0:0:
360,144,63583,1,8,0:1:0:0:
360,144,63754,2,0,P|392:216|368:280,1,150,4|8,0:1|0:1,0:0:0:0:
256,192,64612,12,4,67355,0:0:0:0:
96,40,68726,5,4,0:1:0:0:
152,120,69069,2,0,L|240:112,2,75,8|0|0,0:1|0:1|3:1,0:0:0:0:
120,160,69754,1,8,0:1:0:0:
176,248,70097,1,4,0:1:0:0:
144,344,70440,1,8,0:1:0:0:
184,368,70612,2,0,L|288:360,1,100,0|0,0:1|3:1,0:0:0:0:
336,352,71126,2,0,P|344:320|344:296,1,50,8|0,0:1|0:0,0:0:0:0:
336,256,71469,5,4,0:1:0:0:
384,168,71812,2,0,L|480:176,2,75,8|0|0,0:1|0:0|3:0,0:0:0:0:
377,118,72497,1,8,0:1:0:0:
322,34,72840,2,0,P|286:75|279:133,1,100,4|8,0:1|0:1,0:0:0:0:
250,160,73354,2,0,P|223:169|198:170,2,50,0|0|0,0:1|0:0|3:1,0:0:0:0:
281,199,73869,1,8,0:1:0:0:
257,296,74212,6,0,P|306:297|355:266,1,100,4|8,0:1|0:1,0:0:0:0:
377,230,74726,2,0,P|381:181|353:130,1,100,0|0,0:1|3:0,0:0:0:0:
320,105,75240,1,8,0:1:0:0:
228,64,75583,2,0,L|124:68,1,100,4|8,0:1|0:1,0:0:0:0:
24,176,76440,2,0,L|96:180,1,50,0|8,3:1|0:1,0:0:0:0:
172,160,76954,2,0,P|172:208|128:264,2,100,4|8|0,0:1|0:1|0:1,0:0:0:0:
332,40,78326,6,0,B|368:28|368:28|448:36,1,100,4|8,0:1|0:1,0:0:0:0:
460,72,78840,2,0,L|512:76,2,50,0|0|0,0:1|0:1|3:1,0:0:0:0:
444,120,79354,1,8,0:1:0:0:
356,168,79697,2,0,P|392:208|440:220,1,100,4|8,0:1|0:1,0:0:0:0:
440,272,80212,2,0,P|400:308|388:356,1,100,0|0,0:1|3:0,0:0:0:0:
340,356,80726,1,8,0:1:0:0:
264,292,81069,6,0,L|160:296,1,100,4|8,0:1|0:1,0:0:0:0:
124,264,81583,2,0,L|64:260,2,50,0|0|0,0:1|0:1|3:1,0:0:0:0:
140,216,82097,1,8,0:1:0:0:
168,120,82440,2,0,L|200:16,1,100,4|8,0:1|0:1,0:0:0:0:
246,14,82954,2,0,L|320:93,1,100,0|0,0:1|3:1,0:0:0:0:
346,125,83469,2,0,P|378:126|402:120,1,50,8|0,0:1|0:1,0:0:0:0:
440,144,83812,6,0,B|436:192|436:192|440:256,1,100,4|8,0:1|0:1,0:0:0:0:
404,280,84326,2,0,L|408:337,2,50,0|0|0,0:1|0:1|3:1,0:0:0:0:
356,265,84840,1,8,0:1:0:0:
260,240,85183,2,0,B|212:224|160:244,1,100,4|8,0:1|0:1,0:0:0:0:
148,292,85697,2,0,B|98:311|50:295,1,100,0|0,0:1|3:1,0:0:0:0:
27,250,86212,1,8,0:1:0:0:
64,156,86554,6,0,B|72:96|72:96|68:48,1,100,4|8,0:1|0:1,0:0:0:0:
120,52,87069,1,4,0:1:0:0:
168,60,87240,2,0,B|171:99|171:99|163:159,1,100,0|12,3:1|0:1,0:0:0:0:
264,168,87926,2,0,B|272:108|272:108|268:68,1,100,4|8,0:1|0:1,0:0:0:0:
320,64,88440,1,4,0:1:0:0:
368,68,88612,6,0,B|372:116|372:116|360:200|360:200|368:280,1,200,0|4,0:0|0:0,0:0:0:0:
