osu file format v14

[General]
AudioFilename: audio.mp3
AudioLeadIn: 0
PreviewTime: 23477
Countdown: 0
SampleSet: Soft
StackLeniency: 0.4
Mode: 0
LetterboxInBreaks: 0
StoryFireInFront: 0
EpilepsyWarning: 1
WidescreenStoryboard: 1

[Editor]
DistanceSpacing: 1.2
BeatDivisor: 4
GridSize: 32
TimelineZoom: 2.199999

[Metadata]
Title:We Are One (feat. Veela)
TitleUnicode:We Are One (feat. Veela)
Artist:Rameses B
ArtistUnicode:Rameses B
Creator:Yamicchi
Version:MrSergio's Hard
Source:
Tags:edm drum and bass dnb cut version vocal liquicity alchemy 2 Strategas MrSergio Hokichi
BeatmapID:1310796
BeatmapSetID:522920

[Difficulty]
HPDrainRate:5
CircleSize:4
OverallDifficulty:6
ApproachRate:7.8
SliderMultiplier:1.4
SliderTickRate:1

[Events]
//Background and Video events
0,0,"background.jpg",0,0
//Break Periods
//Storyboard Layer 0 (Background)
//Storyboard Layer 1 (Fail)
//Storyboard Layer 2 (Pass)
//Storyboard Layer 3 (Foreground)
Sprite,Foreground,Centre,"SB/cre/mrsergio.png",320,240 L,37183,8 F,0,0,343,1,0.75 S,0,37183,,0.6 MX,0,37183,,520 P,0,37183,,A F,0,37183,37354,0,1 MY,0,37183,37354,360,260 MY,0,37354,39926,260,220 F,0,39926,40097,1,0 MY,0,39926,40097,220,120
//Storyboard Sound Samples

[TimingPoints]
155,342.8571428571,4,2,25,70,1,0
1526,-200,4,2,25,30,0,0
11126,-200,4,2,25,15,0,0
12497,-133.333333333333,4,2,25,45,0,0
17983,-100,4,2,25,60,0,0
18669,-100,4,2,25,50,0,0
19012,-100,4,2,25,60,0,0
19354,-100,4,2,25,40,0,0
19697,-100,4,2,25,60,0,0
20040,-100,4,2,25,30,0,0
20383,-100,4,2,25,60,0,0
20726,-166.666666666667,4,2,25,60,0,0
22783,-133.333333333333,4,2,25,60,0,0
23469,-90.90909090909,4,2,25,70,0,1
44726,-125,4,2,25,50,0,0
45326,-125,4,2,25,5,0,0
45412,-133.333333333333,4,2,25,60,0,0
56383,-100,4,2,25,90,0,1
61869,-100,4,2,25,60,0,0
78240,-100,4,2,25,5,0,0
78326,-90.9090909090909,4,2,25,90,0,1
89297,-90.90909090909,4,2,25,30,0,0

[Colours]
Combo1 : 248,30,24
Combo2 : 254,224,54
Combo3 : 250,128,69
Combo4 : 224,56,102

[HitObjects]
168,200,1526,6,0,L|160:120,2,70,4|0|0,0:0|0:0|0:0,0:0:0:0:
168,200,2554,1,0,0:0:0:0:
242,252,2726,2,0,P|280:257|313:248,2,70
95,308,3754,2,0,L|54:309,1,35
330,243,4269,6,0,L|335:164,1,70,4|0,0:0|0:0,0:0:0:0:
182,119,4954,2,0,L|186:188,1,70,0|0,0:0|0:0,0:0:0:0:
119,235,5469,2,0,B|81:241|81:241|49:230,2,70,0|0|0,0:0|0:0|0:0,0:0:0:0:
476,49,7012,5,4,0:0:0:0:
326,106,7354,2,0,P|318:143|333:176,2,70,0|0|0,0:0|0:0|0:0,0:0:0:0:
177,43,8383,2,0,P|185:80|170:113,1,70,0|0,0:0|0:0,0:0:0:0:
56,220,9069,1,0,0:0:0:0:
56,220,9412,6,0,B|62:253|108:254|108:254|81:283|86:319|110:354|158:352|204:332|188:263|188:263|168:211|208:201,1,350,0|0,0:0|0:0,0:0:0:0:
434,76,12497,6,0,L|433:148,2,52.5000020027161,4|0|8,0:1|0:0|0:0,0:0:0:0:
343,106,13012,2,0,L|218:104,1,105.000004005432,0|0,0:0|3:0,0:0:0:0:
152,64,13526,1,8,0:0:0:0:
152,64,13869,6,0,L|149:158,1,78.7500030040742,0|0,3:0|0:0,0:0:0:0:
118,167,14212,2,0,L|114:238,1,52.5000020027161,8|0,0:0|3:0,0:0:0:0:
88,248,14469,2,0,L|85:342,1,78.7500030040742,0|0,0:0|3:0,0:0:0:0:
165,362,14897,1,8,0:0:0:0:
20,200,15240,6,0,L|24:80,1,105.000004005432,4|8,0:1|0:0,0:0:0:0:
64,9,15754,2,0,L|60:113,1,105.000004005432,0|0,3:0|3:0,0:0:0:0:
114,202,16269,1,8,0:0:0:0:
114,202,16612,6,0,P|149:187|199:203,1,78.7500030040742,0|0,3:0|0:0,0:0:0:0:
223,187,16954,2,0,P|253:195|293:185,1,52.5000020027161,8|0,0:0|3:0,0:0:0:0:
310,201,17212,2,0,P|345:186|395:202,1,78.7500030040742,0|0,0:0|3:0,0:0:0:0:
484,232,17640,1,8,0:0:0:0:
484,232,17983,6,0,L|478:329,1,70,4|0,0:1|0:0,0:0:0:0:
391,344,18326,2,0,L|386:274,1,70,8|0,0:0|0:0,0:0:0:0:
296,234,18669,2,0,L|290:331,1,70,4|0,0:1|0:0,0:0:0:0:
203,346,19012,2,0,L|198:276,1,70,8|0,0:0|0:0,0:0:0:0:
110,233,19354,6,0,L|102:346,1,105,4|0,0:1|0:0,0:0:0:0:
66,304,19697,2,0,L|58:199,1,105,8|0,0:0|0:0,0:0:0:0:
82,156,20040,2,0,L|158:151,1,70,4|0,0:1|0:0,0:0:0:0:
210,72,20383,1,8,0:0:0:0:
210,72,20469,2,0,L|304:78,1,70,0|0,0:0|0:0,0:0:0:0:
320,104,20726,6,0,P|346:109|373:103,3,41.9999987182618,4|0|4|0,0:1|0:0|0:1|0:0,0:0:0:0:
393,181,21412,2,0,P|416:168|432:146,3,41.9999987182618,4|0|4|0,0:1|0:0|0:1|0:0,0:0:0:0:
439,76,22097,1,4,0:0:0:0:
55,268,22783,6,0,L|49:352,2,70.0000026702882,0|0|0,0:0|0:0|3:0,0:0:0:0:
76,245,23354,1,0,3:0:0:0:
97,222,23469,6,0,B|93:163|93:163|107:123|107:123|104:50,1,154.000004699707,4|8,0:1|0:1,0:0:0:0:
180,184,23983,2,0,B|184:243|184:243|170:283|170:283|173:356,1,154.000004699707,0|0,0:1|3:1,0:0:0:0:
270,289,24497,2,0,P|309:275|358:290,1,77.0000023498536,8|0,0:1|0:1,0:0:0:0:
418,358,24840,5,4,0:1:0:0:
418,358,25183,2,0,P|444:314|417:227,1,115.50000352478,8|0,0:1|0:0,0:0:0:0:
449,221,25526,2,0,P|440:183|456:127,1,77.0000023498536,0|0,0:0|3:1,0:0:0:0:
362,12,25869,2,0,P|371:50|355:106,1,77.0000023498536,8|0,0:1|0:1,0:0:0:0:
205,33,26212,6,0,B|81:28|81:28|34:61,1,154.000004699707,4|8,0:1|0:1,0:0:0:0:
83,135,26726,2,0,B|206:140|206:140|250:177,1,154.000004699707,0|0,0:1|3:1,0:0:0:0:
161,243,27240,2,0,L|74:239,1,77.0000023498536,8|0,0:1|0:1,0:0:0:0:
273,248,27583,5,4,0:1:0:0:
273,248,27926,2,0,P|311:215|320:137,1,115.50000352478,8|0,0:1|0:0,0:0:0:0:
335,116,28269,2,0,P|329:82|349:39,1,77.0000023498536,0|0,0:0|3:1,0:0:0:0:
461,86,28612,2,0,P|468:123|459:160,1,77.0000023498536,8|0,0:1|0:0,0:0:0:0:
403,245,28954,6,0,P|360:251|287:349,1,154.000004699707,4|8,0:1|0:1,0:0:0:0:
222,244,29469,1,0,0:1:0:0:
182,343,29640,1,0,0:1:0:0:
182,343,29812,1,0,3:1:0:0:
74,349,29983,1,8,0:1:0:0:
74,349,30154,1,0,0:1:0:0:
127,261,30326,5,4,0:1:0:0:
127,261,30669,2,0,L|116:140,1,115.50000352478,8|0,0:1|0:0,0:0:0:0:
83,121,31012,2,0,L|182:112,1,77.0000023498536,0|0,0:0|3:1,0:0:0:0:
249,71,31354,2,0,L|348:62,1,77.0000023498536,8|0,0:1|0:0,0:0:0:0:
350,179,31697,6,0,P|337:224|369:330,1,154.000004699707,4|8,0:1|0:1,0:0:0:0:
256,336,32212,2,0,P|269:291|237:185,1,154.000004699707,0|0,0:1|3:1,0:0:0:0:
170,272,32726,1,8,0:1:0:0:
170,272,33069,5,4,0:1:0:0:
83,74,33412,2,0,L|84:4,2,51.3333348999024,8|0|0,0:1|0:1|0:1,0:0:0:0:
106,110,33754,2,0,L|106:215,1,102.666669799805,0|0,3:1|3:1,0:0:0:0:
85,247,34097,2,0,P|63:261|38:265,2,51.3333348999024,8|0|0,0:1|0:1|0:1,0:0:0:0:
106,214,34440,6,0,P|171:195|245:241,1,154.000004699707,4|8,0:1|0:1,0:0:0:0:
163,300,34954,1,0,0:1:0:0:
241,236,35126,2,0,L|237:159,2,77.0000023498536,0|0|8,0:1|3:1|0:1,0:0:0:0:
429,342,35812,6,0,L|433:210,1,115.50000352478,4|0,0:1|0:1,0:0:0:0:
452,185,36154,2,0,P|410:193|372:178,1,77.0000023498536,8|0,0:1|0:1,0:0:0:0:
338,207,36412,2,0,P|301:196|222:234,2,115.50000352478,0|0|0,0:0|3:1|0:1,0:0:0:0:
221,322,37183,6,0,B|181:314|181:314|116:335|116:335|71:330,1,154.000004699707,4|8,0:1|0:1,0:0:0:0:
132,241,37697,1,0,0:1:0:0:
221,322,37869,2,0,P|263:330|315:315,2,77.0000023498536,0|0|8,0:1|3:1|0:1,0:0:0:0:
315,128,38554,5,4,0:1:0:0:
315,128,38897,2,0,B|369:114|369:114|439:128,1,115.50000352478,8|0,0:1|0:0,0:0:0:0:
418,152,39240,2,0,P|406:192|429:239,1,77.0000023498536,0|0,0:0|3:1,0:0:0:0:
331,281,39583,2,0,P|292:275|247:299,1,77.0000023498536,8|0,0:1|0:0,0:0:0:0:
162,340,39926,6,0,L|175:173,1,154.000004699707,4|8,0:1|0:1,0:0:0:0:
74,230,40440,2,0,L|61:68,1,154.000004699707,0|0,0:1|3:1,0:0:0:0:
151,16,40954,1,8,0:1:0:0:
392,174,41297,5,4,0:1:0:0:
392,174,41640,2,0,L|268:167,1,115.50000352478,8|0,0:1|0:0,0:0:0:0:
245,193,41983,2,0,L|154:202,1,77.0000023498536,0|0,0:0|3:1,0:0:0:0:
91,130,42326,2,0,P|75:87|96:31,1,77.0000023498536,8|0,0:1|0:0,0:0:0:0:
186,75,42669,6,0,B|231:70|231:70|341:17,1,154.000004699707,4|8,0:1|0:1,0:0:0:0:
381,117,43183,2,0,B|284:166|284:166|253:199,1,154.000004699707,0|0,0:1|3:1,0:0:0:0:
146,218,43697,2,0,B|134:179|134:179|88:145,1,77.0000023498536,8|0,0:1|0:0,0:0:0:0:
63,257,44040,6,0,B|80:298|80:298|180:376,1,154.000004699707,4|8,0:1|0:1,0:0:0:0:
166,365,44554,1,0,0:1:0:0:
267,321,44726,6,0,B|287:336|321:325|321:325|346:372|389:374|428:353|407:305|369:321,1,196,0|0,0:1|0:1,0:0:0:0:
372,322,45412,6,0,B|386:252|386:252|380:203,1,105.000004005432,4|0,0:1|0:0,0:0:0:0:
432,272,45926,2,0,B|399:208|399:208|365:173,1,105.000004005432,0|0,3:0|3:0,0:0:0:0:
287,176,46440,1,8,0:3:0:0:
118,235,46783,6,0,B|142:223|142:223|182:145,1,105.000004005432,0|8,3:0|0:3,0:0:0:0:
196,224,47297,2,0,B|207:199|207:199|191:113,1,105.000004005432,0|0,3:0|0:0,0:0:0:0:
133,55,47812,1,8,0:3:0:0:
133,55,47983,1,0,3:0:0:0:
220,38,48154,6,0,P|259:32|338:43,1,105.000004005432,0|8,3:1|0:3,0:0:0:0:
407,71,48669,2,0,P|368:65|289:76,1,105.000004005432,0|0,3:0|0:0,0:0:0:0:
223,112,49183,1,8,0:3:0:0:
345,193,49526,6,0,P|378:208|419:286,1,105.000004005432,0|8,3:0|0:3,0:0:0:0:
427,190,50040,2,0,P|443:222|428:308,1,105.000004005432,0|0,3:0|0:0,0:0:0:0:
369,347,50554,2,0,P|341:352|309:343,1,52.5000020027161,8|0,0:3|3:0,0:0:0:0:
198,305,50897,6,0,B|168:301|168:301|89:314,1,105.000004005432,4|8,0:1|0:3,0:0:0:0:
140,255,51412,2,0,B|113:270|113:270|59:329,1,105.000004005432,0|0,3:0|0:0,0:0:0:0:
20,246,51926,2,0,L|71:192,1,52.5000020027161,8|0,0:3|0:0,0:0:0:0:
73,120,52269,6,0,L|201:132,1,105.000004005432,0|8,3:0|0:3,0:0:0:0:
128,74,52783,2,0,L|221:162,1,105.000004005432,0|0,3:0|0:0,0:0:0:0:
211,235,53297,1,8,0:3:0:0:
288,189,53469,1,0,3:0:0:0:
288,189,53640,6,0,B|345:196|345:196|398:179,1,105.000004005432,4|8,0:1|0:3,0:0:0:0:
343,238,54154,2,0,B|392:208|392:208|423:162,1,105.000004005432,0|0,3:0|0:0,0:0:0:0:
440,81,54669,1,8,0:3:0:0:
260,51,55012,6,0,B|209:43|209:43|141:55,1,105.000004005432,4|8,0:1|0:3,0:0:0:0:
69,73,55526,2,0,B|120:65|120:65|188:77,1,105.000004005432,0|0,3:0|0:0,0:0:0:0:
248,122,56040,1,8,0:3:0:0:
97,306,56383,5,0,3:0:0:0:
97,306,56554,1,0,3:0:0:0:
132,221,56726,1,8,0:1:0:0:
186,337,56897,2,0,L|331:336,1,140,0|0,3:0|3:0,0:0:0:0:
358,250,57412,2,0,L|259:251,1,70,8|0,0:1|0:0,0:0:0:0:
332,171,57754,6,0,P|351:129|322:29,1,140,0|8,3:0|0:1,0:0:0:0:
445,39,58269,2,0,P|426:81|455:181,1,140,0|0,3:0|3:0,0:0:0:0:
422,272,58783,2,0,P|388:264|340:280,1,70,8|0,0:1|0:0,0:0:0:0:
269,334,59126,5,0,3:0:0:0:
269,334,59297,1,0,3:0:0:0:
167,304,59469,1,8,0:1:0:0:
273,240,59640,2,0,L|251:77,1,140,0|0,3:0|3:0,0:0:0:0:
345,154,60154,2,0,B|384:157|384:157|420:147,1,70,8|0,0:1|0:0,0:0:0:0:
499,87,60497,5,0,3:0:0:0:
409,276,60840,1,8,0:1:0:0:
409,276,61012,1,0,3:0:0:0:
259,128,61354,1,0,3:0:0:0:
259,128,61526,2,0,L|179:145,1,70,8|0,0:1|0:0,0:0:0:0:
101,161,61869,6,0,L|245:182,1,140,4|8,0:1|0:1,0:0:0:0:
327,207,62383,2,0,L|183:228,1,140,4|0,0:1|3:0,0:0:0:0:
113,279,62897,1,8,0:1:0:0:
324,296,63240,6,0,P|387:273|414:202,1,140,4|8,0:1|0:1,0:0:0:0:
326,118,63754,2,0,P|263:141|236:212,1,140,4|0,0:1|3:0,0:0:0:0:
327,207,64269,1,8,0:1:0:0:
327,207,64612,6,0,L|396:185,1,70,4|0,0:1|3:0,0:0:0:0:
338,120,64954,2,0,L|371:55,1,70,8|4,0:1|0:1,0:0:0:0:
268,73,65297,2,0,L|246:4,1,70,0|0,3:0|3:0,0:0:0:0:
181,71,65640,2,0,L|116:37,1,70,12|0,0:1|3:0,0:0:0:0:
106,129,65983,5,4,0:1:0:0:
88,218,66154,1,0,3:0:0:0:
138,294,66326,1,8,0:1:0:0:
225,319,66497,1,4,0:1:0:0:
314,303,66669,6,0,L|303:255,3,35,0|0|0|0,0:0|0:0|0:0|0:0,0:0:0:0:
324,239,67012,2,0,L|311:180,2,46.6666666666667,12|0|0,0:1|0:0|0:0,0:0:0:0:
375,266,67354,5,4,0:0:0:0:
382,274,68040,1,0,0:0:0:0:
382,274,68212,1,0,0:0:0:0:
302,230,68383,2,0,P|256:223|215:242,1,70,8|0,0:1|0:0,0:0:0:0:
154,273,68726,6,0,P|122:285|34:254,2,105,4|0|0,0:1|0:1|0:1,0:0:0:0:
107,194,69412,1,0,0:0:0:0:
107,194,69583,1,0,3:1:0:0:
154,273,69754,2,0,L|142:351,1,70,8|0,0:1|0:1,0:0:0:0:
248,300,70097,6,0,L|236:222,2,70,0|0|8,3:1|0:0|0:1,0:0:0:0:
326,251,70612,2,0,P|396:234|461:279,1,140,0|0,0:1|3:1,0:0:0:0:
382,325,71126,1,8,0:1:0:0:
461,161,71469,6,0,B|470:125|470:125|458:39,2,105,0|0|0,3:1|0:1|0:1,0:0:0:0:
383,113,72154,1,0,0:0:0:0:
383,113,72326,1,0,3:1:0:0:
299,149,72497,2,0,B|289:127|289:127|291:77,1,70,8|0,0:1|0:1,0:0:0:0:
201,32,72840,6,0,L|207:111,2,70,0|0|8,3:1|0:0|0:1,0:0:0:0:
126,84,73354,2,0,P|80:90|48:72,1,70,0|0,0:1|0:1,0:0:0:0:
99,4,73697,1,0,3:1:0:0:
59,81,73869,1,8,0:1:0:0:
270,168,74212,6,0,P|310:161|361:178,1,70,4|0,0:1|0:0,0:0:0:0:
382,245,74554,1,8,0:1:0:0:
382,245,74726,2,0,P|342:252|291:235,1,70,0|0,0:1|0:0,0:0:0:0:
270,168,75069,1,0,3:1:0:0:
231,275,75240,2,0,L|241:367,1,70,8|0,0:1|0:1,0:0:0:0:
150,319,75583,6,0,P|114:316|49:353,2,105,4|0|0,0:1|0:1|0:1,0:0:0:0:
238,344,76269,2,0,L|317:347,2,70,0|0|8,0:0|3:1|0:1,0:0:0:0:
94,232,76954,6,0,P|70:204|63:129,2,105,4|0|0,0:1|0:1|0:1,0:0:0:0:
185,239,77640,2,0,P|213:230|232:212,2,46.6666666666667,0|0|0,0:1|0:1|0:1,0:0:0:0:
162,272,77983,2,0,L|174:379,1,105,0|0,0:1|0:0,0:0:0:0:
200,359,78326,6,0,B|249:351|249:351|298:367|298:367|350:362,1,154.000004699707,4|8,0:1|0:1,0:0:0:0:
435,308,78840,2,0,L|519:302,2,77.0000023498536,0|0|0,0:1|0:1|3:1,0:0:0:0:
320,279,79354,1,8,0:1:0:0:
290,25,79697,5,4,0:1:0:0:
290,25,80040,2,0,L|292:150,1,115.50000352478,8|0,0:1|0:1,0:0:0:0:
311,165,80383,2,0,L|212:168,1,77.0000023498536,0|0,0:0|3:0,0:0:0:0:
151,118,80726,2,0,L|52:115,1,77.0000023498536,8|0,0:1|0:1,0:0:0:0:
122,203,81069,6,0,P|133:242|98:356,1,154.000004699707,4|8,0:1|0:1,0:0:0:0:
214,349,81583,1,0,0:1:0:0:
214,349,81754,2,0,P|203:310|216:247,1,77.0000023498536,0|0,0:1|3:1,0:0:0:0:
237,178,82097,1,8,0:1:0:0:
448,44,82440,5,4,0:1:0:0:
448,44,82783,2,0,P|436:96|388:145,1,115.50000352478,8|0,0:1|0:0,0:0:0:0:
397,167,83126,2,0,P|355:183|313:174,1,77.0000023498536,0|0,0:0|3:1,0:0:0:0:
322,83,83469,2,0,P|294:52|284:7,1,77.0000023498536,8|0,0:1|0:1,0:0:0:0:
158,28,83812,6,0,L|149:194,1,154.000004699707,4|8,0:1|0:1,0:0:0:0:
56,145,84326,1,0,0:1:0:0:
56,145,84497,2,0,L|62:240,1,77.0000023498536,0|0,0:1|3:1,0:0:0:0:
67,322,84840,1,8,0:1:0:0:
257,259,85183,5,4,0:1:0:0:
257,259,85526,2,0,B|294:259|294:259|332:279|332:279|373:279,1,115.50000352478,8|0,0:1|0:0,0:0:0:0:
395,299,85869,2,0,P|404:254|385:216,1,77.0000023498536,0|0,0:0|3:1,0:0:0:0:
322,158,86212,2,0,L|218:141,1,77.0000023498536,8|0,0:1|0:0,0:0:0:0:
168,82,86554,5,4,0:1:0:0:
168,82,86726,1,0,3:1:0:0:
168,82,86897,2,0,L|161:176,1,77.0000023498536,8|4,0:1|0:1,0:0:0:0:
62,165,87240,1,0,3:1:0:0:
62,165,87412,1,0,3:1:0:0:
62,165,87583,2,0,L|69:259,1,77.0000023498536,12|0,0:1|3:1,0:0:0:0:
134,316,87926,5,4,0:1:0:0:
223,271,88097,1,0,3:1:0:0:
307,325,88269,1,8,0:1:0:0:
388,267,88440,1,4,0:1:0:0:
459,338,88612,6,0,L|502:343,7,38.5000011749268
425,352,89297,1,4,0:0:0:0:
