osu file format v14

[General]
AudioFilename: audio.mp3
AudioLeadIn: 0
PreviewTime: 23477
Countdown: 0
SampleSet: Soft
StackLeniency: 0.4
Mode: 0
LetterboxInBreaks: 0
StoryFireInFront: 0
EpilepsyWarning: 1
WidescreenStoryboard: 1

[Editor]
DistanceSpacing: 1
BeatDivisor: 4
GridSize: 4
TimelineZoom: 2.599999

[Metadata]
Title:We Are One (feat. Veela)
TitleUnicode:We Are One (feat. Veela)
Artist:Rameses B
ArtistUnicode:Rameses B
Creator:Yamicchi
Version:Harmony
Source:
Tags:edm drum and bass dnb cut version vocal liquicity alchemy 2 Strategas MrSergio Hokichi
BeatmapID:1310801
BeatmapSetID:522920

[Difficulty]
HPDrainRate:6
CircleSize:5
OverallDifficulty:8.2
ApproachRate:9.2
SliderMultiplier:1.7
SliderTickRate:1

[Events]
//Background and Video events
0,0,"background.jpg",0,0
//Break Periods
//Storyboard Layer 0 (Background)
//Storyboard Layer 1 (Fail)
//Storyboard Layer 2 (Pass)
//Storyboard Layer 3 (Foreground)
Sprite,Foreground,Centre,"SB/cre/yami.png",320,240 L,37183,8 F,0,0,343,1,0.75 S,0,37183,,0.6 MX,0,37183,,520 P,0,37183,,A F,0,37183,37354,0,1 MY,0,37183,37354,360,260 MY,0,37354,39926,260,220 F,0,39926,40097,1,0 MY,0,39926,40097,220,120
//Storyboard Sound Samples

[TimingPoints]
155,342.8571428571,4,2,1,30,1,0
1355,-100,4,2,1,5,0,0
1526,-166.66667175293,4,2,1,50,0,0
3926,-166.66667175293,4,2,1,5,0,0
4269,-166.66667175293,4,2,1,50,0,0
6326,-166.66667175293,4,2,1,5,0,0
7012,-166.66667175293,4,2,1,50,0,0
9412,-166.66667175293,4,2,1,5,0,0
9755,-166.66667175293,4,2,1,50,0,0
12154,-166.66667175293,4,2,1,20,0,0
12497,-133.3333333333,4,2,1,55,0,0
13869,-133.3333333333,4,2,1,57,0,0
15240,-117.64705657959,4,2,1,59,0,0
16612,-117.64705657959,4,2,1,63,0,0
17983,-111.1111111111,4,2,1,70,0,0
18240,-111.1111111111,4,2,1,5,0,0
18326,-111.1111111111,4,2,1,70,0,0
19612,-111.1111111111,4,2,1,5,0,0
19697,-111.1111111111,4,2,1,70,0,0
19869,-111.1111111111,4,2,1,5,0,0
19954,-111.1111111111,4,2,1,70,0,0
20126,-111.1111111111,4,2,1,5,0,0
20212,-111.1111111111,4,2,1,70,0,0
20640,-111.1111111111,4,2,1,5,0,0
20726,-111.1111111111,4,2,1,70,0,0
22783,-83.3333333333333,4,2,1,70,0,0
23469,-83.3333333333333,4,2,1,80,0,1
23726,-83.3333333333333,4,2,1,5,0,1
23812,-83.3333333333333,4,2,1,80,0,1
26469,-83.3333333333333,4,2,1,5,0,1
26554,-83.3333333333333,4,2,1,80,0,1
29212,-83.3333333333333,4,2,1,5,0,1
29297,-83.3333333333333,4,2,1,80,0,1
29640,-83.3333333333333,4,2,1,80,0,1
29726,-83.3333333333333,4,2,1,5,0,1
29812,-83.3333333333333,4,2,1,80,0,1
29897,-83.3333333333333,4,2,1,5,0,1
29983,-83.3333333333333,4,2,1,80,0,1
30069,-83.3333333333333,4,2,1,5,0,1
30155,-83.3333333333333,4,2,1,80,0,1
30240,-83.3333333333333,4,2,1,5,0,1
30326,-83.3333333333326,4,2,1,80,0,1
44726,-90.90909090909,4,2,1,70,0,1
45069,-90.90909090909,4,2,1,60,0,1
45412,-133.333333333333,4,2,1,50,0,0
45926,-133.333333333333,4,2,1,50,0,0
55526,-133.3333333333,4,2,1,70,0,0
55612,-133.3333333333,4,2,1,65,0,0
55697,-133.3333333333,4,2,1,60,0,0
55783,-133.3333333333,4,2,1,55,0,0
55869,-133.3333333333,4,2,1,50,0,0
55955,-133.3333333333,4,2,1,45,0,0
56040,-200,4,2,1,40,0,0
56126,-200,4,2,1,35,0,0
56212,-200,4,2,1,30,0,0
56383,-99.999999999999,4,2,1,70,0,0
61869,-111.1111111111,4,2,1,60,0,0
64612,-111.1111111111,4,2,1,65,0,0
65983,-111.1111111111,4,2,1,70,0,0
67869,-133.3333333333,4,2,1,70,0,0
68726,-111.11111111111,4,2,1,75,0,0
78326,-90.90909090909,4,2,1,80,0,1
86554,-90.90909090909,4,2,1,75,0,1
89297,-90.90909090909,4,2,1,75,0,0

[Colours]
Combo1 : 248,30,24
Combo2 : 254,224,54
Combo3 : 250,128,69
Combo4 : 224,56,102

[HitObjects]
256,192,155,12,0,1355,0:0:0:0:
63,270,1526,6,0,B|44:208|76:156|76:156|124:156|148:192|148:192|116:268|212:336|280:272|280:272|288:176|212:180|184:256|280:272|280:272|340:248|368:268,1,713.99997821045,4|0,0:0|0:0,0:0:0:0:
368,268,4269,6,0,B|384:148|288:84|192:120|192:120|272:76|332:104|332:104|428:84|428:84|512:112,1,611.999938964844,4|0,0:0|0:0,0:0:0:0:
484,344,7012,6,0,B|444:368|400:356|400:356|352:344|316:368|316:368|260:352|260:352|200:380|144:332|144:332|68:212|180:144|180:144|248:208|216:268,1,713.999938964844,4|0,0:0|0:0,0:0:0:0:
20,296,9755,5,4,0:0:0:0:
256,192,9926,12,0,12155,0:0:0:0:
20,296,12497,6,0,P|80:312|144:268,1,127.500007629395,4|8,0:1|0:0,0:0:0:0:
179,175,13012,2,0,P|135:218|141:296,1,127.500007629395,0|0,0:0|3:0,0:0:0:0:
275,247,13526,2,0,P|243:248|212:252,1,63.7500038146973,8|0,0:0|0:0,0:0:0:0:
336,316,13869,6,0,P|367:315|399:311,1,63.7500038146973,0|0,3:0|0:0,0:0:0:0:
460,240,14212,2,0,P|488:280|484:352,2,95.6250076293945,8|0|0,0:0|0:0|3:0,0:0:0:0:
399,311,14897,1,8,0:0:0:0:
296,104,15240,6,0,B|344:92|344:92|448:104,1,144.500015258789,4|8,0:1|0:0,0:0:0:0:
460,240,15755,2,0,B|412:252|412:252|308:240,1,144.500015258789,0|0,0:0|3:0,0:0:0:0:
264,96,16269,2,0,L|334:78,1,72.2500076293945,8|0,0:0|0:0,0:0:0:0:
317,241,16612,6,0,L|246:223,1,72.2500076293945,0|0,3:0|0:0,0:0:0:0:
104,312,16955,2,0,L|228:296,2,108.375015258789,8|0|0,0:0|0:0|3:0,0:0:0:0:
52,176,17640,1,8,0:0:0:0:
328,44,17983,6,0,B|292:40|292:40|252:52|252:52|208:48,1,114.75,4|0,0:1|0:0,0:0:0:0:
140,40,18326,1,0,3:0:0:0:
52,176,18497,1,0,0:0:0:0:
236,204,18669,2,0,P|192:196|152:196,1,76.5,4|0,0:1|0:0,0:0:0:0:
224,300,19012,2,0,P|268:308|308:308,1,76.5,0|0,3:1|0:0,0:0:0:0:
100,352,19355,6,0,P|84:296|112:228,1,114.75,4|0,0:1|0:0,0:0:0:0:
160,196,19697,2,0,P|176:156|176:120,1,76.5,0|0,3:0|0:0,0:0:0:0:
116,72,19955,2,0,P|73:78|42:96,1,76.5
30,172,20212,2,0,P|56:205|87:223,1,76.5,0|0,0:0|3:0,0:0:0:0:
160,196,20469,2,0,P|200:180|236:180,1,76.5
320,196,20726,5,8,0:0:0:0:
288,304,20897,1,0,0:0:0:0:
304,76,21069,1,8,0:0:0:0:
336,184,21240,1,0,0:0:0:0:
85,222,21412,5,8,0:0:0:0:
216,100,21583,1,0,0:0:0:0:
184,348,21755,1,8,0:0:0:0:
96,200,21926,1,0,0:0:0:0:
352,172,22097,5,4,0:0:0:0:
352,172,22783,2,0,B|340:208|352:240|352:240|364:272|352:312,2,135.99999584961,8|0|0,0:3|0:0|3:0,0:0:0:0:
400,88,23355,1,0,3:1:0:0:
400,88,23469,6,0,B|360:76|360:76|267:86,1,135.99999584961,4|0,0:1|0:1,0:1:0:0:
192,48,23812,1,8,0:1:0:0:
31,111,23983,2,0,B|87:119|87:119|132:110,1,101.999996887207,0|0,0:1|0:1,0:1:0:0:
268,88,24326,1,0,3:1:0:0:
32,112,24497,1,8,0:1:0:0:
184,188,24669,1,0,0:1:0:0:
80,352,24840,6,0,P|70:302|87:254,1,101.999996887207,4|0,0:1|0:1,0:1:0:0:
304,192,25183,1,8,0:1:0:0:
416,332,25355,1,0,0:1:0:0:
416,332,25440,2,0,B|412:288|412:288|416:280|416:280|412:220,1,101.999996887207,0|0,0:1|0:1,0:1:0:0:
430,155,25697,1,0,3:1:0:0:
188,120,25869,1,8,0:1:0:0:
188,120,25955,2,0,P|224:124|244:124,1,50.9999961853027,0|0,0:1|0:1,0:1:0:0:
430,155,26212,6,0,B|401:129|354:143|354:143|323:175|270:167,1,152.999984741211,4|0,0:1|0:1,0:1:0:0:
295,88,26555,1,8,0:1:0:0:
383,223,26726,2,0,L|387:331,1,101.999992370605,0|0,0:1|0:1,0:1:0:0:
238,235,27069,1,0,3:1:0:0:
466,231,27240,1,8,0:1:0:0:
288,168,27412,1,0,0:1:0:0:
258,355,27583,6,0,P|206:371|158:355,1,101.999996887207,4|0,0:1|0:1,0:1:0:0:
54,171,27926,1,8,0:1:0:0:
207,282,28097,1,0,0:1:0:0:
207,282,28183,2,0,P|214:211|214:171,1,101.999996887207,0|0,0:1|0:1,0:1:0:0:
200,104,28440,1,0,3:1:0:0:
54,271,28612,1,8,0:1:0:0:
54,271,28697,2,0,P|54:295|58:335,1,50.9999984436036,0|0,0:1|0:1,0:1:0:0:
214,180,28954,6,0,P|282:211|306:303,1,152.999995330811,4|0,0:1|0:1,0:1:0:0:
296,356,29297,1,8,0:1:0:0:
207,282,29469,1,0,0:1:0:0:
416,116,29640,5,0,0:1:0:0:
425,312,29812,1,0,3:1:0:0:
301,158,29983,1,8,0:1:0:0:
492,210,30154,1,0,0:1:0:0:
308,280,30326,6,0,P|256:296|188:296,1,101.999996887207,4|0,0:1|0:1,0:1:0:0:
404,132,30669,1,8,0:1:0:0:
444,328,30840,1,0,0:1:0:0:
444,328,30926,2,0,P|424:284|364:256,1,101.999996887207,0|0,0:1|0:1,0:1:0:0:
300,260,31183,1,0,3:1:0:0:
112,344,31354,1,8,0:1:0:0:
112,344,31440,2,0,P|140:352|168:352,1,50.9999984436036,0|0,0:1|0:1,0:1:0:0:
368,352,31697,6,0,L|375:199,1,152.999995330811,4|0,0:1|0:1,0:1:0:0:
364,120,32040,1,8,0:1:0:0:
216,222,32212,2,0,P|247:183|295:168,1,101.999996887207,0|0,0:1|0:1,0:1:0:0:
416,272,32554,1,0,3:1:0:0:
133,216,32726,1,8,0:1:0:0:
260,320,32897,1,0,0:1:0:0:
286,85,33069,5,0,3:1:0:0:
268,100,33412,6,0,L|196:96,2,67.9999979248048,8|0|0,0:1|0:1|0:1,0:1:0:0:
346,135,33754,2,0,L|416:132,2,67.9999979248048,0|0|0,3:1|0:1|3:1,0:1:0:0:
276,185,34097,1,8,0:1:0:0:
284,270,34212,1,0,0:1:0:0:
354,220,34326,1,0,0:1:0:0:
256,176,34440,6,0,L|144:172,1,101.999996887207,4|0,0:1|0:1,0:1:0:0:
372,232,34783,1,8,0:1:0:0:
249,349,34954,2,0,L|460:340,1,203.999993774414,0|0,0:1|3:1,0:1:0:0:
432,116,35469,1,8,0:1:0:0:
416,128,35812,6,0,B|404:80|404:80|416:24,1,101.999996887207,4|0,0:1|0:1,0:1:0:0:
388,244,36154,1,8,0:1:0:0:
222,196,36326,1,0,0:1:0:0:
222,196,36412,2,0,P|272:196|313:225,1,101.999996887207,0|0,0:1|0:1,0:1:0:0:
388,244,36669,2,0,P|363:284|292:300,1,101.999996887207,0|8,3:1|0:1,0:1:0:0:
239,316,36926,2,0,P|239:291|246:267,1,50.9999984436036,0|0,0:1|0:1,0:1:0:0:
416,128,37183,6,0,L|521:131,1,101.999996887207,4|0,0:1|0:1,0:1:0:0:
316,48,37526,1,8,0:1:0:0:
222,196,37697,2,0,L|16:188,1,203.999993774414,0|0,0:1|3:1,0:1:0:0:
272,122,38212,1,8,0:1:0:0:
292,132,38554,6,0,P|313:178|304:236,1,101.999996887207,4|0,0:1|0:1,0:1:0:0:
104,232,38897,1,8,0:1:0:0:
187,117,39069,1,0,0:1:0:0:
187,117,39154,2,0,P|192:76|192:60,2,50.9999984436036,0|0|0,0:1|0:1|0:1,0:1:0:0:
222,196,39412,2,0,P|217:237|217:252,1,50.9999984436036,0|0,3:1|0:1,0:1:0:0:
368,360,39583,1,8,0:1:0:0:
336,356,39669,1,0,0:1:0:0:
304,352,39754,1,0,0:1:0:0:
272,348,39840,1,0,0:1:0:0:
240,344,39926,6,0,P|217:278|219:226,1,101.999996887207,4|0,0:1|0:1,0:1:0:0:
408,132,40269,1,8,0:1:0:0:
263,78,40440,2,0,B|204:72|204:72|126:91|126:91|54:84,1,203.999993774414,0|0,0:1|3:1,0:1:0:0:
288,68,40954,1,8,0:1:0:0:
316,60,41297,6,0,P|332:112|317:161,1,101.999996887207,4|0,0:1|0:1,0:1:0:0:
79,86,41640,1,8,0:1:0:0:
226,193,41812,1,0,0:1:0:0:
226,193,41897,2,0,B|192:200|192:200|116:196,1,101.999996887207,0|0,0:1|0:1,0:1:0:0:
76,124,42154,2,0,B|110:117|110:117|185:122,1,101.999996887207,0|8,3:1|0:1,0:1:0:0:
256,112,42412,2,0,L|312:115,1,50.9999984436036,0|0,0:1|0:1,0:1:0:0:
455,172,42669,6,0,L|351:180,1,101.999996887207,4|0,0:1|0:1,0:1:0:0:
133,196,43012,1,8,0:1:0:0:
271,314,43183,2,0,L|255:111,1,203.999993774414,0|0,0:1|3:1,0:1:0:0:
472,156,43697,1,8,0:1:0:0:
455,172,44040,6,0,P|472:220|460:269,1,101.999996887207,4|0,0:1|0:1,0:1:0:0:
344,80,44383,1,8,0:1:0:0:
226,193,44554,1,0,0:1:0:0:
460,269,44726,2,0,P|403:237|415:137,1,140.25000428009,0|0,0:1|0:1,0:1:0:0:
467,193,45069,5,0,0:0:0:0:
466,218,45154,1,0,0:0:0:0:
464,244,45240,1,0,0:0:0:0:
460,269,45326,1,0,0:0:0:0:
455,305,45412,6,0,B|403:301|403:301|303:317,1,127.500004863739,4|0,0:1|0:0,0:0:0:0:
232,244,45926,1,0,3:0:0:0:
248,260,46269,1,0,3:0:0:0:
120,368,46440,2,0,L|116:284,1,63.7500024318696,8|0,0:3|0:0,0:0:0:0:
30,193,46783,6,0,P|46:253|100:284,1,127.500004863739,0|8,3:0|0:3,0:0:0:0:
172,228,47297,2,0,P|155:168|101:137,1,127.500004863739,0|0,3:0|3:0,0:0:0:0:
100,284,47812,1,8,0:3:0:0:
172,228,47983,1,0,3:0:0:0:
248,344,48154,6,0,B|276:356|308:344|308:344|320:348|320:348|356:336|388:348,1,127.500004863739,0|8,3:0|0:3,0:0:0:0:
400,264,48669,2,0,B|372:252|340:264|340:264|328:260|328:260|292:272|260:260,1,127.500004863739,0|0,3:0|3:0,0:0:0:0:
172,165,49183,2,0,P|168:209|176:241,1,63.7500024318696,8|0,0:3|0:0,0:0:0:0:
275,264,49526,6,0,P|288:200|276:136,1,127.500004863739,0|8,3:0|0:3,0:0:0:0:
208,72,50040,2,0,L|140:76,2,63.7500024318696,0|0|0,3:0|0:0|3:0,0:0:0:0:
344,69,50554,1,8,0:3:0:0:
277,139,50726,1,0,3:0:0:0:
413,136,50897,6,0,P|436:200|419:259,1,127.500004863739,0|8,3:0|0:3,0:0:0:0:
296,280,51412,1,0,0:0:0:0:
308,276,51497,1,0,0:0:0:0:
320,272,51583,1,0,0:0:0:0:
424,344,51754,1,0,3:0:0:0:
284,284,51926,2,0,L|216:276,1,63.7500024318696,8|0,0:3|0:0,0:0:0:0:
110,318,52269,6,0,P|158:278|226:278,1,127.500004863739,0|8,3:0|0:3,0:0:0:0:
320,356,52783,1,0,0:0:0:0:
332,352,52868,1,0,0:0:0:0:
344,348,52954,1,0,0:0:0:0:
422,255,53126,1,0,3:0:0:0:
308,360,53297,1,8,0:3:0:0:
220,276,53469,1,0,3:0:0:0:
404,268,53640,6,0,B|416:228|416:228|404:144,1,127.500004863739,0|8,3:0|0:3,0:0:0:0:
320,68,54154,1,0,0:3:0:0:
322,80,54240,1,0,0:3:0:0:
325,92,54326,1,0,0:3:0:0:
264,184,54497,1,0,3:0:0:0:
416,128,54669,2,0,L|488:132,1,63.7500024318696,8|0,0:3|0:0,0:0:0:0:
328,104,55012,6,0,L|188:116,1,127.500004863739,0|8,3:0|0:3,0:0:0:0:
52,176,55526,5,0,0:0:0:0:
82,159,55612,1,0,0:0:0:0:
114,155,55697,1,0,0:0:0:0:
141,164,55783,1,0,0:0:0:0:
161,179,55869,1,0,3:0:0:0:
173,197,55954,1,0,0:0:0:0:
181,214,56040,2,0,P|184:229|185:248,3,21.25,8|0|0|0,0:3|0:0|0:0|0:0,0:0:0:0:
104,236,56383,5,4,0:1:0:0:
104,236,56554,1,0,3:0:0:0:
304,120,56726,1,8,0:1:0:0:
384,216,56897,2,0,B|412:204|444:212|444:212|476:220|504:208|504:208|480:232|448:244,1,170,0|0,0:0|3:0,0:0:0:0:
304,120,57412,2,0,P|344:96|396:92,1,85,8|0,0:1|0:0,0:0:0:0:
384,216,57754,6,0,B|376:276|376:276|392:328|392:328|384:384,1,170,0|8,3:0|0:1,0:0:0:0:
264,296,58269,2,0,P|308:284|360:292,1,85
232,380,58612,1,0,3:0:0:0:
120,200,58783,2,0,L|128:116,1,85,8|0,0:1|0:0,0:0:0:0:
268,52,59126,5,4,0:1:0:0:
268,52,59297,1,0,3:0:0:0:
104,216,59469,1,8,0:1:0:0:
244,284,59640,2,0,B|276:288|300:272|300:272|356:308|424:284,1,170,0|0,0:0|3:0,0:0:0:0:
248,192,60154,1,8,0:1:0:0:
140,300,60326,1,0,0:0:0:0:
263,373,60497,6,0,P|327:321|324:240,1,170,0|8,3:0|0:1,0:0:0:0:
159,282,61012,2,0,P|201:288|244:284,1,85
120,200,61354,1,0,3:0:0:0:
323,239,61526,2,0,P|328:196|324:154,1,85,8|0,0:1|0:0,0:0:0:0:
220,32,61869,6,0,L|92:36,1,114.7499964981,4|0,0:1|0:0,0:0:0:0:
64,36,62212,1,8,0:1:0:0:
260,108,62383,2,0,L|82:114,1,152.9999953308,4|0,0:1|3:0,0:0:0:0:
344,104,62897,1,8,0:1:0:0:
248,192,63069,1,0,0:0:0:0:
388,268,63240,6,0,L|260:272,1,114.7499964981,4|0,0:1|0:0,0:0:0:0:
232,272,63583,1,8,0:1:0:0:
428,344,63755,2,0,L|250:350,1,152.9999953308,4|0,0:1|3:0,0:0:0:0:
512,340,64269,1,8,0:1:0:0:
388,268,64440,1,0,0:0:0:0:
186,352,64612,5,4,0:1:0:0:
176,216,64783,1,0,3:0:0:0:
50,362,64954,1,8,0:1:0:0:
40,226,65126,1,0,0:0:0:0:
208,336,65297,5,0,3:0:0:0:
245,192,65468,1,0,3:0:0:0:
351,373,65640,1,8,0:1:0:0:
389,229,65812,1,0,0:0:0:0:
184,325,65983,5,0,3:0:0:0:
188,144,66154,1,0,3:0:0:0:
365,329,66326,1,8,0:1:0:0:
369,148,66497,1,0,0:0:0:0:
304,296,66669,5,0,3:0:0:0:
280,300,66754,1,0,3:0:0:0:
256,304,66840,1,0,3:0:0:0:
232,308,66926,1,0,3:0:0:0:
208,312,67012,2,0,P|192:276|184:244,2,50.9999984436036,8|0|0,3:1|3:0|3:0,3:0:0:0:
436,264,67354,5,4,0:0:0:0:
412,268,67869,2,0,B|408:216|408:216|412:200|412:200|406:124,1,127.500004863739,0|0,0:0|3:0,0:0:0:0:
464,24,68383,2,0,P|475:53|474:85,1,63.7500024318696,8|0,0:1|0:0,0:0:0:0:
324,160,68726,5,4,0:1:0:0:
308,176,69069,2,0,L|188:172,2,114.749996498108,8|0|0,0:1|0:0|3:0,0:0:0:0:
412,268,69754,2,0,L|406:191,1,76.4999976654053,8|0,0:1|0:0,0:0:0:0:
236,348,70097,6,0,P|168:372|92:328,1,152.999995330811,4|8,0:1|0:1,0:0:0:0:
106,241,70612,2,0,P|143:251|172:276,1,76.4999976654053
99,337,70954,1,0,3:0:0:0:
17,199,71126,2,0,P|7:236|14:273,1,76.4999976654053,8|0,0:1|0:0,0:0:0:0:
76,36,71469,5,4,0:1:0:0:
96,48,71812,2,0,B|120:40|152:48|152:48|184:56|209:49,2,114.749996498108,8|0|0,0:1|0:0|3:0,0:0:0:0:
17,199,72497,2,0,P|7:161|14:124,1,76.4999976654053,8|0,0:1|0:0,0:0:0:0:
129,339,72840,6,0,B|176:324|176:324|279:332,1,152.999995330811,4|8,0:1|0:1,0:0:0:0:
336,268,73354,2,0,P|296:248|248:252,1,76.4999976654053
192,296,73697,1,0,3:0:0:0:
364,352,73869,2,0,L|448:344,1,76.4999976654053,8|0,0:1|0:0,0:0:0:0:
512,126,74212,6,0,B|512:168|468:180|468:180|428:172|398:196,1,152.999995330811,4|8,0:1|0:1,0:0:0:0:
336,268,74726,2,0,P|312:240|304:196,1,76.4999976654053
348,116,75069,1,0,3:0:0:0:
200,48,75240,2,0,P|236:41|278:56,1,76.4999976654053,8|0,0:1|0:0,0:0:0:0:
124,212,75583,6,0,L|111:59,1,152.999995330811,4|8,0:1|0:1,0:0:0:0:
273,52,76097,2,0,L|265:128,1,76.4999976654053,0|0,0:1|0:0,0:0:0:0:
124,212,76440,1,0,3:0:0:0:
324,164,76611,1,8,0:1:0:0:
312,188,76954,5,0,3:0:0:0:
88,144,77297,1,8,0:1:0:0:
280,264,77640,6,0,P|306:271|344:264,2,50.9999984436036
231,198,77983,2,0,P|224:171|199:142,2,50.9999984436036
153,350,78326,6,0,P|165:305|198:273,1,93.5000028533936,4|0,0:1|0:0,0:0:0:0:
388,216,78669,1,8,0:1:0:0:
244,353,78840,1,0,0:1:0:0:
197,159,79012,1,0,0:1:0:0:
364,228,79183,1,0,3:1:0:0:
136,332,79354,2,0,L|36:324,1,93.5000028533936,8|0,0:1|0:1,0:1:0:0:
172,152,79697,6,0,B|214:147|214:147|224:148|224:148|268:144,1,93.5000028533936,4|0,0:1|0:1,0:1:0:0:
268,364,80040,1,8,0:1:0:0:
116,312,80212,1,0,0:1:0:0:
116,312,80297,2,0,P|92:272|100:212,1,93.5000028533936,0|0,0:1|0:1,0:1:0:0:
12,208,80554,2,0,P|34:167|90:144,1,93.5000028533936,0|8,3:1|0:1,0:1:0:0:
50,65,80812,2,0,P|96:64|144:101,1,93.5000028533936,0|0,0:1|0:1,0:1:0:0:
164,172,81069,6,0,L|260:164,1,93.5000028533936,4|0,0:1|0:1,0:1:0:0:
440,16,81412,1,8,0:1:0:0:
268,88,81583,1,0,0:1:0:0:
417,201,81754,1,0,0:1:0:0:
420,32,81926,1,0,3:1:0:0:
332,208,82097,2,0,P|324:264|336:304,1,93.5000028533936,8|0,0:1|0:1,0:1:0:0:
512,328,82440,6,0,B|464:324|464:324|408:336,1,93.5000028533936,4|0,0:1|0:1,0:1:0:0:
257,164,82783,1,8,0:1:0:0:
432,224,82954,1,0,0:1:0:0:
432,224,83040,2,0,P|436:172|436:152,2,46.7500014266968,0|0|0,0:1|0:1|0:1,0:1:0:0:
492,76,83297,2,0,P|493:99|495:122,1,46.7500014266968,0|0,3:1|0:1,0:1:0:0:
493,214,83469,1,8,0:1:0:0:
466,223,83554,1,0,0:1:0:0:
432,224,83640,1,0,0:1:0:0:
405,214,83726,1,0,0:1:0:0:
381,198,83812,6,0,P|333:186|285:202,1,93.5000028533936,4|0,0:1|0:1,0:1:0:0:
440,16,84154,1,8,0:1:0:0:
493,214,84326,1,0,0:1:0:0:
344,56,84497,1,0,0:1:0:0:
291,197,84669,1,0,3:1:0:0:
496,300,84840,2,0,P|444:296|396:296,1,93.5000028533936,8|0,0:1|0:1,0:1:0:0:
224,368,85183,6,0,P|177:367|130:363,1,93.5000028533936,4|0,0:1|0:1,0:1:0:0:
291,197,85526,1,8,0:1:0:0:
335,357,85697,1,0,0:1:0:0:
335,357,85783,2,0,P|347:313|335:265,1,93.5000028533936,0|0,0:1|0:1,0:1:0:0:
291,197,86040,2,0,P|279:153|291:105,1,93.5000028533936,0|8,3:1|0:1,0:1:0:0:
344,56,86297,2,0,L|444:60,1,93.5000028533936,0|0,0:1|0:1,0:1:0:0:
496,120,86554,5,4,0:1:0:0:
291,197,86726,1,0,3:1:0:0:
460,32,86897,1,8,0:1:0:0:
493,214,87069,1,0,0:1:0:0:
344,56,87240,5,0,3:1:0:0:
300,224,87412,1,0,3:1:0:0:
504,96,87583,1,8,0:1:0:0:
289,107,87754,1,0,0:1:0:0:
402,295,87926,5,0,3:1:0:0:
212,180,88097,1,0,3:1:0:0:
437,59,88269,1,8,0:1:0:0:
484,236,88440,1,0,0:1:0:0:
289,107,88612,5,0,3:1:0:0:
281,147,88697,1,0,0:1:0:0:
277,183,88783,1,0,0:1:0:0:
274,214,88869,1,0,0:1:0:0:
272,239,88954,2,0,L|277:307,2,62.3333352355958,8|8|8,0:0|0:0|0:0,0:1:0:0:
369,151,89297,5,4,3:2:0:0:
