osu file format v14

[General]
AudioFilename: Rameses B Utopia.mp3
AudioLeadIn: 0
PreviewTime: 46720
Countdown: 0
SampleSet: Soft
StackLeniency: 0.7
Mode: 0
LetterboxInBreaks: 0
WidescreenStoryboard: 1

[Editor]
Bookmarks: 23451,35088,46724,58360,69997,81633,93269,116542
DistanceSpacing: 1.1
BeatDivisor: 4
GridSize: 32
TimelineZoom: 2

[Metadata]
Title:Utopia (ft. Holly Drummond)
TitleUnicode:Utopia (ft. Holly Drummond)
Artist:Rameses B
ArtistUnicode:Rameses B
Creator:Milan-
Version:Insane
Source:
Tags:deetz lullaby liquid chillout drum and bass dnb cut short version Then & Now
BeatmapID:662211
BeatmapSetID:294493

[Difficulty]
HPDrainRate:7
CircleSize:4
OverallDifficulty:8
ApproachRate:9
SliderMultiplier:1.7
SliderTickRate:1

[Events]
//Background and Video events
0,0,"bgopggmoe.jpg",0,0
//Break Periods
//Storyboard Layer 0 (Background)
//Storyboard Layer 1 (Fail)
//Storyboard Layer 2 (Pass)
//Storyboard Layer 3 (Foreground)
//Storyboard Sound Samples

[TimingPoints]
175,363.636363636364,4,3,2,35,1,0
23447,-117.647058823529,4,3,2,35,0,0
32175,-117.647058823529,4,2,2,35,0,0
42356,-117.647058823529,4,3,2,43,0,0
43811,-117.647058823529,4,3,2,50,0,0
44538,-100,4,3,2,55,0,0
45265,-100,4,2,1,35,0,0
46720,-100,4,2,3,70,0,0
46811,-100,4,2,1,70,0,0
58356,-100,4,2,3,70,0,0
58447,-100,4,2,1,70,0,0
69993,-100,4,2,3,70,0,0
70084,-100,4,2,1,70,0,0
81629,-100,4,2,1,50,0,0
81720,-100,4,2,1,70,0,0
82175,-100,4,2,1,45,0,0
82265,-100,4,2,1,70,0,0
93265,-100,4,2,3,70,0,0
93356,-100,4,2,1,70,0,0
104902,-100,4,2,1,50,0,0
104993,-100,4,2,1,70,0,0
113629,-117.647058823529,4,2,1,70,0,0
116538,-117.647058823529,4,2,3,50,0,0

[Colours]
Combo1 : 206,240,233
Combo2 : 243,216,203

[HitObjects]
22,227,23447,6,0,B|86:236|86:236|136:231,1,108.375002067089,4|0,2:3|0:0,0:0:0:0:
169,214,23811,2,0,B|203:207|203:207|240:202,1,72.2500013780594
324,223,24175,1,0,0:0:0:0:
326,225,24265,1,0,0:0:0:0:
328,227,24356,1,2,0:2:0:0:
387,163,24538,1,0,0:0:0:0:
303,139,24720,1,0,0:0:0:0:
328,227,24902,6,0,B|323:302|323:302|304:350,1,108.375002067089,2|0,0:2|0:0,0:0:0:0:
273,355,25265,2,0,B|229:355|229:355|190:351,1,72.2500013780594
128,303,25629,1,0,0:0:0:0:
128,303,25720,1,0,0:0:0:0:
128,303,25811,1,2,0:2:0:0:
71,187,25993,1,0,0:0:0:0:
49,271,26175,1,0,0:0:0:0:
152,219,26356,6,0,B|156:168|156:168|147:86,1,108.375002067089,2|0,0:2|0:0,0:0:0:0:
138,68,26720,2,0,B|185:73|185:73|232:69,1,72.2500013780594
293,47,27084,1,0,0:0:0:0:
293,47,27175,1,0,0:0:0:0:
293,47,27265,1,0,0:0:0:0:
370,86,27447,1,0,0:0:0:0:
451,57,27629,1,0,0:0:0:0:
367,92,27811,6,0,B|360:117|360:117|363:187,1,72.2500013780594
378,203,28084,1,0,0:0:0:0:
378,203,28175,2,0,B|379:249|379:249|372:274,1,72.2500013780594,2|0,0:2|0:0,0:0:0:0:
299,321,28538,2,0,L|213:316,1,72.2500013780594,2|0,0:2|0:0,0:0:0:0:
153,235,28902,6,0,L|297:244,1,144.500002756119,2|0,0:2|0:0,0:0:0:0:
173,151,29538,1,0,0:0:0:0:
173,151,29629,2,0,B|141:151|141:151|79:171,1,72.2500013780594,0|2,0:0|0:2,0:0:0:0:
121,65,29993,2,0,L|286:88,1,144.500002756119,0|2,0:0|0:2,0:0:0:0:
349,99,30538,1,0,0:0:0:0:
399,168,30720,6,0,P|430:125|431:72,2,108.375002067089
330,222,31447,2,0,P|309:251|302:286,1,72.2500013780594,2|0,0:2|0:0,0:0:0:0:
231,371,31811,2,0,P|223:335|203:306,1,72.2500013780594
135,251,32175,6,0,P|100:190|114:121,2,144.500002756119,2|0|0,0:0|0:0|0:0,0:0:0:0:
256,127,33265,1,0,0:0:0:0:
377,251,33629,2,0,P|412:190|398:121,2,144.500002756119,2|0|0,0:0|0:0|0:0,0:0:0:0:
256,127,34720,1,0,0:0:0:0:
256,127,35084,6,0,L|256:271,1,144.500002756119,4|0,0:0|0:0,0:0:0:0:
277,297,35811,2,0,L|277:152,1,144.500002756119
277,48,36356,1,0,0:0:0:0:
178,84,36538,2,0,P|106:80|46:42,2,144.500002756119,2|0|0,0:0|0:0|0:0,0:0:0:0:
365,108,37629,2,0,P|437:112|497:150,2,144.500002756119,0|2|0,0:0|0:0|0:0,0:0:0:0:
364,108,38720,6,0,P|355:142|357:178,1,72.2500013780594
385,261,39084,2,0,P|386:296|377:331,1,72.2500013780594
296,364,39447,2,0,L|146:343,1,144.500002756119,2|0,0:0|0:0,0:0:0:0:
66,193,40175,1,0,0:0:0:0:
70,202,40538,1,0,0:0:0:0:
214,105,40902,1,2,0:0:0:0:
218,96,41265,1,0,0:0:0:0:
75,211,41629,2,0,L|218:190,1,144.500002756119
304,200,42175,1,0,0:0:0:0:
360,134,42356,6,0,P|357:99|342:66,1,72.2500013780594,2|0,0:2|0:0,0:0:0:0:
421,188,42720,2,0,P|436:155|440:119,1,72.2500013780594,2|0,0:2|0:0,0:0:0:0:
444,266,43084,2,0,P|473:245|494:216,1,72.2500013780594,2|0,0:2|0:0,0:0:0:0:
428,343,43447,2,0,P|463:340|496:325,1,72.2500013780594,2|0,0:2|0:0,0:0:0:0:
365,288,43811,5,2,0:2:0:0:
344,281,43901,1,0,0:0:0:0:
323,277,43992,1,0,0:0:0:0:
301,276,44083,1,0,0:0:0:0:
279,279,44174,1,2,0:2:0:0:
259,284,44265,1,0,0:0:0:0:
239,293,44356,1,0,0:0:0:0:
220,304,44447,1,0,0:0:0:0:
203,318,44538,6,0,L|132:335,3,42.5,2|0|0|0,0:2|0:0|0:0|0:0,0:0:0:0:
130,244,44902,2,0,L|67:205,3,42.5,2|0|0|0,0:2|0:0|0:0|0:0,0:0:0:0:
256,192,45265,12,0,46356,0:0:0:0:
403,94,46720,6,0,P|367:118|325:121,1,85,2|0,3:2|0:0,0:0:0:0:
173,90,47084,2,0,P|131:93|95:116,1,85,8|0,0:0|3:0,0:0:0:0:
228,153,47447,2,0,P|251:118|256:76,1,85,0|0,0:0|3:0,0:0:0:0:
148,185,47811,1,8,0:0:0:0:
192,267,47993,1,0,0:0:0:0:
34,275,48175,5,0,0:0:0:0:
116,318,48356,1,0,3:0:0:0:
59,188,48538,2,0,P|60:144|66:103,1,85,8|0,0:0|0:0,0:0:0:0:
93,64,48811,1,0,0:0:0:0:
93,64,48902,2,0,L|190:55,1,85,0|0,0:0|3:0,0:0:0:0:
313,38,49265,1,8,0:0:0:0:
242,130,49447,1,0,0:0:0:0:
315,32,49629,6,0,L|358:111,1,85,0|0,3:0|0:0,0:0:0:0:
338,264,49993,2,0,L|297:189,1,85,8|0,0:0|3:0,0:0:0:0:
416,230,50356,2,0,P|421:271|408:311,1,85,0|0,0:0|3:0,0:0:0:0:
366,149,50720,1,8,0:0:0:0:
400,61,50902,1,0,0:0:0:0:
500,189,51084,5,0,0:0:0:0:
509,96,51265,1,0,3:0:0:0:
416,229,51447,2,0,P|374:240|332:236,1,85,8|0,0:0|0:0,0:0:0:0:
290,215,51720,1,0,0:0:0:0:
290,215,51811,2,0,L|204:233,1,85,0|0,0:0|3:0,0:0:0:0:
121,192,52175,1,8,0:0:0:0:
222,326,52356,1,0,0:0:0:0:
87,280,52538,6,0,P|81:322|90:363,1,85,0|0,3:2|0:0,0:0:0:0:
121,192,52902,2,0,P|126:149|117:108,1,85,8|0,0:0|3:0,0:0:0:0:
215,0,53265,2,0,P|209:42|218:83,1,85,0|0,0:0|3:0,0:0:0:0:
346,162,53629,1,8,0:0:0:0:
310,75,53811,1,0,0:0:0:0:
249,245,53993,5,0,0:0:0:0:
256,151,54175,1,0,3:0:0:0:
336,278,54356,2,0,P|312:312|276:334,1,85,8|0,0:0|0:0,0:0:0:0:
229,332,54629,1,0,0:0:0:0:
229,332,54720,2,0,L|143:322,1,85,0|0,0:2|3:0,0:0:0:0:
29,198,55084,1,8,0:0:0:0:
40,290,55265,1,0,0:0:0:0:
40,290,55356,1,0,0:0:0:0:
40,289,55447,6,0,P|107:242|113:160,1,170,0|8,3:0|0:0,0:0:0:0:
131,31,55993,1,0,3:0:0:0:
129,49,56084,1,0,0:0:0:0:
126,67,56175,1,0,0:0:0:0:
289,145,56356,1,0,3:0:0:0:
219,82,56538,1,8,0:0:0:0:
271,238,56720,1,0,0:0:0:0:
160,149,56902,6,0,P|201:160|243:159,1,85,0|0,0:0|3:0,0:0:0:0:
289,145,57175,1,0,3:0:0:0:
289,145,57265,2,0,L|386:131,1,85,8|8,0:0|0:0,0:0:0:0:
419,143,57538,1,0,0:0:0:0:
419,143,57629,1,0,0:0:0:0:
364,50,57811,1,0,3:0:0:0:
499,180,57993,1,8,0:0:0:0:
454,60,58175,1,0,0:0:0:0:
371,213,58356,6,0,L|166:242,1,170,2|8,3:2|0:0,0:0:0:0:
117,277,58902,1,0,3:0:0:0:
201,319,59084,2,0,L|285:305,1,85,0|0,0:0|3:0,0:0:0:0:
289,145,59447,2,0,L|205:159,1,85,8|0,0:0|0:0,0:0:0:0:
349,211,59811,6,0,P|372:176|377:134,1,85,0|0,0:0|3:0,0:0:0:0:
265,228,60175,2,0,P|241:262|236:304,1,85,8|0,0:0|0:0,0:0:0:0:
251,349,60447,1,0,0:0:0:0:
251,349,60538,2,0,L|339:369,1,85,0|0,0:0|3:0,0:0:0:0:
424,341,60902,1,8,0:0:0:0:
475,170,61084,1,0,0:0:0:0:
491,262,61265,6,0,P|413:238|382:162,1,170,0|8,3:0|0:0,0:0:0:0:
400,68,61811,1,0,3:0:0:0:
306,77,61993,2,0,P|264:65|229:41,1,85,0|0,0:0|3:0,0:0:0:0:
190,140,62356,2,0,P|147:140|107:154,1,85,8|0,0:0|0:0,0:0:0:0:
137,300,62720,6,0,P|155:262|161:220,1,85,0|0,0:0|3:0,0:0:0:0:
68,236,63084,1,8,0:0:0:0:
49,327,63265,1,0,0:0:0:0:
49,327,63356,1,0,0:0:0:0:
49,327,63447,2,0,P|86:373|123:387,1,85,0|0,0:0|3:0,0:0:0:0:
161,219,63811,1,8,0:0:0:0:
219,292,63993,1,0,0:0:0:0:
67,235,64175,6,0,P|88:156|164:124,1,170,0|8,3:0|0:0,0:0:0:0:
257,128,64720,1,0,3:0:0:0:
342,165,64902,2,0,P|348:123|337:82,1,85,0|0,0:0|3:0,0:0:0:0:
257,128,65265,1,8,0:0:0:0:
294,5,65447,1,0,0:0:0:0:
257,128,65629,6,0,P|250:169|261:210,1,85,0|0,0:0|3:0,0:0:0:0:
341,259,65993,2,0,P|352:299|345:341,1,85,8|0,0:0|0:0,0:0:0:0:
311,373,66265,1,0,0:0:0:0:
311,373,66356,2,0,L|226:360,1,85,0|0,0:0|3:0,0:0:0:0:
126,262,66720,1,8,0:0:0:0:
135,355,66902,1,0,0:0:0:0:
217,192,67084,5,0,3:0:0:0:
208,285,67266,1,0,0:0:0:0:
137,146,67447,2,0,P|166:116|205:99,1,85,8|0,0:0|3:0,0:0:0:0:
251,92,67720,1,0,0:0:0:0:
251,92,67811,2,0,L|356:64,1,85,0|0,0:0|3:0,0:0:0:0:
217,192,68175,1,8,0:0:0:0:
206,18,68356,1,0,0:0:0:0:
304,164,68538,5,0,0:0:0:0:
142,79,68720,1,0,0:0:0:0:
142,79,68811,1,0,3:0:0:0:
141,79,68902,2,0,P|104:98|62:100,1,85,8|0,0:0|0:0,0:0:0:0:
16,88,69175,1,0,0:0:0:0:
16,88,69265,2,0,L|16:189,1,85,0|0,0:0|3:0,0:0:0:0:
75,272,69629,1,8,0:0:0:0:
123,191,69811,1,0,0:0:0:0:
154,320,69993,6,0,L|247:318,1,85,2|0,3:2|0:0,0:0:0:0:
277,292,70265,1,0,0:0:0:0:
277,292,70356,2,0,L|370:294,1,85,8|0,0:0|3:0,0:0:0:0:
432,164,70720,1,0,0:0:0:0:
443,256,70902,1,0,0:0:0:0:
330,152,71084,1,8,0:0:0:0:
341,60,71266,1,0,0:0:0:0:
227,139,71447,6,0,L|237:223,1,85,0|0,0:0|3:0,0:0:0:0:
123,364,71811,2,0,L|133:279,1,85,8|0,0:0|0:0,0:0:0:0:
149,188,72174,1,0,0:0:0:0:
253,315,72357,1,0,3:0:0:0:
227,139,72538,1,8,0:0:0:0:
133,279,72720,1,0,0:0:0:0:
73,137,72902,6,0,P|107:111|146:95,1,85,0|0,3:0|0:0,0:0:0:0:
299,97,73265,2,0,P|266:123|227:139,1,85,8|0,0:0|3:0,0:0:0:0:
222,44,73629,1,0,0:0:0:0:
384,140,73811,1,0,0:0:0:0:
301,13,73993,1,8,0:0:0:0:
311,183,74175,1,0,0:0:0:0:
405,62,74356,6,0,P|452:91|467:124,1,85,0|0,0:0|3:0,0:0:0:0:
206,120,74720,2,0,P|159:91|144:58,1,85,8|0,0:0|0:0,0:0:0:0:
384,140,75084,2,0,P|396:193|384:227,1,85,0|0,0:0|3:0,0:0:0:0:
305,94,75448,2,0,P|291:54|300:13,1,85,8|0,0:0|0:0,0:0:0:0:
305,187,75811,6,0,L|108:214,1,170,0|8,3:0|0:0,0:0:0:0:
48,178,76356,1,0,3:0:0:0:
135,300,76538,1,0,0:0:0:0:
120,128,76720,1,0,0:0:0:0:
57,260,76902,2,0,P|48:301|59:341,1,85,8|0,0:0|0:0,0:0:0:0:
215,339,77265,6,0,P|224:297|213:257,1,85,0|0,0:0|3:0,0:0:0:0:
168,174,77629,1,8,0:0:0:0:
135,300,77811,1,0,0:0:0:0:
171,167,77993,2,0,L|261:147,1,85,0|0,0:0|3:0,0:0:0:0:
371,214,78356,2,0,L|288:232,1,85,8|0,0:0|0:0,0:0:0:0:
410,135,78720,6,0,P|442:161|457:201,1,85,0|0,3:0|0:0,0:0:0:0:
450,295,79084,1,8,0:0:0:0:
371,214,79265,1,0,3:0:0:0:
371,365,79447,1,0,0:0:0:0:
364,228,79629,1,0,0:0:0:0:
264,357,79811,2,0,P|221:355|184:336,1,85,8|0,0:0|0:0,0:0:0:0:
148,249,80175,6,0,P|110:230|68:228,1,85,0|0,0:0|3:0,0:0:0:0:
29,254,80447,1,0,3:0:0:0:
29,254,80538,2,0,L|3:162,1,85,8|8,0:0|0:0,0:0:0:0:
61,35,80902,1,0,0:0:0:0:
80,126,81084,1,0,3:0:0:0:
198,38,81265,1,8,0:0:0:0:
161,170,81447,1,0,0:0:0:0:
198,38,81629,6,0,L|276:196,1,170,4|8,3:2|0:0,0:0:0:0:
319,272,82175,1,4,3:2:0:0:
380,201,82356,2,0,P|389:159|381:118,1,85
319,272,82720,2,0,P|310:314|318:355,1,85,8|0,0:0|0:0,0:0:0:0:
273,190,83084,6,0,L|174:200,1,85,0|0,0:0|3:0,0:0:0:0:
94,203,83447,1,8,0:0:0:0:
148,115,83629,1,0,0:0:0:0:
148,115,83720,1,0,0:0:0:0:
147,115,83811,2,0,P|154:73|143:32,1,85,0|0,0:0|3:0,0:0:0:0:
94,203,84175,2,0,P|87:244|98:285,1,85,8|0,0:0|0:0,0:0:0:0:
181,329,84538,6,0,L|275:318,1,85,0|0,3:0|0:0,0:0:0:0:
311,330,84811,1,0,3:0:0:0:
311,330,84902,2,0,L|405:319,1,85,8|0,0:0|3:0,0:0:0:0:
479,174,85265,1,0,0:0:0:0:
471,267,85447,1,0,3:0:0:0:
376,102,85629,1,8,0:0:0:0:
384,195,85811,1,0,0:0:0:0:
284,100,85993,6,0,P|295:59|323:28,1,85,0|0,0:0|3:0,0:0:0:0:
301,182,86356,2,0,L|193:185,1,85,8|0,0:0|0:0,0:0:0:0:
174,161,86629,1,0,0:0:0:0:
174,161,86720,2,0,L|66:164,1,85,0|0,0:0|3:0,0:0:0:0:
25,289,87084,1,8,0:0:0:0:
6,197,87265,1,0,0:0:0:0:
116,312,87447,6,0,L|224:309,1,85,0|0,3:0|0:0,0:0:0:0:
286,272,87811,2,0,P|301:232|301:189,1,85,8|0,0:0|3:0,0:0:0:0:
281,146,88084,1,0,0:0:0:0:
281,146,88175,2,0,P|281:103|295:63,1,85
370,120,88538,1,8,0:0:0:0:
359,6,88720,1,0,0:0:0:0:
370,120,88902,6,0,L|412:217,1,85,0|0,0:0|3:0,0:0:0:0:
424,289,89265,1,8,0:0:0:0:
330,281,89447,1,0,0:0:0:0:
330,281,89538,1,0,0:0:0:0:
330,281,89629,2,0,P|287:284|251:305,1,85,0|0,0:0|3:0,0:0:0:0:
186,373,89993,2,0,L|112:293,1,85,8|0,0:0|0:0,0:0:0:0:
128,178,90356,6,0,L|185:240,1,85,0|0,3:0|0:0,0:0:0:0:
42,210,90720,1,8,0:0:0:0:
59,117,90902,1,0,3:0:0:0:
59,117,90993,1,0,0:0:0:0:
59,116,91084,2,0,P|93:93|135:84,1,85,0|0,0:0|3:0,0:0:0:0:
254,135,91447,1,8,0:0:0:0:
219,47,91629,1,0,0:0:0:0:
175,216,91811,5,0,0:0:0:0:
254,135,91993,1,0,0:0:0:0:
257,138,92084,1,0,3:0:0:0:
260,141,92175,2,0,L|362:140,1,85,8|8,0:0|0:0,0:0:0:0:
454,242,92538,2,0,P|425:211|420:170,1,85,0|0,0:0|3:0,0:0:0:0:
512,175,92902,1,8,0:0:0:0:
403,323,93084,1,0,0:0:0:0:
346,249,93265,6,0,L|337:162,1,85,2|0,3:2|0:0,0:0:0:0:
403,322,93629,2,0,P|365:341|323:339,1,85,8|0,0:0|3:0,0:0:0:0:
173,234,93993,1,0,0:0:0:0:
212,318,94175,1,0,3:0:0:0:
257,199,94356,2,0,L|248:112,1,85,8|0,0:0|0:0,0:0:0:0:
345,25,94720,6,0,L|336:109,2,85,0|0|8,0:0|3:0|0:0,0:0:0:0:
248,114,95265,1,0,0:0:0:0:
206,30,95447,1,0,0:0:0:0:
87,155,95629,1,0,3:0:0:0:
104,63,95811,2,0,P|154:91|170:118,1,85,8|0,0:0|0:0,0:0:0:0:
233,269,96175,6,0,L|316:283,1,85,0|0,3:0|0:0,0:0:0:0:
194,195,96538,2,0,L|110:209,1,85,8|0,0:0|3:0,0:0:0:0:
233,269,96902,1,0,0:0:0:0:
287,192,97084,1,0,3:0:0:0:
374,222,97265,2,0,P|379:180|364:140,1,85,8|0,0:0|0:0,0:0:0:0:
317,284,97629,6,0,P|306:324|315:365,2,85,0|0|8,0:0|3:0|0:0,0:0:0:0:
399,329,98175,1,0,0:0:0:0:
233,269,98356,1,0,0:0:0:0:
374,222,98538,1,0,3:0:0:0:
286,192,98720,2,0,P|310:157|346:135,1,85,8|0,0:0|0:0,0:0:0:0:
316,284,99084,6,0,L|233:269,1,85,0|0,3:0|0:0,0:0:0:0:
115,183,99447,2,0,L|198:167,1,85,8|0,0:0|3:0,0:0:0:0:
137,277,99811,1,0,0:0:0:0:
47,250,99993,1,0,3:0:0:0:
25,158,100175,2,0,P|29:116|51:79,1,85,8|0,0:0|0:0,0:0:0:0:
184,49,100538,6,0,L|285:42,2,85,0|0|8,0:0|3:0|0:0,0:0:0:0:
108,143,101084,1,0,0:0:0:0:
102,22,101265,1,0,0:0:0:0:
224,126,101447,1,0,3:0:0:0:
268,43,101629,2,0,P|300:71|316:114,1,85,8|0,0:0|0:0,0:0:0:0:
316,275,101993,6,0,P|331:314|362:342,1,85,0|0,3:0|0:0,0:0:0:0:
368,208,102356,2,0,P|329:191|287:193,1,85,8|0,0:0|3:0,0:0:0:0:
185,275,102720,1,0,0:0:0:0:
196,182,102902,1,0,3:0:0:0:
250,319,103084,2,0,P|217:346|176:355,1,85,8|0,0:0|0:0,0:0:0:0:
81,299,103447,6,0,L|80:200,1,85,0|0,0:0|3:0,0:0:0:0:
93,168,103720,1,0,3:0:0:0:
93,168,103811,1,8,0:0:0:0:
185,275,103993,1,8,0:0:0:0:
195,182,104175,2,0,P|237:174|279:177,1,85,0|0,0:0|3:0,0:0:0:0:
361,223,104538,1,8,0:0:0:0:
355,87,104720,1,0,0:0:0:0:
361,223,104902,6,0,L|350:319,1,85,4|0,3:2|0:0,0:0:0:0:
280,177,105265,2,0,L|270:92,1,85,8|0,0:0|3:0,0:0:0:0:
284,266,105629,2,0,P|243:277|201:272,1,85
113,188,105993,2,0,P|154:177|196:182,1,85,8|0,0:0|0:0,0:0:0:0:
66,262,106356,6,0,P|26:192|60:118,1,170,0|8,3:0|0:0,0:0:0:0:
138,64,106902,1,0,3:0:0:0:
138,64,107084,2,0,L|256:60,1,85
337,133,107447,1,8,0:0:0:0:
313,42,107629,1,0,0:0:0:0:
227,235,107811,5,0,3:0:0:0:
251,144,107993,1,0,0:0:0:0:
289,299,108175,2,0,P|253:322|212:327,1,85,8|0,0:0|3:0,0:0:0:0:
75,236,108538,2,0,L|63:138,1,85
137,291,108902,2,0,L|126:375,1,85,8|0,0:0|0:0,0:0:0:0:
164,201,109265,5,0,3:0:0:0:
247,243,109447,1,0,0:0:0:0:
299,95,109629,1,8,0:0:0:0:
317,188,109811,1,0,3:0:0:0:
214,56,109993,2,0,P|239:23|278:7,1,85
206,134,110356,2,0,P|167:117|141:84,1,85,8|0,0:0|0:0,0:0:0:0:
39,104,110720,5,0,3:0:0:0:
80,20,110902,1,0,0:0:0:0:
118,231,111084,1,8,0:0:0:0:
125,138,111265,1,0,3:0:0:0:
33,268,111447,2,0,P|59:302|97:320,1,85
255,306,111811,2,0,P|229:272|191:254,1,85,8|0,0:0|0:0,0:0:0:0:
208,376,112175,6,0,P|289:380|336:313,1,170,0|8,3:0|0:0,0:0:0:0:
339,220,112720,1,0,3:0:0:0:
339,220,112811,1,0,0:0:0:0:
339,220,112902,2,0,L|327:132,1,85
244,58,113265,2,0,L|232:142,1,85,8|0,0:0|0:0,0:0:0:0:
188,226,113629,6,0,P|119:240|57:207,2,144.500002756119,2|0|0,3:2|0:0|0:0,0:0:0:0:
188,226,114720,1,2,0:0:0:0:
256,192,115084,12,6,116538,0:0:0:0:
