osu file format v14

[General]
AudioFilename: Rameses B Utopia.mp3
AudioLeadIn: 0
PreviewTime: 46720
Countdown: 0
SampleSet: Soft
StackLeniency: 0.7
Mode: 0
LetterboxInBreaks: 0
WidescreenStoryboard: 1

[Editor]
Bookmarks: 23421,46694,69967,93239,116542
DistanceSpacing: 1.4
BeatDivisor: 4
GridSize: 32
TimelineZoom: 2.1

[Metadata]
Title:Utopia (ft. Holly Drummond)
TitleUnicode:Utopia (ft. Holly Drummond)
Artist:Rameses B
ArtistUnicode:Rameses B
Creator:Milan-
Version:Hard
Source:
Tags:deetz lullaby liquid chillout drum and bass dnb cut short version Then & Now
BeatmapID:662047
BeatmapSetID:294493

[Difficulty]
HPDrainRate:6
CircleSize:4
OverallDifficulty:6.5
ApproachRate:7.5
SliderMultiplier:1.4
SliderTickRate:1

[Events]
//Background and Video events
0,0,"bgopggmoe.jpg",0,0
//Break Periods
//Storyboard Layer 0 (Background)
//Storyboard Layer 1 (Fail)
//Storyboard Layer 2 (Pass)
//Storyboard Layer 3 (Foreground)
//Storyboard Sound Samples

[TimingPoints]
175,363.636363636364,4,3,2,35,1,0
23447,-117.647058823529,4,3,2,35,0,0
32175,-117.647058823529,4,2,2,35,0,0
42356,-117.647058823529,4,3,2,43,0,0
43811,-117.647058823529,4,3,2,50,0,0
44538,-100,4,3,2,55,0,0
45265,-100,4,2,1,35,0,0
46720,-100,4,2,3,70,0,0
46811,-100,4,2,1,70,0,0
58356,-100,4,2,3,70,0,0
58447,-100,4,2,1,70,0,0
69993,-100,4,2,3,70,0,0
70084,-100,4,2,1,70,0,0
81629,-100,4,2,1,50,0,0
81720,-100,4,2,1,70,0,0
82175,-100,4,2,1,45,0,0
82265,-100,4,2,1,70,0,0
93265,-100,4,2,3,70,0,0
93356,-100,4,2,1,70,0,0
104902,-100,4,2,1,50,0,0
104993,-100,4,2,1,70,0,0
113629,-117.647058823529,4,2,1,70,0,0
116538,-117.647058823529,4,2,3,50,0,0

[Colours]
Combo1 : 206,240,233
Combo2 : 243,216,203

[HitObjects]
143,96,23447,6,0,P|104:140|104:198,1,119.000002269745,4|0,2:3|0:0,0:0:0:0:
183,171,23993,1,0,0:0:0:0:
259,137,24175,2,0,L|318:131,1,59.5000011348724,0|2,0:0|0:2,0:0:0:0:
359,203,24538,2,0,L|418:197,1,59.5000011348724,0|0,0:0|0:0,0:0:0:0:
365,285,24902,2,0,P|310:269|279:220,1,119.000002269745,2|0,0:2|0:0,0:0:0:0:
259,137,25447,1,0,0:0:0:0:
183,171,25629,2,0,L|106:175,1,59.5000011348724,0|2,0:0|0:2,0:0:0:0:
40,181,25993,1,0,0:0:0:0:
77,255,26175,1,0,0:0:0:0:
160,251,26356,6,0,L|278:246,1,119.000002269745,2|0,0:2|0:0,0:0:0:0:
347,199,26902,1,0,0:0:0:0:
411,251,27084,2,0,P|428:195|406:140,1,119.000002269745,0|0,0:0|0:0,0:0:0:0:
347,199,27629,1,0,0:0:0:0:
279,247,27811,2,0,P|261:302|283:357,1,119.000002269745,0|2,0:0|0:2,0:0:0:0:
344,300,28356,1,0,0:0:0:0:
410,251,28538,2,0,L|455:186,1,59.5000011348724,2|0,0:2|0:0,0:0:0:0:
491,133,28902,1,2,0:2:0:0:
333,78,29265,6,0,P|290:88|254:115,1,89.2500017023087
254,115,29629,1,0,0:0:0:0:
201,179,29811,1,2,0:2:0:0:
118,168,29993,2,0,P|62:185|33:235,1,119.000002269745,0|2,0:0|0:2,0:0:0:0:
115,251,30538,1,0,0:0:0:0:
118,168,30720,2,0,L|116:34,1,119.000002269745,0|0,0:0|0:0,0:0:0:0:
196,26,31265,2,0,L|206:97,1,59.5000011348724,0|2,0:0|0:2,0:0:0:0:
262,144,31629,2,0,L|272:215,2,59.5000011348724,0|0|0,0:0|0:0|0:0,0:0:0:0:
310,75,32175,6,0,P|367:63|422:82,1,119.000002269745,2|0,0:0|0:0,0:0:0:0:
196,215,32902,2,0,P|138:226|83:207,1,119.000002269745,0|0,0:0|0:0,0:0:0:0:
287,255,33629,2,0,P|298:312|279:367,1,119.000002269745,2|0,0:0|0:0,0:0:0:0:
147,141,34356,2,0,P|135:83|154:28,1,119.000002269745,0|0,0:0|0:0,0:0:0:0:
281,159,35084,6,0,P|338:147|393:166,2,119.000002269745,4|0|0,0:0|0:0|0:0,0:0:0:0:
192,300,36175,2,0,P|164:289|141:270,1,59.5000011348724,0|0,0:0|0:0,0:0:0:0:
207,219,36538,2,0,P|255:251|272:307,2,119.000002269745,2|0|0,0:0|0:0|0:0,0:0:0:0:
135,68,37629,2,0,P|77:73|37:116,2,119.000002269745,0|2|0,0:0|0:0|0:0,0:0:0:0:
303,64,38720,6,0,P|342:108|400:113,1,119.000002269745,0|0,0:0|0:0,0:0:0:0:
386,278,39447,2,0,P|347:234|289:229,1,119.000002269745,2|0,0:0|0:0,0:0:0:0:
125,260,40175,2,0,P|67:255|28:211,2,119.000002269745,0|0|2,0:0|0:0|0:0,0:0:0:0:
146,95,41265,1,0,0:0:0:0:
146,95,41629,2,0,L|274:74,1,119.000002269745,0|0,0:0|0:0,0:0:0:0:
424,119,42356,6,0,L|446:188,1,59.5000011348724,2|0,0:2|0:0,0:0:0:0:
360,193,42720,2,0,L|344:263,1,59.5000011348724,2|0,0:2|0:0,0:0:0:0:
264,239,43084,2,0,L|215:292,1,59.5000011348724,2|0,0:2|0:0,0:0:0:0:
154,236,43447,2,0,L|85:258,1,59.5000011348724,2|0,0:2|0:0,0:0:0:0:
256,192,43811,12,0,46356,0:0:0:0:
365,111,46720,6,0,L|352:252,1,140,2|8,3:2|0:0,0:0:0:0:
308,330,47265,1,0,3:0:0:0:
233,277,47447,2,0,L|227:204,1,70,0|0,0:0|3:0,0:0:0:0:
148,160,47811,2,0,L|142:229,1,70,8|0,0:0|0:0,0:0:0:0:
70,134,48175,2,0,P|117:85|185:87,1,140,0|8,0:0|0:0,0:0:0:0:
263,133,48720,1,0,0:0:0:0:
263,133,48811,1,0,0:0:0:0:
263,133,48902,2,0,L|340:126,1,70,0|0,0:0|3:0,0:0:0:0:
390,197,49265,2,0,L|467:190,1,70,8|0,0:0|0:0,0:0:0:0:
415,274,49629,6,0,P|348:267|310:211,1,140,0|8,3:0|0:0,0:0:0:0:
229,254,50175,1,0,3:0:0:0:
150,208,50356,2,0,L|65:217,1,70,0|0,0:0|3:0,0:0:0:0:
26,141,50720,2,0,L|95:133,1,70,8|0,0:0|0:0,0:0:0:0:
169,79,51084,2,0,L|308:64,1,140,0|8,0:0|0:0,0:0:0:0:
396,86,51629,1,0,0:0:0:0:
396,86,51720,1,0,0:0:0:0:
396,86,51811,2,0,P|427:146|415:214,1,140,0|8,0:0|0:0,0:0:0:0:
280,336,52538,6,0,P|248:275|260:207,1,140,0|8,3:2|0:0,0:0:0:0:
319,137,53084,1,0,3:0:0:0:
260,207,53265,2,0,P|225:203|194:187,1,70,0|0,0:0|3:0,0:0:0:0:
134,118,53629,2,0,P|103:101|68:98,1,70,8|0,0:0|0:0,0:0:0:0:
78,189,53993,2,0,L|100:358,1,140,0|8,0:0|0:0,0:0:0:0:
182,355,54538,1,0,0:0:0:0:
182,355,54629,1,0,0:0:0:0:
181,355,54720,2,0,P|212:337|246:328,1,70,0|0,0:2|3:0,0:0:0:0:
337,331,55084,6,0,P|405:318|455:272,2,140,8|0|8,0:0|3:0|0:0,0:0:0:0:
368,245,55993,1,0,3:0:0:0:
362,154,56175,2,0,L|323:87,1,70,0|0,0:0|3:0,0:0:0:0:
253,147,56538,2,0,L|217:86,1,70,8|0,0:0|0:0,0:0:0:0:
136,41,56902,6,0,P|124:73|126:108,1,70,0|0,0:0|3:0,0:0:0:0:
132,125,57175,1,0,3:0:0:0:
139,141,57265,2,0,L|122:231,1,70,8|8,0:0|0:0,0:0:0:0:
153,297,57629,1,0,0:0:0:0:
242,278,57811,1,0,3:0:0:0:
303,343,57993,2,0,P|322:313|331:279,1,70,8|0,0:0|0:0,0:0:0:0:
327,188,58356,6,0,P|333:119|376:65,1,140,2|8,3:2|0:0,0:0:0:0:
450,118,58902,2,0,P|443:186|400:240,1,140,0|0,3:0|3:0,0:0:0:0:
316,279,59447,1,8,0:0:0:0:
184,128,59811,2,0,L|190:211,1,70,0|0,0:0|3:0,0:0:0:0:
110,245,60175,2,0,L|104:175,1,70,8|0,0:0|0:0,0:0:0:0:
38,111,60538,2,0,P|50:78|71:50,1,70,0|0,0:0|3:0,0:0:0:0:
163,53,60902,1,8,0:0:0:0:
246,17,61084,1,0,0:0:0:0:
311,79,61265,6,0,P|378:90|434:52,1,140,0|8,3:0|0:0,0:0:0:0:
483,129,61811,2,0,P|424:166|355:177,1,140,0|0,3:0|3:0,0:0:0:0:
267,153,62356,1,8,0:0:0:0:
268,335,62720,2,0,L|292:262,1,70,0|0,0:0|3:0,0:0:0:0:
209,225,63084,2,0,L|187:291,1,70,8|0,0:0|0:0,0:0:0:0:
108,337,63447,2,0,P|95:294|99:263,1,70,0|0,0:0|3:0,0:0:0:0:
124,182,63811,1,8,0:0:0:0:
102,93,63993,1,0,0:0:0:0:
121,2,64175,6,0,P|177:41|191:108,1,140,0|8,3:0|0:0,0:0:0:0:
206,198,64720,2,0,P|263:160|330:171,1,140,0|0,3:0|3:0,0:0:0:0:
404,224,65265,1,8,0:0:0:0:
457,49,65629,2,0,L|444:121,1,70,0|0,0:0|3:0,0:0:0:0:
359,83,65993,2,0,L|371:14,1,70,8|0,0:0|0:0,0:0:0:0:
266,70,66356,2,0,P|273:117|288:143,1,70,0|0,0:0|3:0,0:0:0:0:
323,218,66720,1,8,0:0:0:0:
266,289,66902,1,0,0:0:0:0:
180,258,67084,6,0,P|111:261|64:310,1,140,0|8,3:0|0:0,0:0:0:0:
149,343,67629,1,0,3:0:0:0:
180,258,67811,2,0,L|188:176,1,70,0|0,0:0|3:0,0:0:0:0:
258,131,68175,2,0,L|251:61,1,70,8|0,0:0|0:0,0:0:0:0:
343,116,68538,6,0,L|336:185,1,70,0|0,0:0|0:0,0:0:0:0:
178,110,68902,2,0,L|171:40,1,70,8|0,0:0|0:0,0:0:0:0:
258,131,69265,1,0,0:0:0:0:
196,198,69447,1,0,3:0:0:0:
111,163,69629,2,0,P|47:187|24:251,1,140,8|2,0:0|3:2,0:0:0:0:
60,335,70175,5,0,0:0:0:0:
149,348,70356,2,0,L|228:336,1,70,8|0,0:0|3:0,0:0:0:0:
266,259,70720,2,0,L|345:247,1,70,0|0,0:0|0:0,0:0:0:0:
390,344,71084,2,0,L|320:333,1,70,8|0,0:0|0:0,0:0:0:0:
266,259,71447,5,0,0:0:0:0:
229,175,71629,1,0,3:0:0:0:
174,246,71811,2,0,P|139:251|104:245,1,70,8|0,0:0|0:0,0:0:0:0:
70,160,72175,2,0,P|42:138|22:110,1,70,0|0,0:0|3:0,0:0:0:0:
52,24,72538,2,0,P|79:45|99:73,1,70,8|0,0:0|0:0,0:0:0:0:
151,149,72902,5,0,3:0:0:0:
222,92,73084,1,0,0:0:0:0:
285,156,73265,2,0,L|314:229,1,70,8|0,0:0|3:0,0:0:0:0:
402,214,73629,2,0,L|431:287,1,70,0|0,0:0|0:0,0:0:0:0:
376,384,73993,2,0,L|350:318,1,70,8|0,0:0|0:0,0:0:0:0:
263,291,74356,5,0,0:0:0:0:
263,291,74538,1,0,3:0:0:0:
194,351,74720,2,0,P|177:320|173:285,1,70,8|0,0:0|0:0,0:0:0:0:
183,194,75084,2,0,P|180:125|135:73,2,140,0|8|0,0:0|0:0|3:0,0:0:0:0:
294,49,76175,6,0,P|283:82|283:117,1,70,8|0,0:0|3:0,0:0:0:0:
374,123,76538,2,0,P|384:156|384:191,1,70,0|0,0:0|0:0,0:0:0:0:
308,242,76902,2,0,P|297:275|297:310,1,70,8|0,0:0|0:0,0:0:0:0:
373,359,77265,6,0,P|435:351|513:314,1,140,0|8,0:0|0:0,0:0:0:0:
492,228,77811,1,0,0:0:0:0:
453,145,77993,2,0,L|462:71,1,70,0|0,0:0|3:0,0:0:0:0:
384,27,78356,2,0,L|375:96,1,70,8|0,0:0|0:0,0:0:0:0:
318,168,78720,6,0,P|251:178|195:139,2,140,0|8|0,3:0|0:0|0:0,0:0:0:0:
272,89,79629,1,0,0:0:0:0:
186,57,79811,2,0,P|127:91|114:157,1,140,8|0,0:0|0:0,0:0:0:0:
155,239,80356,5,0,3:0:0:0:
155,239,80447,1,0,3:0:0:0:
155,239,80538,2,0,L|145:311,1,70,8|8,0:0|0:0,0:0:0:0:
222,357,80902,2,0,L|231:287,1,70,0|0,0:0|3:0,0:0:0:0:
316,255,81265,2,0,L|306:327,1,70,8|0,0:0|0:0,0:0:0:0:
401,254,81629,6,0,P|372:192|308:170,1,140,4|8,3:2|0:0,0:0:0:0:
219,194,82175,1,4,3:2:0:0:
219,194,82356,2,0,L|141:75,2,140,0|8|0,0:0|0:0|0:0,0:0:0:0:
234,283,83265,1,0,3:0:0:0:
157,331,83447,2,0,P|122:332|89:319,1,70,8|0,0:0|0:0,0:0:0:0:
74,228,83811,2,0,P|108:227|141:240,1,70,0|0,0:0|3:0,0:0:0:0:
157,331,84175,1,8,0:0:0:0:
234,283,84356,1,0,0:0:0:0:
308,334,84538,6,0,L|390:311,1,70,0|0,3:0|0:0,0:0:0:0:
386,301,84811,1,0,3:0:0:0:
393,285,84902,2,0,L|394:210,1,70,8|0,0:0|3:0,0:0:0:0:
371,126,85265,2,0,P|326:74|258:64,2,140,0|8|0,0:0|0:0|0:0,0:0:0:0:
283,153,86175,1,0,3:0:0:0:
192,149,86356,2,0,L|126:118,1,70,8|0,0:0|0:0,0:0:0:0:
53,171,86720,2,0,L|116:200,1,70,0|0,0:0|3:0,0:0:0:0:
172,273,87084,1,8,0:0:0:0:
261,286,87265,1,0,0:0:0:0:
330,227,87447,6,0,B|365:240|365:240|396:239|396:239|454:295,1,140,0|8,3:0|0:0,0:0:0:0:
397,365,87993,1,0,3:0:0:0:
310,335,88175,2,0,L|261:286,1,70,0|0,0:0|0:0,0:0:0:0:
240,197,88538,2,0,L|190:147,1,70,8|0,0:0|0:0,0:0:0:0:
102,122,88902,2,0,P|98:157|109:190,1,70,0|0,0:0|3:0,0:0:0:0:
167,74,89265,2,0,P|170:39|159:6,1,70,8|0,0:0|0:0,0:0:0:0:
190,147,89629,2,0,L|349:127,2,140,0|8|0,0:0|0:0|3:0,0:0:0:0:
165,234,90538,5,0,0:0:0:0:
211,312,90720,2,0,L|291:303,1,70,8|0,0:0|3:0,0:0:0:0:
351,246,91084,2,0,B|394:245|394:245|436:251|436:251|488:227,1,140,0|8,0:0|0:0,0:0:0:0:
422,162,91629,1,0,0:0:0:0:
394,75,91811,6,0,P|428:71|462:80,1,70,0|0,0:0|0:0,0:0:0:0:
422,162,92175,2,0,P|387:165|353:156,1,70,8|8,0:0|0:0,0:0:0:0:
270,118,92538,2,0,B|230:115|230:115|192:95|192:95|129:113,1,140,0|8,0:0|0:0,0:0:0:0:
62,164,93084,1,0,0:0:0:0:
95,248,93265,6,0,L|96:338,1,70,2|0,3:2|0:0,0:0:0:0:
179,355,93629,2,0,L|221:288,1,70,8|0,0:0|3:0,0:0:0:0:
281,231,93993,2,0,P|311:292|371:326,1,140,0|8,0:0|0:0,0:0:0:0:
401,147,94720,2,0,L|380:6,1,140,0|8,0:0|0:0,0:0:0:0:
301,54,95265,1,0,0:0:0:0:
212,39,95447,2,0,P|177:40|144:52,1,70,0|0,0:0|3:0,0:0:0:0:
71,121,95811,2,0,P|103:132|138:134,1,70,8|0,0:0|0:0,0:0:0:0:
229,126,96175,6,0,P|276:167|268:256,1,140,0|8,3:0|0:0,0:0:0:0:
229,318,96720,1,0,3:0:0:0:
146,280,96902,2,0,L|137:195,1,70,0|0,0:0|3:0,0:0:0:0:
49,194,97265,2,0,L|58:109,1,70,8|0,0:0|0:0,0:0:0:0:
103,45,97629,2,0,P|168:25|234:47,1,140,0|8,0:0|0:0,0:0:0:0:
340,195,98356,2,0,L|336:117,1,70,0|0,0:0|3:0,0:0:0:0:
423,154,98720,2,0,L|432:293,1,140,8|0,0:0|3:0,0:0:0:0:
373,363,99265,5,0,0:0:0:0:
289,326,99447,2,0,P|255:316|220:319,1,70,8|0,0:0|3:0,0:0:0:0:
136,353,99811,2,0,L|105:278,1,70,0|0,0:0|3:0,0:0:0:0:
156,210,100175,2,0,L|125:135,1,70,8|0,0:0|0:0,0:0:0:0:
49,100,100538,2,0,P|101:57|169:62,1,140,0|8,0:0|0:0,0:0:0:0:
319,165,101265,2,0,P|387:170|439:126,1,140,0|8,0:0|0:0,0:0:0:0:
243,120,101993,6,0,P|232:153|234:187,1,70,0|0,3:0|0:0,0:0:0:0:
272,270,102356,2,0,P|273:304|263:337,1,70,8|0,0:0|3:0,0:0:0:0:
175,363,102720,2,0,P|149:339|133:308,1,70,0|0,0:0|3:0,0:0:0:0:
130,216,103084,2,0,P|124:148|73:102,1,140,8|0,0:0|0:0,0:0:0:0:
43,189,103629,5,0,3:0:0:0:
43,189,103720,1,0,3:0:0:0:
43,188,103811,2,0,P|43:223|51:258,1,70,8|8,0:0|0:0,0:0:0:0:
129,305,104175,2,0,L|204:295,1,70,0|0,0:0|3:0,0:0:0:0:
268,237,104538,1,8,0:0:0:0:
347,280,104720,1,0,0:0:0:0:
402,207,104902,6,0,L|412:113,2,70,4|0|8,3:2|0:0|0:0,0:0:0:0:
347,280,105447,1,0,3:0:0:0:
268,237,105629,2,0,P|200:221|135:244,1,140,0|8,0:0|0:0,0:0:0:0:
9,112,106356,2,0,P|76:127|141:104,1,140,0|8,3:0|0:0,0:0:0:0:
213,46,106902,1,0,3:0:0:0:
289,96,107084,2,0,L|363:89,1,70,0|0,0:0|0:0,0:0:0:0:
436,136,107447,6,0,P|457:69|461:0,2,140,8|0|8,0:0|3:0|0:0,0:0:0:0:
375,203,108356,1,0,3:0:0:0:
350,290,108538,2,0,L|363:370,1,70,0|0,0:0|0:0,0:0:0:0:
375,203,108902,2,0,P|307:211|263:263,1,140,8|0,0:0|3:0,0:0:0:0:
238,351,109447,1,0,0:0:0:0:
151,323,109629,2,0,L|129:252,1,70,8|0,0:0|3:0,0:0:0:0:
157,168,109993,2,0,L|135:97,1,70,0|0,0:0|0:0,0:0:0:0:
110,13,110356,1,8,0:0:0:0:
195,44,110538,1,0,0:0:0:0:
285,31,110720,6,0,L|363:22,2,70,0|0|8,3:0|0:0|0:0,0:0:0:0:
243,111,111265,1,0,3:0:0:0:
303,178,111447,2,0,L|441:158,1,140,0|8,0:0|0:0,0:0:0:0:
499,87,111993,1,0,0:0:0:0:
441,158,112175,2,0,P|435:226|476:281,1,140,0|8,3:0|0:0,0:0:0:0:
438,363,112720,1,0,3:0:0:0:
438,363,112811,1,0,0:0:0:0:
438,363,112902,2,0,P|404:353|369:356,1,70,0|0,0:0|0:0,0:0:0:0:
284,324,113265,2,0,P|249:327|215:317,1,70,8|0,0:0|0:0,0:0:0:0:
145,258,113629,6,0,P|91:233|32:234,2,119.000002269745,2|0|0,3:2|0:0|0:0,0:0:0:0:
145,258,114720,1,2,0:0:0:0:
256,192,115084,12,6,116538,0:0:0:0:
