osu file format v14

[General]
AudioFilename: Rameses B Utopia.mp3
AudioLeadIn: 0
PreviewTime: 46720
Countdown: 0
SampleSet: Soft
StackLeniency: 0.7
Mode: 0
LetterboxInBreaks: 0
WidescreenStoryboard: 1

[Editor]
Bookmarks: 23421,46694,69967,93239,116542
DistanceSpacing: 1.1
BeatDivisor: 2
GridSize: 32
TimelineZoom: 1.2

[Metadata]
Title:Utopia (ft. Holly Drummond)
TitleUnicode:Utopia (ft. Holly Drummond)
Artist:Rameses B
ArtistUnicode:Rameses B
Creator:Milan-
Version:Easy
Source:
Tags:deetz lullaby liquid chillout drum and bass dnb cut short version Then & Now
BeatmapID:662210
BeatmapSetID:294493

[Difficulty]
HPDrainRate:2
CircleSize:3
OverallDifficulty:2
ApproachRate:3
SliderMultiplier:0.9
SliderTickRate:1

[Events]
//Background and Video events
0,0,"bgopggmoe.jpg",0,0
//Break Periods
//Storyboard Layer 0 (Background)
//Storyboard Layer 1 (Fail)
//Storyboard Layer 2 (Pass)
//Storyboard Layer 3 (Foreground)
//Storyboard Sound Samples

[TimingPoints]
175,363.636363636364,4,3,2,35,1,0
23447,-100,4,3,2,35,0,0
32175,-100,4,2,2,35,0,0
42356,-100,4,3,2,43,0,0
43811,-100,4,3,2,50,0,0
44538,-100,4,3,2,55,0,0
45265,-100,4,2,1,35,0,0
46720,-100,4,2,3,70,0,0
46811,-100,4,2,1,70,0,0
47084,-100,4,2,4,60,0,0
47265,-100,4,2,1,70,0,0
49993,-100,4,2,4,60,0,0
50175,-100,4,2,1,70,0,0
52175,-100,4,2,4,60,0,0
52356,-100,4,2,1,70,0,0
52902,-100,4,2,4,60,0,0
53084,-100,4,2,1,70,0,0
55811,-100,4,2,4,60,0,0
55993,-100,4,2,1,70,0,0
58356,-100,4,2,3,70,0,0
58447,-100,4,2,1,70,0,0
68902,-100,4,2,4,60,0,0
69084,-100,4,2,1,70,0,0
69993,-100,4,2,3,70,0,0
70084,-100,4,2,1,70,0,0
70356,-100,4,2,4,60,0,0
70538,-100,4,2,1,70,0,0
73265,-100,4,2,4,60,0,0
73447,-100,4,2,1,70,0,0
73993,-100,4,2,4,60,0,0
74175,-100,4,2,1,70,0,0
76175,-100,4,2,4,60,0,0
76356,-100,4,2,1,70,0,0
77629,-100,4,2,4,60,0,0
77811,-100,4,2,1,70,0,0
81629,-100,4,2,1,50,0,0
81720,-100,4,2,1,70,0,0
82175,-100,4,2,1,45,0,0
82265,-100,4,2,1,70,0,0
84902,-100,4,2,4,60,0,0
85084,-100,4,2,1,70,0,0
85629,-100,4,2,4,60,0,0
85811,-100,4,2,1,70,0,0
90720,-100,4,2,4,60,0,0
90902,-100,4,2,1,70,0,0
91447,-100,4,2,4,60,0,0
91629,-100,4,2,1,70,0,0
93265,-100,4,2,3,70,0,0
93356,-100,4,2,1,70,0,0
95084,-100,4,2,4,60,0,0
95265,-100,4,2,1,70,0,0
97993,-100,4,2,4,60,0,0
98175,-100,4,2,1,70,0,0
100902,-100,4,2,4,60,0,0
101084,-100,4,2,1,70,0,0
101629,-100,4,2,4,60,0,0
101811,-100,4,2,1,70,0,0
104902,-100,4,2,1,50,0,0
104993,-100,4,2,1,70,0,0
105265,-100,4,2,4,60,0,0
105447,-100,4,2,1,70,0,0
105993,-100,4,2,4,60,0,0
106175,-100,4,2,1,70,0,0
112538,-100,4,2,4,60,0,0
112720,-100,4,2,1,70,0,0
113629,-100,4,2,1,70,0,0
116538,-100,4,2,3,50,0,0

[Colours]
Combo1 : 206,240,233
Combo2 : 243,216,203

[HitObjects]
210,241,23447,5,4,2:3:0:0:
210,241,24175,2,0,P|254:234|297:244,1,90,0|0,0:0|0:0,0:0:0:0:
378,301,24902,2,0,P|420:224|446:126,1,180,2|0,0:2|0:0,0:0:0:0:
453,36,25993,1,0,0:0:0:0:
357,61,26356,5,2,0:2:0:0:
256,232,27084,1,0,0:0:0:0:
155,61,27811,2,0,P|84:114|62:200,1,180,0|2,0:0|0:2,0:0:0:0:
105,287,28902,2,0,L|200:302,1,90,2|0,0:2|0:0,0:0:0:0:
391,317,29993,6,0,P|462:264|484:178,1,180,0|0,0:0|0:0,0:0:0:0:
342,39,31447,2,0,P|309:69|297:112,1,90,2|0,0:2|0:0,0:0:0:0:
322,208,32175,6,0,L|145:246,1,180,2|0,0:0|0:0,0:0:0:0:
14,97,33629,2,0,L|189:59,1,180,2|0,0:0|0:0,0:0:0:0:
375,128,35084,5,4,0:0:0:0:
330,320,35811,2,0,P|254:292|204:202,1,180,0|2,0:0|0:0,0:0:0:0:
205,12,37265,1,0,0:0:0:0:
261,93,37629,2,0,P|300:113|345:113,1,90,0|2,0:0|0:0,0:0:0:0:
498,239,38720,6,0,P|453:239|413:259,1,90,0|0,0:0|0:0,0:0:0:0:
359,342,39447,2,0,L|163:324,1,180,2|0,0:0|0:0,0:0:0:0:
81,313,40538,1,0,0:0:0:0:
142,235,40902,5,2,0:0:0:0:
67,50,41629,2,0,P|108:35|153:34,1,90,0|0,0:0|0:0,0:0:0:0:
256,192,42356,12,0,45265,0:0:0:0:
440,327,46720,6,0,L|454:147,1,180,2|0,3:2|0:0,0:0:0:0:
376,86,47811,1,8,0:0:0:0:
298,23,48175,2,0,P|278:62|280:107,1,90,0|8,0:0|0:0,0:0:0:0:
344,182,48902,2,0,P|304:202|260:203,1,90,0|8,0:0|0:0,0:0:0:0:
162,181,49629,6,0,P|76:190|30:263,1,180,0|0,3:0|0:0,0:0:0:0:
130,276,50720,1,8,0:0:0:0:
211,332,51084,2,0,L|316:328,1,90,0|8,0:0|0:0,0:0:0:0:
399,318,51811,6,0,P|442:239|470:154,2,180,0|0|0,0:0|3:2|0:0,0:0:0:0:
300,328,53629,1,8,0:0:0:0:
250,241,53993,2,0,P|244:197|256:154,1,90,0|8,0:0|0:0,0:0:0:0:
351,128,54720,2,0,P|329:89|293:62,1,90,0|8,0:2|0:0,0:0:0:0:
194,50,55447,6,0,B|90:60|90:60|43:66|31:128,1,180,0|0,3:0|0:0,0:0:0:0:
43,206,56538,1,8,0:0:0:0:
115,273,56902,2,0,L|204:264,1,90,0|8,0:0|0:0,0:0:0:0:
262,184,57629,2,0,L|351:192,1,90,0|8,0:0|0:0,0:0:0:0:
450,203,58356,5,2,3:2:0:0:
494,114,58720,2,0,P|436:48|349:51,1,180,8|8,0:0|0:0,0:0:0:0:
258,93,59811,2,0,P|215:102|172:90,1,90,0|8,0:0|0:0,0:0:0:0:
83,46,60538,2,0,B|75:88|75:88|82:162,1,90,0|8,0:0|0:0,0:0:0:0:
106,230,61265,5,0,3:0:0:0:
198,263,61629,2,0,P|136:323|49:314,1,180,8|8,0:0|0:0,0:0:0:0:
105,230,62720,2,0,P|130:192|169:170,1,90,0|8,0:0|0:0,0:0:0:0:
267,158,63447,2,0,B|324:156|324:156|377:143,1,90,0|8,0:0|0:0,0:0:0:0:
451,121,64175,5,0,3:0:0:0:
473,217,64538,2,0,P|442:298|360:330,1,180,8|8,0:0|0:0,0:0:0:0:
265,302,65629,2,0,P|221:291|178:301,1,90,0|8,0:0|0:0,0:0:0:0:
104,367,66356,2,0,B|87:334|87:334|79:281,1,90,0|8,0:0|0:0,0:0:0:0:
71,182,67084,6,0,P|90:141|122:110,1,90,0|8,3:0|0:0,0:0:0:0:
207,59,67811,1,0,0:0:0:0:
288,114,68175,1,8,0:0:0:0:
380,82,68538,2,0,P|369:169|292:212,1,180,0|0,0:0|0:0,0:0:0:0:
194,216,69629,1,8,0:0:0:0:
135,295,69993,6,0,P|96:218|132:138,1,180,2|0,3:2|0:0,0:0:0:0:
217,88,71084,1,8,0:0:0:0:
315,75,71447,2,0,L|419:47,1,90,0|8,0:0|0:0,0:0:0:0:
472,122,72175,2,0,L|385:145,1,90,0|8,0:0|0:0,0:0:0:0:
303,201,72902,6,0,P|261:277|290:360,2,180,0|0|0,3:0|0:0|0:0,0:0:0:0:
384,145,74720,1,8,0:0:0:0:
321,68,75084,2,0,P|276:64|234:79,1,90,0|8,0:0|0:0,0:0:0:0:
148,129,75811,6,0,P|78:144|2:74,1,180,0|0,3:0|0:0,0:0:0:0:
96,45,76902,1,8,0:0:0:0:
194,42,77265,2,0,P|241:95|216:196,1,180,0|0,0:0|0:0,0:0:0:0:
143,259,78356,2,0,P|128:300|136:344,1,90,8|0,0:0|3:0,0:0:0:0:
229,309,79084,6,0,L|415:268,2,180,8|8|8,0:0|0:0|0:0,0:0:0:0:
143,259,80902,1,0,0:0:0:0:
170,164,81265,1,8,0:0:0:0:
72,146,81629,6,0,P|103:87|165:64,2,135,4|4|8,3:2|3:2|0:0,0:0:0:0:
170,164,83084,2,0,L|269:148,1,90,0|8,0:0|0:0,0:0:0:0:
336,210,83811,2,0,B|391:209|391:209|430:216,1,90,0|8,0:0|0:0,0:0:0:0:
451,310,84538,6,0,L|502:133,2,180,0|0|0,3:0|0:0|0:0,0:0:0:0:
368,364,86356,1,8,0:0:0:0:
290,302,86720,2,0,P|246:293|201:299,1,90,0|8,0:0|0:0,0:0:0:0:
147,381,87447,6,0,P|107:303|139:222,1,180,0|0,3:0|0:0,0:0:0:0:
289,92,88902,2,0,P|255:62|211:53,1,90,0|8,0:0|0:0,0:0:0:0:
212,152,89629,1,0,0:0:0:0:
303,189,89993,1,8,0:0:0:0:
400,174,90356,6,0,P|373:257|292:288,2,180,0|0|0,3:0|0:0|0:0,0:0:0:0:
379,76,92175,1,8,0:0:0:0:
289,117,92538,2,0,P|244:116|201:102,1,90,0|8,0:0|0:0,0:0:0:0:
153,16,93265,6,0,P|103:87|129:170,1,180,2|0,3:2|0:0,0:0:0:0:
274,304,94720,2,0,P|323:232|297:149,1,180,0|0,0:0|0:0,0:0:0:0:
224,83,95811,1,8,0:0:0:0:
131,119,96175,6,0,P|154:156|193:178,1,90,0|8,3:0|0:0,0:0:0:0:
224,83,96902,2,0,P|200:45|161:23,1,90,0|8,0:0|0:0,0:0:0:0:
64,42,97629,2,0,P|27:121|68:198,1,180,0|0,0:0|0:0,0:0:0:0:
157,242,98720,6,0,L|358:218,1,180,8|8,0:0|0:0,0:0:0:0:
434,217,99811,2,0,P|426:260|399:296,1,90,0|8,0:0|0:0,0:0:0:0:
335,220,100538,2,0,P|370:141|455:120,2,180,0|0|0,0:0|0:0|3:0,0:0:0:0:
309,316,102356,6,0,P|274:344|231:352,1,90,8|0,0:0|0:0,0:0:0:0:
133,332,103084,2,0,L|54:150,1,180,8|8,0:0|0:0,0:0:0:0:
124,90,104175,2,0,L|159:172,1,90,0|8,0:0|0:0,0:0:0:0:
244,223,104902,6,0,P|330:210|374:135,2,180,4|0|0,3:2|0:0|3:0,0:0:0:0:
68,130,107084,1,0,0:0:0:0:
118,214,107447,2,0,P|164:139|133:58,1,180,8|8,0:0|0:0,0:0:0:0:
68,130,108538,1,0,0:0:0:0:
18,215,108902,6,0,P|53:294|137:314,1,180,8|8,0:0|0:0,0:0:0:0:
231,281,109993,1,0,0:0:0:0:
321,241,110356,2,0,P|405:261|440:340,1,180,8|8,0:0|0:0,0:0:0:0:
340,339,111447,2,0,P|296:347|255:364,1,90,0|8,0:0|0:0,0:0:0:0:
156,376,112175,6,0,L|99:197,1,180,0|0,3:0|0:0,0:0:0:0:
69,110,113265,1,8,0:0:0:0:
256,192,113629,12,6,116538,0:0:0:0:
