osu file format v14

[General]
AudioFilename: Rameses B Utopia.mp3
AudioLeadIn: 0
PreviewTime: 46720
Countdown: 0
SampleSet: Soft
StackLeniency: 0.7
Mode: 0
LetterboxInBreaks: 0
WidescreenStoryboard: 1

[Editor]
Bookmarks: 23421,46694,69967,93239,116542
DistanceSpacing: 0.9
BeatDivisor: 2
GridSize: 32
TimelineZoom: 1.2

[Metadata]
Title:Utopia (ft. Holly Drummond)
TitleUnicode:Utopia (ft. Holly Drummond)
Artist:Rameses B
ArtistUnicode:Rameses B
Creator:Milan-
Version:Normal
Source:
Tags:deetz lullaby liquid chillout drum and bass dnb cut short version Then & Now
BeatmapID:662212
BeatmapSetID:294493

[Difficulty]
HPDrainRate:4
CircleSize:3.5
OverallDifficulty:4
ApproachRate:5
SliderMultiplier:1.1
SliderTickRate:1

[Events]
//Background and Video events
0,0,"bgopggmoe.jpg",0,0
//Break Periods
//Storyboard Layer 0 (Background)
//Storyboard Layer 1 (Fail)
//Storyboard Layer 2 (Pass)
//Storyboard Layer 3 (Foreground)
//Storyboard Sound Samples

[TimingPoints]
175,363.636363636364,4,3,2,35,1,0
23447,-111.111111111111,4,3,2,35,0,0
32175,-111.111111111111,4,2,2,35,0,0
42356,-111.111111111111,4,3,2,43,0,0
43811,-111.111111111111,4,3,2,50,0,0
44538,-100,4,3,2,55,0,0
45265,-100,4,2,1,35,0,0
46720,-100,4,2,3,70,0,0
46811,-100,4,2,1,70,0,0
58356,-100,4,2,3,70,0,0
58447,-100,4,2,1,70,0,0
69993,-100,4,2,3,70,0,0
70084,-100,4,2,1,70,0,0
81629,-100,4,2,1,50,0,0
81720,-100,4,2,1,70,0,0
82175,-100,4,2,1,45,0,0
82265,-100,4,2,1,70,0,0
93265,-100,4,2,3,70,0,0
93356,-100,4,2,1,70,0,0
104902,-100,4,2,1,50,0,0
104993,-100,4,2,1,70,0,0
113629,-100,4,2,1,70,0,0
116538,-100,4,2,3,50,0,0

[Colours]
Combo1 : 206,240,233
Combo2 : 243,216,203

[HitObjects]
23,338,23447,6,0,B|88:345|88:345|121:339,1,98.9999969787599,4|0,2:3|0:0,0:0:0:0:
210,313,24175,2,0,B|243:307|243:307|308:314,1,98.9999969787599,0|0,0:0|0:0,0:0:0:0:
393,339,24902,2,0,L|447:226,1,98.9999969787599,2|0,0:2|0:0,0:0:0:0:
458,162,25629,2,0,P|450:138|436:117,1,49.4999984893799,0|2,0:0|0:2,0:0:0:0:
393,113,25993,6,0,B|332:113|332:113|286:103,2,98.9999969787599,0|2|0,0:0|0:2|0:0,0:0:0:0:
354,32,27084,2,0,B|292:21|292:21|255:23,1,98.9999969787599,0|0,0:0|0:0,0:0:0:0:
173,59,27811,2,0,B|161:95|161:95|126:148,1,98.9999969787599,0|2,0:0|0:2,0:0:0:0:
72,216,28538,1,2,0:2:0:0:
122,289,28902,2,0,L|244:282,1,98.9999969787599,2|0,0:2|0:0,0:0:0:0:
280,217,29629,6,0,L|329:213,1,49.4999984893799,0|2,0:0|0:2,0:0:0:0:
371,227,29993,2,0,P|410:199|428:154,1,98.9999969787599,0|2,0:0|0:2,0:0:0:0:
404,68,30720,2,0,L|284:35,1,98.9999969787599,0|0,0:0|0:0,0:0:0:0:
224,71,31447,1,2,0:2:0:0:
140,40,31811,1,0,0:0:0:0:
81,107,32175,6,0,L|77:219,1,98.9999969787599,2|0,0:0|0:0,0:0:0:0:
160,239,32902,2,0,L|163:140,1,98.9999969787599,0|0,0:0|0:0,0:0:0:0:
248,113,33629,2,0,L|244:225,1,98.9999969787599,2|0,0:0|0:0,0:0:0:0:
327,245,34356,2,0,L|330:146,1,98.9999969787599,0|0,0:0|0:0,0:0:0:0:
332,56,35084,5,4,0:0:0:0:
446,192,35811,1,0,0:0:0:0:
331,327,36538,2,0,P|284:317|252:280,1,98.9999969787599,2|0,0:0|0:0,0:0:0:0:
223,196,37265,1,0,0:0:0:0:
138,167,37629,1,0,0:0:0:0:
53,195,37993,6,0,P|49:146|73:103,1,98.9999969787599,2|0,0:0|0:0,0:0:0:0:
150,59,38720,2,0,L|255:55,1,98.9999969787599,0|0,0:0|0:0,0:0:0:0:
337,49,39447,1,2,0:0:0:0:
420,206,40175,1,0,0:0:0:0:
331,208,40538,1,0,0:0:0:0:
287,285,40902,6,0,P|253:249|243:201,1,98.9999969787599,2|0,0:0|0:0,0:0:0:0:
249,112,41629,2,0,P|238:64|205:28,1,98.9999969787599,0|0,0:0|0:0,0:0:0:0:
256,192,42356,12,0,45265,0:0:0:0:
106,75,46720,6,0,L|117:184,1,110,2|8,3:2|0:0,0:0:0:0:
141,227,47265,2,0,P|193:244|247:237,1,110,0|0,3:0|3:0,0:0:0:0:
288,209,47811,1,8,0:0:0:0:
366,149,48175,2,0,P|420:142|471:159,1,110,0|8,0:0|0:0,0:0:0:0:
410,237,48902,2,0,L|416:307,2,55,0|0|8,0:0|3:0|0:0,0:0:0:0:
366,149,49629,6,0,L|334:25,1,110,0|8,3:0|0:0,0:0:0:0:
290,27,50175,2,0,P|236:18|184:37,1,110,0|0,3:0|3:0,0:0:0:0:
150,72,50720,1,8,0:0:0:0:
51,60,51084,2,0,P|58:114|95:154,1,110,0|8,0:0|0:0,0:0:0:0:
193,164,51811,2,0,L|257:131,2,55,0|0|8,0:0|3:0|0:0,0:0:0:0:
134,244,52538,6,0,L|181:361,1,110,0|8,3:2|0:0,0:0:0:0:
219,369,53084,2,0,P|270:354|301:310,1,110,0|0,3:0|3:0,0:0:0:0:
305,260,53629,1,8,0:0:0:0:
313,161,53993,2,0,P|344:116|395:102,1,110,0|8,0:0|0:0,0:0:0:0:
478,156,54720,2,0,L|505:96,2,55,0|0|8,0:2|3:0|0:0,0:0:0:0:
439,247,55447,6,0,P|407:291|356:305,1,110,0|8,3:0|0:0,0:0:0:0:
305,305,55993,2,0,L|185:298,1,110,0|0,3:0|3:0,0:0:0:0:
145,302,56538,1,8,0:0:0:0:
71,235,56902,2,0,L|25:266,2,55,0|0|8,0:0|3:0|0:0,0:0:0:0:
104,197,57447,2,0,P|115:144|95:94,1,110,8|0,0:0|3:0,0:0:0:0:
63,56,57993,2,0,L|190:30,1,110,8|2,0:0|3:2,0:0:0:0:
263,69,58720,5,8,0:0:0:0:
263,69,58902,2,0,P|317:81|370:69,1,110,0|0,3:0|3:0,0:0:0:0:
410,40,59447,1,8,0:0:0:0:
437,135,59811,2,0,L|426:264,1,110,0|8,0:0|0:0,0:0:0:0:
375,329,60538,2,0,L|380:393,2,55,0|0|8,0:0|3:0|0:0,0:0:0:0:
313,251,61265,6,0,P|266:223|211:224,1,110,0|8,3:0|0:0,0:0:0:0:
167,247,61811,2,0,L|47:237,1,110,0|0,3:0|3:0,0:0:0:0:
9,249,62356,1,8,0:0:0:0:
19,150,62720,2,0,L|52:25,1,110,0|8,0:0|0:0,0:0:0:0:
146,48,63447,2,0,L|220:22,2,55,0|0|8,0:0|3:0|0:0,0:0:0:0:
116,142,64175,6,0,P|166:163|220:160,1,110,0|8,3:0|0:0,0:0:0:0:
266,141,64720,2,0,P|320:138|370:159,1,110,0|0,3:0|3:0,0:0:0:0:
404,195,65265,1,8,0:0:0:0:
341,271,65629,2,0,P|286:273|236:252,1,110,0|8,0:0|0:0,0:0:0:0:
162,186,66356,2,0,L|83:191,2,55,0|0|8,0:0|3:0|0:0,0:0:0:0:
255,155,67084,6,0,P|284:109|282:54,1,110,0|8,3:0|0:0,0:0:0:0:
250,16,67629,2,0,L|140:23,1,110,0|0,3:0|3:0,0:0:0:0:
90,29,68175,1,8,0:0:0:0:
52,120,68538,2,0,L|6:151,2,55,0|0|8,0:0|0:0|0:0,0:0:0:0:
98,138,69084,2,0,L|207:130,1,110,0|0,0:0|3:0,0:0:0:0:
253,110,69629,2,0,P|306:116|344:154,1,110,8|2,0:0|3:2,0:0:0:0:
379,247,70356,6,0,L|454:277,2,55,8|0|0,0:0|3:0|0:0,0:0:0:0:
282,268,71084,1,8,0:0:0:0:
188,300,71447,2,0,L|113:330,2,55,0|0|8,0:0|3:0|0:0,0:0:0:0:
282,268,72175,1,0,0:0:0:0:
207,202,72538,1,8,0:0:0:0:
257,116,72902,5,0,3:0:0:0:
352,92,73265,2,0,L|386:41,2,55,8|0|0,0:0|3:0|0:0,0:0:0:0:
257,116,73993,1,8,0:0:0:0:
162,92,74356,2,0,L|128:41,2,55,0|0|8,0:0|3:0|0:0,0:0:0:0:
189,187,75084,1,0,0:0:0:0:
121,258,75447,1,8,0:0:0:0:
183,335,75811,6,0,P|238:338|287:315,1,110,0|8,3:0|0:0,0:0:0:0:
323,281,76356,1,0,3:0:0:0:
323,281,76538,2,0,L|447:301,1,110,0|8,0:0|0:0,0:0:0:0:
485,215,77265,2,0,L|376:197,1,110,0|8,0:0|0:0,0:0:0:0:
312,121,77993,2,0,L|323:47,2,55,0|0|8,0:0|3:0|0:0,0:0:0:0:
271,211,78720,6,0,P|217:217|167:197,1,110,0|8,3:0|0:0,0:0:0:0:
130,163,79265,1,0,3:0:0:0:
130,163,79447,2,0,P|80:143|26:149,1,110,0|8,0:0|0:0,0:0:0:0:
67,238,80175,2,0,P|75:292|114:330,1,110,0|8,0:0|0:0,0:0:0:0:
163,322,80720,1,8,0:0:0:0:
163,322,80902,2,0,L|201:266,2,55,0|0|8,0:0|3:0|0:0,0:0:0:0:
254,359,81629,6,0,L|314:267,1,110,4|8,3:2|0:0,0:0:0:0:
314,217,82175,2,0,L|374:125,1,110,4|0,3:2|0:0,0:0:0:0:
400,83,82720,1,8,0:0:0:0:
305,51,83084,2,0,L|246:61,1,55,0|0,0:0|3:0,0:0:0:0:
205,81,83447,2,0,P|155:93|90:87,1,110,8|0,0:0|0:0,0:0:0:0:
56,60,83993,2,0,P|30:70|8:86,1,55,0|8,3:0|0:0,0:0:0:0:
32,183,84538,6,0,L|38:301,1,110,0|8,3:0|0:0,0:0:0:0:
56,339,85084,2,0,P|106:357|160:347,1,110,0|0,3:0|3:0,0:0:0:0:
201,319,85629,1,8,0:0:0:0:
276,253,85993,2,0,L|330:272,1,55,0|0,0:0|3:0,0:0:0:0:
364,305,86356,2,0,P|418:303|458:266,1,110,8|0,0:0|0:0,0:0:0:0:
449,217,86902,2,0,P|446:189|448:162,1,55,0|8,3:0|0:0,0:0:0:0:
480,68,87447,6,0,L|341:43,1,110,0|8,3:0|0:0,0:0:0:0:
323,63,87993,2,0,P|269:75|215:66,1,110,0|0,3:0|0:0,0:0:0:0:
171,45,88538,1,8,0:0:0:0:
74,67,88902,2,0,L|25:5,2,55,0|0|8,0:0|3:0|0:0,0:0:0:0:
120,154,89629,2,0,L|154:197,2,55,0|0|8,0:0|3:0|0:0,0:0:0:0:
20,154,90356,6,0,P|14:209|33:260,1,110,0|8,3:0|0:0,0:0:0:0:
71,292,90902,2,0,L|180:295,1,110,0|0,3:0|3:0,0:0:0:0:
230,297,91447,1,8,0:0:0:0:
320,256,91811,2,0,P|347:260|371:273,1,55,0|0,0:0|0:0,0:0:0:0:
402,311,92175,2,0,L|458:191,1,110,8|0,0:0|0:0,0:0:0:0:
477,171,92720,2,0,L|478:86,1,55,0|8,3:0|0:0,0:0:0:0:
411,42,93265,6,0,P|356:38|305:58,1,110,2|8,3:2|0:0,0:0:0:0:
271,95,93811,2,0,P|220:115|165:111,1,110,0|0,3:0|3:0,0:0:0:0:
120,91,94356,1,8,0:0:0:0:
48,159,94720,2,0,L|60:304,1,110,0|8,0:0|0:0,0:0:0:0:
131,333,95447,2,0,P|154:319|180:312,1,55,0|0,0:0|3:0,0:0:0:0:
230,313,95811,2,0,P|286:282|323:240,1,110,8|0,0:0|3:0,0:0:0:0:
349,155,96538,5,8,0:0:0:0:
349,155,96720,2,0,L|350:39,1,110,0|0,3:0|3:0,0:0:0:0:
316,8,97265,1,8,0:0:0:0:
239,69,97629,2,0,P|186:83|136:63,1,110,0|8,0:0|0:0,0:0:0:0:
44,26,98356,2,0,L|41:111,1,55,0|0,0:0|3:0,0:0:0:0:
21,126,98720,2,0,L|34:261,1,110,8|0,0:0|3:0,0:0:0:0:
89,315,99447,5,8,0:0:0:0:
89,315,99629,2,0,P|141:331|197:323,1,110,0|0,3:0|3:0,0:0:0:0:
238,299,100175,1,8,0:0:0:0:
306,227,100538,2,0,P|322:174|314:119,1,110,0|8,0:0|0:0,0:0:0:0:
228,70,101265,2,0,L|193:-4,2,55,0|0|8,0:0|3:0|0:0,0:0:0:0:
232,169,101993,6,0,P|178:173|131:145,1,110,0|8,3:0|0:0,0:0:0:0:
107,102,102538,2,0,L|24:189,1,110,0|0,3:0|3:0,0:0:0:0:
10,227,103084,2,0,L|85:306,1,110,8|0,0:0|0:0,0:0:0:0:
183,325,103811,1,8,0:0:0:0:
266,270,104175,1,0,0:0:0:0:
357,307,104538,2,0,P|397:306|420:300,1,55,8|0,0:0|0:0,0:0:0:0:
458,319,104902,6,0,L|436:187,1,110,4|8,3:2|0:0,0:0:0:0:
402,178,105447,1,0,3:0:0:0:
402,178,105630,2,0,L|383:69,1,110,0|8,0:0|0:0,0:0:0:0:
286,77,106356,2,0,P|232:86|181:66,1,110,0|8,3:0|0:0,0:0:0:0:
141,38,106902,2,0,P|99:29|71:32,1,55,0|0,3:0|0:0,0:0:0:0:
64,125,107447,2,0,L|81:236,1,110,8|0,0:0|3:0,0:0:0:0:
151,303,108175,5,8,0:0:0:0:
151,303,108356,1,0,3:0:0:0:
151,303,108539,2,0,P|205:302|257:318,1,110,0|8,0:0|0:0,0:0:0:0:
352,346,109265,2,0,L|417:251,1,110,0|8,3:0|0:0,0:0:0:0:
428,207,109811,2,0,L|459:162,1,55,0|0,3:0|0:0,0:0:0:0:
475,64,110356,1,8,0:0:0:0:
380,91,110720,6,0,P|326:95|280:66,1,110,0|8,3:0|0:0,0:0:0:0:
252,25,111265,1,0,3:0:0:0:
252,25,111448,2,0,L|142:33,1,110,0|8,0:0|0:0,0:0:0:0:
68,100,112175,2,0,P|57:153|69:206,1,110,0|8,3:0|0:0,0:0:0:0:
100,245,112720,1,0,3:0:0:0:
100,245,112902,2,0,L|209:236,1,110,0|8,0:0|0:0,0:0:0:0:
299,277,113629,5,2,3:2:0:0:
389,237,113993,2,0,P|440:144|393:49,1,220,0|2,0:0|0:0,0:0:0:0:
256,192,115084,12,6,116538,0:0:0:0:
