osu file format v14

[General]
AudioFilename: Rameses B.mp3
AudioLeadIn: 0
PreviewTime: 68023
Countdown: 0
SampleSet: Soft
StackLeniency: 0.7
Mode: 0
LetterboxInBreaks: 0
WidescreenStoryboard: 0

[Editor]
Bookmarks: 134460
DistanceSpacing: 0.7
BeatDivisor: 4
GridSize: 4
TimelineZoom: 2.4

[Metadata]
Title:Timeless ft. Veela
TitleUnicode:Timeless ft. Veela
Artist:Rameses B
ArtistUnicode:Rameses B
Creator:Aka
Version:Normal
Source:
Tags:dnb remix drum and bass monstercat liquid
BeatmapID:712969
BeatmapSetID:300330

[Difficulty]
HPDrainRate:4
CircleSize:3.6
OverallDifficulty:4
ApproachRate:5.5
SliderMultiplier:1.15
SliderTickRate:1

[Events]
//Background and Video events
0,0,"fdsfds.jpg",0,0
//Break Periods
//Storyboard Layer 0 (Background)
//Storyboard Layer 1 (Fail)
//Storyboard Layer 2 (Pass)
//Storyboard Layer 3 (Foreground)
//Storyboard Sound Samples

[TimingPoints]
52,342.857142857143,4,2,1,50,1,0
43937,-125,4,2,1,50,0,0
44966,-125,4,2,1,20,0,0
45309,-125,4,2,1,40,0,0
45394,-125,4,2,1,50,0,0
45823,-125,4,2,1,20,0,0
45994,-125,4,2,1,30,0,0
46509,-125,4,2,1,10,0,0
46680,-125,4,2,1,35,0,0
46766,-125,4,2,1,50,0,0
48052,-125,4,2,1,35,0,0
48137,-125,4,2,1,50,0,0
49423,-125,4,2,1,35,0,0
49509,-125,4,2,1,50,0,0
51137,-125,4,2,1,30,0,0
51480,-125,4,2,1,20,0,0
51823,-125,4,2,1,15,0,0
51994,-125,4,2,1,8,0,0
52166,-125,4,2,1,30,0,0
52252,-125,4,2,1,50,0,0
54909,-111.111111111111,4,2,1,50,0,0
55766,-111.111111111111,4,2,1,35,0,0
55937,-111.111111111111,4,2,1,50,0,0
56966,-111.111111111111,4,2,1,30,0,0
57052,-111.111111111111,4,2,1,50,0,0
57309,-111.111111111111,4,2,1,20,0,0
57394,-111.111111111111,4,2,1,50,0,0
59366,-111.111111111111,4,2,1,35,0,0
59709,-111.111111111111,4,2,1,30,0,0
59794,-111.111111111111,4,2,1,50,0,0
60052,-111.111111111111,4,2,1,20,0,0
60137,-111.111111111111,4,2,1,50,0,0
60652,-111.111111111111,4,2,7,50,0,0
60823,-111.111111111111,4,2,1,50,0,0
62794,-111.111111111111,4,2,1,20,0,0
62880,-111.111111111111,4,2,1,50,0,0
64166,-111.111111111111,4,2,1,20,0,0
64252,-111.111111111111,4,2,1,50,0,0
64509,-111.111111111111,4,2,1,25,0,0
65194,-111.111111111111,4,2,1,25,0,0
65537,-111.111111111111,4,2,1,20,0,0
65880,-111.111111111111,4,2,1,40,0,0
66223,-111.111111111111,4,2,1,45,0,0
66566,-111.111111111111,4,2,1,54,0,0
66909,-111.111111111111,4,2,1,64,0,0
68109,-111.111111111111,4,2,1,64,0,0
68280,-111.111111111111,4,1,0,64,0,0
68366,-111.111111111111,4,2,1,64,0,0
68623,-100,4,2,1,80,0,1
68709,-100,4,2,1,80,0,0
68966,-100,4,1,0,65,0,0
69052,-100,4,2,1,80,0,0
69652,-100,4,1,0,65,0,0
69737,-100,4,2,1,80,0,0
70337,-100,4,1,0,65,0,0
70423,-100,4,2,1,80,0,0
71023,-100,4,1,0,65,0,0
71109,-100,4,2,1,80,0,0
71709,-100,4,1,0,65,0,0
71794,-100,4,2,1,80,0,0
72394,-100,4,1,0,65,0,0
72480,-100,4,2,1,80,0,0
73080,-100,4,1,0,65,0,0
73166,-100,4,2,1,80,0,0
73766,-100,4,1,0,65,0,0
73852,-100,4,2,1,80,0,0
74109,-100,4,2,1,65,0,0
74452,-100,4,1,0,65,0,0
74537,-100,4,2,1,80,0,0
75137,-100,4,1,0,65,0,0
75223,-100,4,2,1,80,0,0
75823,-100,4,1,0,65,0,0
75909,-100,4,2,1,80,0,0
76509,-100,4,1,0,65,0,0
76594,-100,4,2,1,80,0,0
77194,-100,4,1,0,65,0,0
77280,-100,4,2,1,80,0,0
77880,-100,4,1,0,65,0,0
78223,-100,4,2,1,80,0,0
78566,-100,4,1,0,65,0,0
78652,-100,4,2,1,80,0,0
79080,-100,4,1,0,65,0,0
79166,-100,4,2,1,80,0,0
79423,-100,4,1,0,65,0,0
79594,-100,4,2,1,80,0,1
79680,-100,4,2,1,80,0,0
79937,-100,4,1,0,65,0,0
80023,-100,4,2,1,80,0,0
80623,-100,4,1,0,65,0,0
80709,-100,4,2,1,80,0,0
81309,-100,4,1,0,65,0,0
81394,-100,4,2,1,80,0,0
81994,-100,4,1,0,65,0,0
82080,-100,4,2,1,80,0,0
82680,-100,4,1,0,65,0,0
82766,-100,4,2,1,80,0,0
83366,-100,4,1,0,65,0,0
83452,-100,4,2,1,80,0,0
84052,-100,4,1,0,65,0,0
84137,-100,4,2,1,80,0,0
84737,-100,4,1,0,65,0,0
84823,-100,4,2,1,80,0,0
85080,-100,4,2,1,65,0,0
85423,-100,4,1,0,65,0,0
85509,-100,4,2,1,80,0,0
86109,-100,4,1,0,65,0,0
86194,-100,4,2,1,80,0,0
86794,-100,4,1,0,65,0,0
86880,-100,4,2,1,80,0,0
87480,-100,4,1,0,65,0,0
87566,-100,4,2,1,80,0,0
88166,-100,4,1,0,65,0,0
88252,-100,4,2,1,80,0,0
88852,-100,4,1,0,65,0,0
89109,-100,4,2,1,80,0,0
89194,-100,4,2,1,80,0,0
90566,-100,4,2,1,80,0,0
90909,-100,4,2,1,43,0,0
90994,-100,4,2,1,80,0,0
91594,-100,4,2,1,48,0,0
91680,-100,4,2,1,80,0,0
91937,-100,4,2,1,60,0,0
92023,-100,4,2,1,80,0,0
92452,-100,4,2,1,45,0,0
92537,-100,4,2,1,80,0,0
92623,-100,4,2,1,40,0,0
92709,-100,4,2,1,80,0,0
92966,-100,4,2,1,35,0,0
93137,-100,4,2,1,30,0,0
93309,-100,4,2,1,80,0,0
95709,-100,4,2,1,43,0,0
95794,-100,4,2,1,80,0,0
97423,-100,4,2,1,40,0,0
97509,-100,4,2,1,80,0,0
97766,-100,4,2,1,35,0,0
97852,-100,4,2,1,80,0,0
98109,-100,4,2,1,35,0,0
98194,-100,4,2,1,80,0,0
98452,-100,4,2,1,30,0,0
98623,-100,4,2,1,30,0,0
98709,-100,4,2,1,80,0,0
103252,-100,4,2,1,40,0,0
103337,-100,4,2,1,80,0,0
103594,-100,4,2,1,50,0,0
103680,-100,4,2,1,80,0,0
103937,-100,4,2,1,36,0,0
104023,-100,4,2,1,80,0,0
105994,-100,4,2,1,36,0,0
106080,-100,4,2,1,80,0,0
106337,-100,4,2,1,50,0,0
106423,-100,4,2,1,80,0,0
106680,-100,4,2,1,42,0,0
106766,-100,4,2,1,80,0,0
107023,-100,4,2,1,70,0,0
109423,-100,4,2,1,36,0,0
109509,-100,4,2,1,75,0,0
110794,-100,4,2,1,40,0,0
110880,-100,4,2,1,75,0,0
111137,-100,4,2,1,45,0,0
111223,-100,4,2,1,70,0,0
111480,-100,4,2,1,35,0,0
111566,-100,4,2,1,70,0,0
111823,-100,4,2,1,35,0,0
111909,-100,4,2,1,40,0,0
112166,-100,4,2,1,30,0,0
112252,-100,4,2,1,70,0,0
114737,-100,4,2,1,75,0,0
115252,-100,4,2,1,80,0,1
115337,-100,4,2,1,80,0,0
115594,-100,4,1,0,65,0,0
115680,-100,4,2,1,80,0,0
116280,-100,4,1,0,65,0,0
116366,-100,4,2,1,80,0,0
116966,-100,4,1,0,65,0,0
117052,-100,4,2,1,80,0,0
117652,-100,4,1,0,65,0,0
117737,-100,4,2,1,80,0,0
118337,-100,4,1,0,65,0,0
118423,-100,4,2,1,80,0,0
119022,-100,4,1,0,65,0,0
119109,-100,4,2,1,80,0,0
119709,-100,4,1,0,65,0,0
119794,-100,4,2,1,80,0,0
120393,-100,4,1,0,65,0,0
120480,-100,4,2,1,80,0,0
121080,-100,4,1,0,65,0,0
121166,-100,4,2,1,80,0,0
121766,-100,4,1,0,65,0,0
121852,-100,4,2,1,80,0,0
122452,-100,4,1,0,65,0,0
122537,-100,4,2,1,80,0,0
122965,-100,4,1,0,65,0,0
123052,-100,4,2,1,80,0,0
123309,-100,4,1,0,65,0,0
123480,-100,4,2,1,80,0,1
123566,-100,4,2,1,80,0,0
123823,-100,4,1,0,65,0,0
123909,-100,4,2,1,80,0,0
124509,-100,4,1,0,65,0,0
124594,-100,4,2,1,80,0,0
125194,-100,4,1,0,65,0,0
125280,-100,4,2,1,80,0,0
125879,-100,4,1,0,65,0,0
125966,-100,4,2,1,65,0,0
126566,-100,4,1,0,80,0,0
126652,-100,4,2,1,80,0,0
127252,-100,4,1,0,65,0,0
127337,-100,4,2,1,80,0,0
127937,-100,4,1,0,65,0,0
128023,-100,4,2,1,80,0,0
128623,-100,4,1,0,65,0,0
128709,-100,4,2,1,80,0,0
129309,-100,4,1,0,65,0,0
129394,-100,4,2,1,80,0,0
129994,-100,4,1,0,65,0,0
130080,-100,4,2,1,80,0,0
130680,-100,4,1,0,65,0,0
130766,-100,4,2,1,80,0,0
131366,-100,4,1,0,65,0,0
131452,-100,4,2,1,80,0,0
132052,-100,4,1,0,65,0,0
132137,-100,4,2,1,80,0,0
132566,-100,4,1,0,65,0,0
132652,-100,4,2,1,80,0,0
132737,-100,4,2,1,80,0,0
133080,-100,4,1,3,40,0,0

[Colours]
Combo1 : 39,169,239
Combo2 : 236,203,70

[HitObjects]
213,336,43937,6,0,P|170:345|75:298,2,138,4|0|10,0:1|1:0|0:0,0:0:0:0:
274,254,45309,2,0,P|266:201|266:144,1,92,2|8,0:0|0:0,0:0:0:0:
284,129,45823,1,2,0:0:0:0:
284,129,45994,2,0,P|332:138|386:135,1,92,2|10,0:0|0:0,0:0:0:0:
470,101,46680,6,0,L|487:247,1,138,0|0,1:0|0:0,0:0:0:0:
421,316,47537,2,0,P|368:331|318:323,1,92
301,299,48052,2,0,L|289:202,1,92,0|8,1:0|0:0,0:0:0:0:
313,173,48566,2,0,P|319:124|315:71,1,92
176,22,49423,6,0,L|72:33,1,92,0|8,1:0|0:0,0:0:0:0:
53,61,49937,2,0,P|46:101|55:166,1,92,0|0,0:0|0:0,0:0:0:0:
191,209,50794,1,2,0:0:0:0:
276,154,51137,1,10,0:0:0:0:
342,230,51480,1,2,0:0:0:0:
265,296,51823,2,0,P|239:300|208:299,1,46,10|2,0:0|0:0,0:0:0:0:
179,280,52166,6,0,P|125:282|66:342,1,138,0|0,1:0|0:0,0:0:0:0:
5,258,53023,2,0,P|24:206|59:172,1,92
90,168,53537,2,0,L|192:164,1,92,0|8,1:0|0:0,0:0:0:0:
224,193,54052,1,0,0:0:0:0:
284,124,54394,1,0,0:0:0:0:
442,187,54909,6,0,P|455:236|455:293,1,103.499996841431,4|8,1:0|0:0,0:0:0:0:
357,346,55594,2,0,P|343:293|348:243,1,103.499996841431,0|8,0:0|0:0,0:0:0:0:
378,135,56280,1,0,1:0:0:0:
270,172,56623,1,10,0:0:0:0:
188,95,56966,2,0,P|139:101|91:144,1,103.499996841431,2|10,0:0|0:0,0:0:0:0:
66,243,57652,6,0,L|90:353,1,103.499996841431,0|8,1:0|0:0,0:0:0:0:
189,292,58337,1,0,0:0:0:0:
283,355,58680,1,8,0:0:0:0:
382,299,59023,2,0,P|391:244|374:193,1,103.499996841431,0|2,1:0|0:0,0:0:0:0:
280,138,59709,1,2,0:0:0:0:
178,188,60052,1,10,0:0:0:0:
73,143,60394,6,0,P|128:84|207:79,2,155.249995262146,0|0|8,1:0|1:0|0:0,0:0:0:0:
101,251,61766,2,0,P|154:248|224:255,1,103.499996841431,0|8,1:0|0:0,0:0:0:0:
308,205,62452,2,0,P|361:211|411:207,1,103.499996841431,0|10,1:0|0:0,0:0:0:0:
512,154,63137,5,0,1:0:0:0:
299,72,63823,1,0,1:0:0:0:
269,181,64166,1,10,0:0:0:0:
155,186,64509,2,0,P|99:170|64:133,2,103.499996841431,2|10|2,0:0|0:0|0:0,0:0:0:0:
239,109,65537,1,10,0:0:0:0:
314,194,65880,6,0,L|324:314,1,103.499996841431,8|8,0:0|0:0,0:0:0:0:
211,323,66566,2,0,L|201:203,1,103.499996841431,8|8,0:0|0:0,0:0:0:0:
239,109,67252,2,0,P|275:105|309:88,1,51.7499984207154,8|4,3:0|0:3,0:0:0:0:
206,21,67766,2,0,P|158:20|95:33,1,103.499996841431,4|0,0:3|1:0,0:0:0:0:
72,52,68280,1,0,0:0:0:0:
17,166,68623,6,0,L|30:284,1,115,4|0,1:0|0:0,0:0:0:0:
124,215,69309,2,0,P|141:194|166:179,1,57.5,0|0,1:0|1:0,0:0:0:0:
209,174,69652,1,0,1:0:0:0:
245,282,69994,2,0,P|291:313|368:306,1,115,0|0,1:0|0:0,0:0:0:0:
439,242,70680,2,0,P|450:206|451:184,1,57.5,0|0,1:0|1:0,0:0:0:0:
434,149,71023,2,0,P|430:112|434:85,1,57.5
450,54,71366,6,0,P|397:63|317:46,1,115,0|0,1:0|0:0,0:0:0:0:
225,23,72052,2,0,P|169:24|108:57,1,115,0|0,1:0|0:0,0:0:0:0:
102,163,72737,1,0,1:0:0:0:
177,251,73080,2,0,P|184:284|180:318,1,57.5,0|0,0:0|0:0,0:0:0:0:
158,339,73423,2,0,L|37:347,1,115,0|0,1:0|0:0,0:0:0:0:
18,314,73937,1,0,0:0:0:0:
4,276,74109,6,0,P|9:215|28:154,1,115,4|0,1:0|0:0,0:0:0:0:
136,173,74794,2,0,P|179:173|204:163,1,57.5,0|0,1:0|1:0,0:0:0:0:
226,146,75137,1,0,0:0:0:0:
318,216,75480,2,0,P|330:271|332:342,1,115,0|0,1:0|0:0,0:0:0:0:
437,285,76166,2,0,P|448:245|448:217,1,57.5,0|0,1:0|1:0,0:0:0:0:
434,190,76509,1,0,0:0:0:0:
347,113,76852,6,0,P|293:127|222:93,1,115,0|0,1:0|0:0,0:0:0:0:
203,127,77366,1,0,1:0:0:0:
164,144,77537,2,0,P|126:144|85:130,2,57.5,0|0|0,1:0|1:0|0:0,0:0:0:0:
213,248,78223,5,4,1:0:0:0:
101,274,78566,1,0,0:0:0:0:
16,195,78909,2,0,L|27:80,1,115,0|0,1:0|0:0,0:0:0:0:
60,55,79423,1,0,1:0:0:0:
98,34,79594,6,0,P|163:25|227:47,1,115,4|0,1:0|0:0,0:0:0:0:
311,91,80280,2,0,P|353:90|386:77,1,57.5,0|0,1:0|1:0,0:0:0:0:
405,64,80623,1,0,0:0:0:0:
471,157,80966,2,0,P|469:199|450:280,1,115,0|0,1:0|0:0,0:0:0:0:
357,333,81652,2,0,P|318:336|296:334,1,57.5,0|0,1:0|1:0,0:0:0:0:
263,314,81994,2,0,P|234:310|205:312,1,57.5,0|0,0:0|0:0,0:0:0:0:
165,317,82337,6,0,P|135:288|108:208,1,115,0|0,1:0|0:0,0:0:0:0:
116,105,83023,2,0,P|136:73|164:53,2,57.5,0|0|0,1:0|1:0|0:0,0:0:0:0:
208,174,83709,1,0,1:0:0:0:
299,104,84052,1,0,0:0:0:0:
399,159,84394,2,0,P|414:112|416:93,1,57.5,0|0,1:0|1:0,0:0:0:0:
412,62,84737,2,0,P|406:30|386:-3,1,57.5
352,8,85080,6,0,P|314:30|228:19,1,115,4|0,1:0|0:0,0:0:0:0:
206,42,85594,1,0,0:0:0:0:
177,73,85766,2,0,P|157:108|149:181,1,115,0|0,1:0|0:0,0:0:0:0:
205,282,86452,1,0,1:0:0:0:
299,216,86794,1,0,0:0:0:0:
389,287,87137,2,0,P|424:287|465:269,2,57.5,0|0|0,1:0|1:0|0:0,0:0:0:0:
278,320,87823,6,0,P|229:334|150:299,1,115,0|0,1:0|0:0,0:0:0:0:
137,286,88337,1,0,1:0:0:0:
116,249,88509,2,0,L|131:121,1,115,0|0,1:0|0:0,0:0:0:0:
235,180,89194,1,0,1:0:0:0:
259,67,89537,2,0,P|228:66|193:71,1,57.5,0|0,0:0|1:0,0:0:0:0:
90,101,90052,2,0,L|17:92,2,57.5,0|0|0,1:0|1:0|0:0,0:0:0:0:
119,133,90566,5,4,0:1:0:0:
189,223,90909,1,10,0:0:0:0:
294,177,91252,2,0,P|333:186|380:254,1,115,0|10,0:0|0:0,0:0:0:0:
452,154,91937,2,0,P|442:95|399:48,1,115,2|8,0:0|0:0,0:0:0:0:
364,45,92452,2,0,L|303:51,1,57.5,2|2,0:0|0:0,0:0:0:0:
209,112,92966,2,0,L|151:106,1,57.5,10|2,0:0|0:0,0:0:0:0:
121,78,93309,5,0,1:0:0:0:
45,165,93652,1,8,0:0:0:0:
120,251,93994,2,0,P|126:281|127:318,2,57.5,0|0|8,0:0|1:0|0:0,0:0:0:0:
187,157,94680,2,0,P|244:137|313:169,1,115,0|8,1:0|0:0,0:0:0:0:
366,242,95366,2,0,P|372:285|366:312,1,57.5,0|0,0:0|0:0,0:0:0:0:
372,340,95709,2,0,L|313:335,1,57.5,10|0,0:0|0:0,0:0:0:0:
274,350,96052,5,0,1:0:0:0:
180,283,96394,1,8,0:0:0:0:
66,313,96737,2,0,P|29:250|40:185,1,115,0|8,0:0|0:0,0:0:0:0:
112,128,97423,1,2,0:0:0:0:
207,193,97766,1,10,0:0:0:0:
311,144,98109,2,0,P|371:134|445:155,1,115,2|10,0:0|0:0,0:0:0:0:
457,171,98623,1,2,0:0:0:0:
484,202,98794,6,0,P|481:155|489:84,1,115,0|8,1:0|0:0,0:0:0:0:
387,31,99480,2,0,P|352:29|325:35,2,57.5,8|0|8,0:0|1:0|0:0,0:0:0:0:
357,142,100166,2,0,P|301:184|281:238,1,115,0|8,1:0|0:0,0:0:0:0:
191,153,100852,2,0,P|176:113|161:90,1,57.5,8|0,0:0|0:0,0:0:0:0:
136,72,101194,2,0,P|97:54|70:48,1,57.5,8|0,0:0|0:0,0:0:0:0:
41,51,101537,5,4,0:1:0:0:
9,161,101880,1,8,0:0:0:0:
120,187,102223,2,0,P|145:235|134:305,1,115,0|8,0:0|0:0,0:0:0:0:
114,326,102737,1,0,0:0:0:0:
83,352,102909,2,0,P|146:351|213:352,1,115,0|10,1:0|0:0,0:0:0:0:
293,292,103594,1,2,0:0:0:0:
263,180,103937,1,10,0:0:0:0:
339,94,104280,6,0,P|396:85|462:112,1,115,0|8,1:1|0:0,0:0:0:0:
457,217,104966,2,0,P|400:226|334:199,1,115,0|8,0:0|0:0,0:0:0:0:
315,182,105480,1,0,0:0:0:0:
279,161,105652,2,0,P|232:154|157:187,1,115,0|10,1:0|0:0,0:0:0:0:
113,276,106337,1,2,0:0:0:0:
211,335,106680,1,10,0:0:0:0:
318,295,107023,6,0,P|327:242|326:212,1,57.5,0|0,1:0|0:0,0:0:0:0:
314,197,107366,2,0,P|318:165|334:126,1,57.5,8|0,0:0|0:0,0:0:0:0:
354,110,107709,1,0,0:0:0:0:
244,75,108052,2,0,L|179:78,1,57.5,8|0,0:0|0:0,0:0:0:0:
149,102,108394,2,0,P|136:137|55:167,1,115,0|8,1:0|0:0,0:0:0:0:
47,282,109080,2,0,P|52:321|61:355,2,57.5,0|0|10,0:0|1:0|0:0,0:0:0:0:
159,306,109766,6,0,P|204:313|238:309,1,57.5,0|0,1:0|0:0,0:0:0:0:
258,304,110109,2,0,P|286:299|315:301,1,57.5,8|0,0:0|0:0,0:0:0:0:
356,318,110452,1,0,0:0:0:0:
436,236,110794,1,10,0:0:0:0:
398,127,111137,2,0,P|356:108|279:123,1,115,2|10,0:0|0:0,0:0:0:0:
186,64,111823,2,0,P|195:19|194:-10,2,57.5,2|2|10,0:0|3:0|0:0,0:0:0:0:
102,143,112509,5,0,1:0:0:0:
346,267,114737,2,0,P|380:268|415:259,2,57.5,0|8|0,1:0|0:0|0:0,0:0:0:0:
305,251,115252,6,0,P|263:251|197:301,1,115,4|0,1:0|0:0,0:0:0:0:
91,263,115937,2,0,P|81:226|81:188,1,57.5,0|0,1:0|1:0,0:0:0:0:
86,166,116280,1,0,0:0:0:0:
179,98,116623,1,0,1:0:0:0:
248,189,116966,1,0,0:0:0:0:
355,148,117309,2,0,P|368:108|366:77,2,57.5,0|0|0,1:0|1:0|0:0,0:0:0:0:
360,262,117994,6,0,P|395:293|479:280,1,115,0|0,1:0|0:0,0:0:0:0:
507,186,118680,2,0,L|497:127,1,57.5,0|0,1:0|1:0,0:0:0:0:
463,105,119023,1,0,0:0:0:0:
349,125,119366,2,0,P|293:124|225:118,1,115,0|0,1:0|0:0,0:0:0:0:
153,201,120052,2,0,P|162:248|163:268,2,57.5,0|0|0,1:0|0:0|0:0,0:0:0:0:
91,103,120737,5,0,1:0:0:0:
187,40,121080,2,0,L|245:40,1,57.5,0|0,0:0|0:0,0:0:0:0:
283,60,121423,2,0,L|346:58,1,57.5,0|0,1:0|0:0,0:0:0:0:
380,40,121766,1,0,0:0:0:0:
457,125,122109,6,0,P|468:166|459:260,1,115,4|0,1:0|0:0,0:0:0:0:
386,321,122794,2,0,P|341:335|274:330,1,115,0|0,1:0|0:0,0:0:0:0:
235,313,123309,1,0,0:0:0:0:
201,288,123480,6,0,L|209:155,1,115,4|0,0:1|0:0,0:0:0:0:
101,216,124166,2,0,L|95:285,2,57.5,0|0|0,1:0|1:0|0:0,0:0:0:0:
147,110,124852,2,0,P|206:87|268:105,1,115,0|0,1:0|0:0,0:0:0:0:
290,122,125366,1,0,0:0:0:0:
322,151,125537,2,0,P|360:156|397:149,2,57.5,0|0|0,1:0|0:0|0:0,0:0:0:0:
216,197,126223,5,0,1:0:0:0:
305,269,126566,2,0,P|313:292|320:350,1,57.5,0|0,0:0|0:0,0:0:0:0:
361,316,126909,2,0,P|387:315|430:319,1,57.5,0|0,1:0|1:0,0:0:0:0:
458,333,127252,1,0,0:0:0:0:
499,226,127594,1,0,1:0:0:0:
418,144,127937,2,0,L|424:86,1,57.5,0|0,0:0|0:0,0:0:0:0:
389,60,128280,2,0,P|355:62|331:59,1,57.5,0|0,1:0|1:0,0:0:0:0:
291,43,128623,2,0,P|245:41|212:47,1,57.5,0|0,0:0|0:0,0:0:0:0:
199,68,128966,6,0,P|147:85|82:66,1,115,0|0,1:0|0:0,0:0:0:0:
25,167,129652,2,0,P|19:212|21:236,2,57.5,0|0|0,1:0|1:0|0:0,0:0:0:0:
130,211,130337,1,0,1:0:0:0:
224,145,130680,1,0,0:0:0:0:
307,224,131023,2,0,P|312:278|305:300,2,57.5,0|0|0,1:0|0:0|1:0,0:0:0:0:
359,121,131709,6,0,P|415:124|463:94,1,115,0|0,1:0|0:0,0:0:0:0:
458,138,132223,2,0,P|441:186|432:255,1,115,0|0,1:0|0:0,0:0:0:0:
442,292,132737,1,0,1:0:0:0:
256,192,133080,12,4,134452,1:0:0:0:
