osu file format v14

[General]
AudioFilename: swet.mp3
AudioLeadIn: 0
PreviewTime: 107037
Countdown: 0
SampleSet: None
StackLeniency: 0.7
Mode: 0
LetterboxInBreaks: 0
WidescreenStoryboard: 1

[Editor]
Bookmarks: 11155,22127,33098,44069,66012,76984,87955,98927,109898,131841,175727,197669,208641,219612
DistanceSpacing: 0.95
BeatDivisor: 2
GridSize: 32
TimelineZoom: 0.8999999

[Metadata]
Title:Sweet Surrender (ft. Charlotte Haining)
TitleUnicode:Sweet Surrender (ft. Charlotte Haining)
Artist:Rameses B
ArtistUnicode:Rameses B
Creator:Milan-
Version:Normal
Source:
Tags:dnb drum and bass chopping liquicity alchemy melodic liquid
BeatmapID:794078
BeatmapSetID:358335

[Difficulty]
HPDrainRate:4
CircleSize:3.5
OverallDifficulty:4
ApproachRate:5
SliderMultiplier:1.1
SliderTickRate:1

[Events]
//Background and Video events
0,0,"swd3e2.jpg",0,0
//Break Periods
2,88208,96408
//Storyboard Layer 0 (Background)
//Storyboard Layer 1 (Fail)
//Storyboard Layer 2 (Pass)
//Storyboard Layer 3 (Foreground)
//Storyboard Sound Samples

[TimingPoints]
237,342.857142857143,4,3,0,50,1,0
22179,-100,4,3,1,50,0,0
33151,-100,4,3,1,55,0,0
38637,-100,4,3,1,57,0,0
41379,-100,4,3,1,59,0,0
42751,-100,4,3,1,55,0,0
44122,-100,4,3,1,65,0,1
65722,-100,4,3,1,65,0,1
65979,-100,4,3,1,10,0,1
66065,-100,4,3,1,50,0,0
77037,-100,4,3,1,55,0,0
85265,-100,4,3,1,59,0,0
88008,-100,4,3,1,50,0,0
98979,-100,4,3,1,55,0,0
109951,-100,4,3,1,65,0,1
120579,-100,4,3,1,65,0,1
120837,-100,4,3,1,10,0,1
120922,-100,4,3,1,60,0,1
131208,-100,4,3,1,55,0,1
131551,-100,4,3,1,55,0,1
131894,-100,4,3,1,60,0,0

[Colours]
Combo1 : 180,71,220
Combo2 : 31,214,140
Combo3 : 66,147,236
Combo4 : 233,75,80

[HitObjects]
336,84,22179,6,0,L|342:249,1,165,6|8,0:2|0:1,0:0:0:0:
101,351,23551,2,0,L|107:186,1,165,2|0,0:0|0:0,0:0:0:0:
110,133,24237,2,0,P|125:81|169:42,1,110,0|0,0:0|0:0,0:0:0:0:
268,45,24922,6,0,P|252:98|213:135,1,110,2|0,0:0|0:0,0:0:0:0:
189,181,25437,1,8,0:1:0:0:
189,181,25608,2,0,L|199:296,1,110,0|2,0:0|0:2,0:0:0:0:
276,360,26294,2,0,P|346:357|393:276,1,165,2|2,0:0|0:0,0:0:0:0:
363,181,27151,2,0,L|367:60,1,110,2|0,0:0|0:0,0:0:0:0:
346,22,27665,6,0,P|304:41|226:40,1,110,2|0,0:0|0:0,0:0:0:0:
190,28,28179,1,0,0:0:0:0:
190,28,28351,2,0,L|66:77,1,110,0|2,0:0|0:2,0:0:0:0:
13,142,29037,2,0,L|34:319,1,165,2|0,0:0|0:0,0:0:0:0:
110,375,29894,2,0,P|150:316|190:301,1,110,2|0,0:0|0:0,0:0:0:0:
235,313,30408,6,0,L|348:304,1,110,2|0,0:0|0:0,0:0:0:0:
396,311,30922,1,8,0:1:0:0:
396,311,31094,2,0,P|421:262|414:200,1,110,0|2,0:0|0:2,0:0:0:0:
374,113,31779,2,0,P|370:58|395:10,1,110,2|0,0:0|0:0,0:0:0:0:
447,3,32294,1,0,0:0:0:0:
447,3,32465,2,0,P|483:43|494:96,1,110,0|0,0:0|0:0,0:0:0:0:
470,198,33151,6,0,L|463:318,1,110,2|8,1:2|0:1,0:0:0:0:
478,358,33665,1,8,0:1:0:0:
478,358,33837,2,0,L|365:362,1,110,0|8,1:0|0:1,0:0:0:0:
263,363,34522,2,0,L|270:243,1,110,0|8,1:0|0:1,0:0:0:0:
255,203,35037,1,8,0:1:0:0:
255,203,35208,2,0,L|368:199,1,110,0|8,1:0|0:1,0:0:0:0:
462,159,35894,6,0,P|438:98|372:57,1,110,2|8,1:2|0:1,0:0:0:0:
353,64,36408,1,8,0:1:0:0:
353,64,36579,2,0,L|237:60,1,110,0|8,1:0|0:1,0:0:0:0:
156,118,37265,2,0,P|180:179|246:220,1,110,0|8,1:0|0:1,0:0:0:0:
265,213,37779,1,8,0:1:0:0:
265,213,37951,2,0,L|381:217,1,110,0|8,1:0|0:1,0:0:0:0:
472,255,38637,6,0,L|463:371,1,110,2|8,1:2|0:1,0:0:0:0:
363,332,39322,1,0,1:0:0:0:
264,366,39665,1,8,0:1:0:0:
160,352,40008,2,0,P|117:303|113:236,1,110,0|8,1:0|0:1,0:0:0:0:
136,159,40694,1,0,1:0:0:0:
128,54,41037,1,8,0:1:0:0:
256,192,41379,12,2,42751,0:0:0:0:
137,113,43779,5,8,0:1:0:0:
206,191,44122,6,0,P|270:197|332:150,1,110,6|8,0:2|0:1,0:0:0:0:
339,133,44637,2,0,P|388:111|442:119,1,110,0|0,0:0|1:0,0:0:0:0:
487,145,45151,1,8,0:1:0:0:
437,237,45494,2,0,L|435:362,1,110,0|8,1:0|0:1,0:0:0:0:
333,324,46179,2,0,L|323:259,2,55,0|0|8,0:0|1:0|0:1,0:0:0:0:
244,380,46865,6,0,P|190:365|156:313,1,110,0|8,1:0|0:1,0:0:0:0:
147,272,47379,2,0,L|130:136,1,110,0|0,0:0|1:0,0:0:0:0:
128,110,47894,1,8,0:1:0:0:
209,45,48237,2,0,P|264:33|334:41,1,110,0|8,1:0|0:1,0:0:0:0:
414,75,48922,2,0,L|465:57,2,55,0|0|8,0:0|1:0|0:1,0:0:0:0:
340,149,49608,6,0,P|334:212|357:282,1,110,0|8,1:0|0:1,0:0:0:0:
368,303,50122,2,0,L|484:293,1,110,0|0,0:0|1:0,0:0:0:0:
512,255,50637,1,8,0:1:0:0:
448,171,50979,2,0,P|443:119|446:55,1,110,0|8,1:0|0:1,0:0:0:0:
355,7,51665,2,0,P|325:5|298:9,1,55,0|0,0:0|1:0,0:0:0:0:
250,24,52008,1,8,0:1:0:0:
180,101,52351,6,0,P|122:102|76:76,1,110,0|8,1:0|0:1,0:0:0:0:
47,34,52865,2,0,L|24:169,1,110,0|0,0:0|1:0,0:0:0:0:
20,194,53379,1,8,0:1:0:0:
93,268,53722,2,0,P|150:274|213:258,1,110,0|8,1:0|0:1,0:0:0:0:
299,225,54408,2,0,L|324:274,2,55,0|0|8,0:0|1:0|0:1,0:0:0:0:
283,121,55094,6,0,P|301:67|364:34,1,110,6|8,0:2|0:1,0:0:0:0:
392,55,55608,2,0,L|459:159,1,110,0|0,0:0|1:0,0:0:0:0:
473,194,56122,1,8,0:1:0:0:
427,287,56465,2,0,P|382:309|316:297,1,110,0|8,1:0|0:1,0:0:0:0:
224,268,57151,2,0,L|157:287,2,55,0|0|8,0:0|1:0|0:1,0:0:0:0:
289,186,57837,6,0,P|283:108|255:68,1,110,0|8,1:0|0:1,0:0:0:0:
218,62,58351,2,0,L|103:68,1,110,0|0,0:0|1:0,0:0:0:0:
57,82,58865,1,8,0:1:0:0:
19,179,59208,2,0,P|64:226|119:229,1,110,0|8,1:0|0:1,0:0:0:0:
206,202,59894,2,0,L|257:157,2,55,0|0|8,0:0|1:0|0:1,0:0:0:0:
200,306,60579,6,0,P|243:355|297:360,1,110,0|8,1:0|0:1,0:0:0:0:
331,338,61094,2,0,L|446:320,1,110,0|0,0:0|1:0,0:0:0:0:
492,322,61608,1,8,0:1:0:0:
442,229,61951,2,0,P|430:178|436:100,1,110,0|8,1:0|0:1,0:0:0:0:
461,20,62637,2,0,P|429:16|397:23,1,55,0|0,0:0|1:0,0:0:0:0:
355,29,62979,1,8,0:1:0:0:
279,101,63322,6,0,L|280:171,2,55,8|0|0,0:1|1:0|1:0,0:0:0:0:
238,67,63837,2,0,L|247:10,2,55,8|0|0,0:1|1:0|1:0,0:0:0:0:
194,96,64351,1,8,0:1:0:0:
144,187,64694,6,0,L|161:309,1,110,0|0,1:0|1:0,0:0:0:0:
182,342,65208,1,0,1:0:0:0:
182,342,65379,2,0,P|221:348|277:343,1,55,8|0,0:1|1:0,0:0:0:0:
288,342,65722,1,8,0:1:0:0:
315,241,66065,6,0,P|361:184|415:168,1,110,6|8,0:2|0:1,0:0:0:0:
493,202,66751,2,0,L|505:266,2,55,0|0|8,0:0|1:0|0:1,0:0:0:0:
469,99,67437,2,0,P|435:63|359:49,1,110,0|8,1:0|0:1,0:0:0:0:
273,50,68122,2,0,L|222:2,2,55,0|0|8,0:0|1:0|0:1,0:0:0:0:
301,150,68808,6,0,L|306:266,1,110,0|8,1:2|0:1,0:0:0:0:
259,353,69494,2,0,P|229:362|189:363,1,55,0|0,0:0|1:0,0:0:0:0:
153,357,69837,1,8,0:1:0:0:
104,264,70179,2,0,L|108:154,1,110,0|8,1:0|0:1,0:0:0:0:
123,103,70694,2,0,P|162:53|218:39,1,110,0|0,0:0|1:0,0:0:0:0:
256,46,71208,1,8,0:1:0:0:
316,131,71551,6,0,P|380:164|429:152,1,110,2|8,1:2|0:1,0:0:0:0:
500,97,72237,2,0,L|502:22,2,55,0|0|8,0:0|1:0|0:1,0:0:0:0:
498,201,72922,2,0,L|515:340,1,110,0|8,1:0|0:1,0:0:0:0:
497,361,73437,2,0,P|443:374|378:346,1,110,0|0,0:0|1:0,0:0:0:0:
346,331,73951,1,8,0:1:0:0:
257,274,74294,6,0,P|186:267|114:293,1,110,0|8,1:2|0:1,0:0:0:0:
71,346,74979,2,0,P|53:323|40:282,1,55,0|0,0:0|1:0,0:0:0:0:
29,248,75322,1,8,0:1:0:0:
39,144,75665,2,0,P|91:66|138:45,1,110,0|8,1:0|0:1,0:0:0:0:
154,67,76179,2,0,P|227:75|294:54,1,110,0|0,0:0|1:0,0:0:0:0:
309,44,76694,1,8,0:1:0:0:
389,110,77037,6,0,L|395:222,1,110,6|8,0:2|0:1,0:0:0:0:
347,241,77551,2,0,L|368:348,1,110,0|0,0:0|1:0,0:0:0:0:
409,381,78065,1,8,0:1:0:0:
479,304,78408,2,0,L|484:194,1,110,0|8,1:0|0:1,0:0:0:0:
477,89,79094,2,0,L|516:36,2,55,0|0|8,0:0|1:0|0:1,0:0:0:0:
389,145,79779,6,0,P|305:130|261:101,1,110,0|8,1:0|0:1,0:0:0:0:
199,56,80465,2,0,L|185:-43,2,55,0|0|8,0:0|1:0|0:1,0:0:0:0:
196,160,81151,2,0,L|186:273,1,110,0|8,1:0|0:1,0:0:0:0:
169,319,81665,2,0,P|103:338|53:322,1,110,0|0,0:0|1:0,0:0:0:0:
17,305,82179,1,8,0:1:0:0:
52,206,82522,6,0,L|42:96,1,110,2|8,1:2|0:1,0:0:0:0:
45,43,83037,2,0,P|106:57|173:35,1,110,0|0,0:0|1:0,0:0:0:0:
195,18,83551,1,8,0:1:0:0:
286,67,83894,2,0,L|339:187,1,110,0|8,1:0|0:1,0:0:0:0:
376,261,84579,2,0,L|368:340,2,55,0|0|8,0:0|1:0|0:1,0:0:0:0:
432,172,85265,5,0,1:0:0:0:
509,242,85608,1,8,0:1:0:0:
454,331,85951,1,0,1:0:0:0:
376,261,86294,1,8,0:1:0:0:
274,234,86637,1,0,1:0:0:0:
173,260,86979,2,0,B|147:296|147:296|134:306|134:306|103:355,2,110,8|8|8,0:1|0:1|0:1,0:0:0:0:
198,158,88008,5,2,1:2:0:0:
356,119,97608,6,0,L|414:78,2,55,0|0|8,1:0|1:0|0:1,0:0:0:0:
273,184,98294,2,0,P|226:192|151:169,1,110,0|0,0:0|0:0,0:0:0:0:
69,137,98979,6,0,L|63:264,1,110,6|8,0:2|0:1,0:0:0:0:
46,296,99494,2,0,P|83:341|171:344,1,110,2|0,0:1|1:0,0:0:0:0:
183,345,100008,1,8,0:1:0:0:
277,300,100351,2,0,L|410:284,1,110,2|8,1:1|0:1,0:0:0:0:
435,303,100865,1,2,0:1:0:0:
476,207,101208,2,0,L|465:149,1,55,2|8,1:0|0:1,0:0:0:0:
408,65,101722,6,0,L|275:49,1,110,2|10,1:0|0:1,0:0:0:0:
247,63,102237,2,0,P|185:91|112:73,1,110,2|0,0:1|1:0,0:0:0:0:
95,69,102751,1,8,0:1:0:0:
77,171,103094,2,0,L|106:278,1,110,2|8,1:0|0:1,0:0:0:0:
130,323,103608,2,0,L|196:323,1,55,2|0,0:1|0:1,0:0:0:0:
227,353,103951,2,0,L|290:333,1,55,2|8,1:0|0:1,0:0:0:0:
359,269,104465,6,0,P|323:185|290:163,1,110,2|8,1:0|0:1,0:0:0:0:
258,181,104979,2,0,P|203:163|169:93,1,110,2|0,0:1|1:0,0:0:0:0:
161,70,105494,1,8,0:1:0:0:
265,70,105837,2,0,L|387:53,1,110,2|8,1:0|0:1,0:0:0:0:
426,58,106351,1,2,0:1:0:0:
489,141,106694,2,0,L|509:207,1,55,2|8,1:0|0:1,0:0:0:0:
490,297,107208,6,0,P|439:332|377:320,1,110,2|8,1:0|0:1,0:0:0:0:
351,297,107722,2,0,P|273:279|208:304,1,110,2|0,0:1|1:0,0:0:0:0:
197,307,108237,1,8,0:1:0:0:
99,269,108579,5,0,1:0:0:0:
101,59,109265,2,0,L|75:-12,2,55,0|0|8,0:0|1:0|0:1,0:0:0:0:
169,138,109951,6,0,P|244:137|288:102,1,110,6|8,0:2|0:1,0:0:0:0:
299,75,110465,2,0,P|369:46|418:54,1,110,2|0,0:1|1:0,0:0:0:0:
450,68,110979,1,8,0:1:0:0:
427,170,111322,2,0,L|428:295,1,110,2|8,1:0|0:1,0:0:0:0:
434,332,111837,1,2,0:1:0:0:
341,380,112179,2,0,L|284:375,1,55,2|8,1:0|0:1,0:0:0:0:
200,314,112694,6,0,P|121:304|54:311,1,110,2|8,1:0|0:1,0:0:0:0:
43,327,113208,2,0,P|23:277|36:209,1,110,2|0,0:1|1:0,0:0:0:0:
60,179,113722,1,8,0:1:0:0:
155,136,114065,2,0,L|268:135,1,110,2|8,1:0|0:1,0:0:0:0:
310,160,114579,1,2,0:1:0:0:
310,160,114751,2,0,L|316:227,2,55,0|2|8,0:1|1:0|0:1,0:0:0:0:
366,71,115437,6,0,P|418:37|471:40,1,110,2|8,1:0|0:1,0:0:0:0:
485,85,115951,2,0,L|495:200,1,110,2|0,0:1|1:0,0:0:0:0:
498,246,116465,1,8,0:1:0:0:
420,315,116808,2,0,L|307:315,1,110,2|8,1:0|0:1,0:0:0:0:
260,331,117322,1,2,0:1:0:0:
171,275,117665,2,0,L|162:209,1,55,2|8,1:0|0:1,0:0:0:0:
197,121,118179,6,0,P|276:104|327:123,1,110,2|8,1:0|0:1,0:0:0:0:
341,145,118694,2,0,P|396:146|441:111,1,110,2|0,0:1|1:0,0:0:0:0:
455,64,119208,1,8,0:1:0:0:
360,19,119551,2,0,P|308:6|240:11,1,110,2|8,1:0|0:1,0:0:0:0:
209,38,120065,1,2,0:1:0:0:
209,38,120237,2,0,L|107:51,1,55,0|0,0:0|1:0,0:0:0:0:
105,62,120579,1,8,0:1:0:0:
158,152,120922,6,0,L|173:272,1,110,6|8,0:2|0:1,0:0:0:0:
173,313,121437,1,2,1:0:0:0:
27,372,121951,1,8,0:1:0:0:
44,268,122294,2,0,L|39:150,1,110,2|8,1:0|0:1,0:0:0:0:
37,105,122808,2,0,P|63:55|114:26,1,110,2|2,1:0|1:0,0:0:0:0:
160,27,123322,1,8,0:1:0:0:
252,75,123665,6,0,L|414:76,1,110,2|8,1:0|0:1,0:0:0:0:
412,90,124179,1,2,1:0:0:0:
480,231,124694,1,8,0:1:0:0:
376,213,125037,2,0,L|214:214,1,110,2|8,1:0|0:1,0:0:0:0:
216,231,125551,2,0,P|191:282|205:347,1,110,2|2,1:0|1:0,0:0:0:0:
230,373,126065,1,8,0:1:0:0:
332,353,126408,6,0,L|441:353,1,110,2|8,1:1|0:1,0:0:0:0:
493,362,126922,2,0,P|512:313|492:236,1,110,2|0,1:0|1:0,0:0:0:0:
475,213,127437,1,8,0:1:0:0:
411,130,127779,2,0,L|296:125,1,110,2|8,1:0|0:1,0:0:0:0:
252,145,128294,1,2,0:1:0:0:
252,145,128465,2,0,L|178:144,1,55,0|2,1:0|0:1,0:0:0:0:
146,157,128808,1,8,0:1:0:0:
58,99,129151,6,0,P|43:171|91:247,1,165,10|10,0:1|0:1,0:0:0:0:
240,285,130179,2,0,L|404:272,1,165,10|10,0:1|0:1,0:0:0:0:
472,130,131208,1,10,0:1:0:0:
401,53,131551,1,10,0:1:0:0:
296,59,131894,5,2,1:2:0:0:
