osu file format v14

[General]
AudioFilename: swet.mp3
AudioLeadIn: 0
PreviewTime: 107037
Countdown: 0
SampleSet: None
StackLeniency: 0.7
Mode: 0
LetterboxInBreaks: 0
WidescreenStoryboard: 0

[Editor]
Bookmarks: 11155,22127,33098,44069,66012,76984,87955,98927,109898,131841,175727,197669,208641,219612
DistanceSpacing: 1.3
BeatDivisor: 4
GridSize: 32
TimelineZoom: 1.599999

[Metadata]
Title:Sweet Surrender (ft. Charlotte Haining)
TitleUnicode:Sweet Surrender (ft. Charlotte Haining)
Artist:Rameses B
ArtistUnicode:Rameses B
Creator:Milan-
Version:Hard
Source:
Tags:dnb drum and bass chopping liquicity alchemy melodic liquid
BeatmapID:794077
BeatmapSetID:358335

[Difficulty]
HPDrainRate:6
CircleSize:4
OverallDifficulty:6
ApproachRate:7.5
SliderMultiplier:1.4
SliderTickRate:1

[Events]
//Background and Video events
0,0,"swd3e2.jpg",0,0
//Break Periods
2,88208,96783
//Storyboard Layer 0 (Background)
//Storyboard Layer 1 (Fail)
//Storyboard Layer 2 (Pass)
//Storyboard Layer 3 (Foreground)
//Storyboard Sound Samples

[TimingPoints]
237,342.857142857143,4,3,0,50,1,0
22179,-125,4,3,1,50,0,0
33151,-111.111111111111,4,3,1,55,0,0
38637,-111.111111111111,4,3,1,57,0,0
41379,-100,4,3,1,59,0,0
42751,-125,4,3,1,55,0,0
44122,-100,4,3,1,65,0,1
65722,-125,4,3,1,65,0,1
65979,-125,4,3,1,10,0,1
66065,-111.111111111111,4,3,1,50,0,0
77037,-100,4,3,1,55,0,0
85265,-100,4,3,1,59,0,0
88008,-125,4,3,1,50,0,0
98979,-100,4,3,1,55,0,0
109951,-100,4,3,1,65,0,1
120579,-125,4,3,1,65,0,1
120837,-125,4,3,1,10,0,1
120922,-100,4,3,1,60,0,1
131208,-90.9090909090909,4,3,1,55,0,1
131551,-83.3333333333333,4,3,1,55,0,1
131894,-100,4,3,1,60,0,0

[Colours]
Combo1 : 180,71,220
Combo2 : 31,214,140
Combo3 : 66,147,236
Combo4 : 233,75,80

[HitObjects]
155,56,22179,6,0,L|288:50,1,112,6|0,0:2|0:0,0:0:0:0:
266,50,22694,1,8,0:1:0:0:
79,194,23551,6,0,L|212:188,1,112,2|0,0:0|0:0,0:0:0:0:
281,230,24065,1,0,0:0:0:0:
281,230,24237,2,0,L|290:286,1,56,0|2,0:0|0:0,0:0:0:0:
368,242,24579,2,0,L|377:298,1,56,0|0,0:0|0:0,0:0:0:0:
465,310,24922,6,0,L|444:190,1,112,2|0,0:0|0:0,0:0:0:0:
445,109,25437,1,8,0:1:0:0:
445,109,25522,1,0,0:0:0:0:
445,109,25608,2,0,L|386:92,1,56,0|0,0:0|0:0,0:0:0:0:
301,90,25951,1,2,0:2:0:0:
301,90,26294,6,0,P|250:117|186:100,1,112,2|0,0:0|0:0,0:0:0:0:
122,59,26808,2,0,L|98:191,1,112,2|2,0:0|0:0,0:0:0:0:
87,257,27322,1,0,0:0:0:0:
171,225,27494,1,0,0:0:0:0:
241,279,27665,5,2,0:0:0:0:
349,136,28008,2,0,P|379:172|390:201,1,56,0|0,0:0|0:0,0:0:0:0:
298,210,28351,2,0,P|268:174|257:145,1,56,0|0,0:0|0:0,0:0:0:0:
274,76,28694,2,0,P|259:52|240:32,1,56,2|0,0:2|0:0,0:0:0:0:
190,106,29037,6,0,P|159:143|99:162,1,112,2|0,0:0|0:0,0:0:0:0:
11,146,29551,1,0,0:0:0:0:
11,146,29722,2,0,L|12:227,1,56,0|2,0:0|0:0,0:0:0:0:
56,280,30065,2,0,P|77:259|96:231,1,56,0|0,0:0|0:0,0:0:0:0:
158,177,30408,6,0,P|182:227|197:239,2,56,2|0|0,0:0|0:0|0:0,0:0:0:0:
195,95,30922,1,8,0:1:0:0:
195,95,31008,1,0,0:0:0:0:
195,95,31094,2,0,L|259:83,1,56,0|0,0:0|0:0,0:0:0:0:
339,75,31437,1,2,0:2:0:0:
339,75,31779,6,0,L|372:189,1,112,2|0,0:0|0:0,0:0:0:0:
399,268,32294,1,0,0:0:0:0:
399,268,32465,2,0,L|364:333,1,56,0|2,0:0|0:0,0:0:0:0:
301,372,32808,1,0,0:0:0:0:
287,283,32979,1,0,0:0:0:0:
209,378,33151,6,0,P|157:377|93:321,1,125.999996154785,2|8,1:2|0:1,0:0:0:0:
74,248,33665,1,8,0:1:0:0:
92,161,33837,2,0,L|90:18,1,125.999996154785,0|8,1:0|0:1,0:0:0:0:
265,56,34522,6,0,L|266:181,1,125.999996154785,0|8,1:0|0:1,0:0:0:0:
293,275,35037,1,8,0:1:0:0:
293,275,35122,1,0,0:0:0:0:
293,275,35208,2,0,P|325:285|357:287,1,62.9999980773926,0|0,1:0|0:0,0:0:0:0:
442,278,35551,1,8,0:1:0:0:
484,76,35894,6,0,L|488:201,1,125.999996154785,2|8,1:2|0:1,0:0:0:0:
442,278,36408,1,8,0:1:0:0:
374,221,36579,2,0,P|319:196|233:204,1,125.999996154785,0|8,1:0|0:1,0:0:0:0:
137,329,37265,6,0,P|74:330|17:304,1,125.999996154785,0|8,1:0|0:1,0:0:0:0:
93,248,37779,1,8,0:1:0:0:
93,248,37865,1,0,0:0:0:0:
93,248,37951,2,0,L|95:168,1,62.9999980773926,0|0,1:0|0:0,0:0:0:0:
102,96,38294,1,8,0:1:0:0:
257,12,38637,5,2,1:2:0:0:
257,12,38808,1,0,1:0:0:0:
313,79,38979,2,0,L|318:164,1,62.9999980773926,8|8,0:1|0:1,0:0:0:0:
230,122,39322,5,0,1:0:0:0:
230,122,39494,1,0,1:0:0:0:
174,189,39665,2,0,L|169:274,1,62.9999980773926,8|8,0:1|0:1,0:0:0:0:
256,230,40008,5,0,1:0:0:0:
256,230,40179,1,0,1:0:0:0:
312,297,40351,2,0,L|317:382,1,62.9999980773926,8|8,0:1|0:1,0:0:0:0:
228,340,40694,5,0,1:0:0:0:
228,340,40865,1,0,1:0:0:0:
172,273,41037,2,0,L|167:188,1,62.9999980773926,8|8,0:1|0:1,0:0:0:0:
204,118,41379,6,0,L|214:76,3,35,8|0|8|0,0:1|0:0|0:1|0:0,0:0:0:0:
254,109,41722,2,0,L|264:67,3,35,8|0|8|0,0:1|0:0|0:1|0:0,0:0:0:0:
303,102,42065,2,0,L|313:60,3,35,8|0|8|0,0:1|0:0|0:1|0:0,0:0:0:0:
351,96,42408,2,0,L|361:54,3,35,8|8|8|8,0:1|0:1|0:1|0:1,0:0:0:0:
400,95,42751,6,0,L|420:8,2,84,2|8|4,0:0|0:3|0:3,0:0:0:0:
413,273,43608,5,8,0:3:0:0:
305,213,43779,1,8,0:1:0:0:
305,213,44122,6,0,P|236:222|144:210,1,140,6|8,0:2|0:1,0:0:0:0:
84,173,44637,1,0,0:0:0:0:
48,256,44808,2,0,P|42:289|55:338,1,70,0|0,0:0|1:0,0:0:0:0:
131,286,45151,1,8,0:1:0:0:
238,138,45494,5,0,1:0:0:0:
305,213,45665,1,0,0:0:0:0:
305,213,45751,1,0,0:0:0:0:
305,213,45837,2,0,P|351:218|397:212,1,70,8|0,0:1|0:0,0:0:0:0:
462,192,46179,2,0,L|475:112,1,70,0|0,0:0|1:0,0:0:0:0:
375,68,46522,2,0,L|386:137,1,70,8|0,0:1|0:0,0:0:0:0:
433,264,46865,6,0,P|387:299|284:323,1,140,0|8,1:0|0:1,0:0:0:0:
221,298,47379,1,0,0:0:0:0:
149,355,47551,2,0,P|135:325|135:272,1,70,0|0,0:0|1:0,0:0:0:0:
140,196,47894,1,8,0:1:0:0:
140,196,48237,6,0,P|176:190|210:172,1,70,0|0,1:0|0:0,0:0:0:0:
226,149,48494,1,0,0:0:0:0:
226,149,48579,2,0,L|302:139,1,70,8|0,0:1|0:0,0:0:0:0:
380,172,48922,2,0,L|459:173,1,70,0|0,0:0|1:0,0:0:0:0:
494,252,49265,2,0,L|424:252,1,70,8|0,0:1|0:0,0:0:0:0:
306,210,49608,6,0,P|301:147|368:88,1,140,0|8,1:0|0:1,0:0:0:0:
440,81,50122,1,0,0:0:0:0:
440,81,50294,2,0,P|423:44|386:15,1,70,0|0,0:0|1:0,0:0:0:0:
312,4,50637,1,8,0:1:0:0:
178,126,50979,6,0,L|87:127,1,70,0|0,1:0|0:0,0:0:0:0:
82,148,51237,1,0,0:0:0:0:
82,148,51322,2,0,P|75:182|79:222,1,70,8|0,0:1|0:0,0:0:0:0:
152,269,51665,2,0,P|158:303|156:338,1,70,0|0,0:0|1:0,0:0:0:0:
252,291,52008,2,0,P|301:280|342:284,1,70,8|0,0:1|0:0,0:0:0:0:
439,320,52351,6,0,P|408:241|445:193,1,140,0|8,1:0|0:1,0:0:0:0:
511,151,52865,1,0,0:0:0:0:
428,110,53037,2,0,P|396:102|343:107,1,70,0|0,0:0|1:0,0:0:0:0:
271,126,53379,1,8,0:1:0:0:
271,126,53722,6,0,L|225:146,3,35,0|0|0|0,1:0|0:0|0:0|0:0,0:0:0:0:
207,147,54065,2,0,L|131:125,1,70,8|0,0:1|0:0,0:0:0:0:
83,199,54408,2,0,L|150:218,1,70,0|0,0:0|1:0,0:0:0:0:
206,290,54751,2,0,L|289:289,1,70,8|0,0:1|0:0,0:0:0:0:
401,218,55094,6,0,L|257:206,1,140,6|8,0:2|0:1,0:0:0:0:
199,139,55608,1,0,0:0:0:0:
254,67,55779,2,0,L|247:-6,2,70,0|0|8,0:0|1:0|0:1,0:0:0:0:
119,190,56465,5,0,1:0:0:0:
193,262,56637,1,0,0:0:0:0:
193,262,56722,1,0,0:0:0:0:
193,262,56808,2,0,L|185:349,1,70,8|0,0:1|0:0,0:0:0:0:
286,273,57151,2,0,L|298:355,1,70,0|0,0:0|1:0,0:0:0:0:
371,235,57494,1,8,0:1:0:0:
371,235,57837,6,0,L|373:136,1,70,0|0,1:0|0:0,0:0:0:0:
281,166,58179,2,0,L|279:67,1,70,8|0,0:1|0:0,0:0:0:0:
334,22,58522,2,0,P|365:24|422:29,1,70,0|0,0:0|1:0,0:0:0:0:
243,9,58865,1,8,0:1:0:0:
243,9,59208,6,0,P|208:12|159:13,1,70,0|0,1:0|0:0,0:0:0:0:
139,6,59465,1,0,0:0:0:0:
139,6,59551,2,0,L|128:100,1,70,8|0,0:1|0:0,0:0:0:0:
49,116,59894,2,0,L|44:41,1,70,0|0,0:0|1:0,0:0:0:0:
124,162,60237,2,0,L|113:256,1,70,8|0,0:1|0:0,0:0:0:0:
24,328,60579,6,0,L|13:183,1,140,0|8,1:0|0:1,0:0:0:0:
52,105,61094,1,0,0:0:0:0:
52,105,61265,2,0,P|81:79|132:71,1,70,0|0,0:0|1:0,0:0:0:0:
201,78,61608,1,8,0:1:0:0:
290,236,61951,6,0,P|299:208|301:158,1,70,0|0,1:0|0:0,0:0:0:0:
308,133,62208,1,0,0:0:0:0:
308,133,62294,2,0,P|362:142|390:139,1,70,8|0,0:1|0:0,0:0:0:0:
465,117,62637,2,0,L|484:37,2,70,0|0|8,0:0|1:0|0:1,0:0:0:0:
397,334,63322,5,8,0:1:0:0:
397,334,63494,1,0,1:0:0:0:
436,252,63665,2,0,L|419:183,1,70,0|8,1:0|0:1,0:0:0:0:
343,234,64008,5,0,1:0:0:0:
343,234,64179,1,0,1:0:0:0:
304,152,64351,2,0,L|321:83,1,70,8|0,0:1|1:0,0:0:0:0:
219,26,64694,6,0,L|225:103,1,70,0|8,1:0|0:1,0:0:0:0:
206,185,65037,2,0,P|170:169|142:136,1,70,0|0,1:0|1:0,0:0:0:0:
101,70,65379,2,0,P|73:98|61:141,1,70,8|0,0:1|1:0,0:0:0:0:
72,216,65722,1,8,0:1:0:0:
72,216,66065,6,0,B|115:233|115:233|140:257|140:257|203:280,2,125.999996154785,6|8|0,0:2|0:1|0:0,0:0:0:0:
19,287,66922,2,0,L|26:368,1,62.9999980773926,0|8,1:0|0:1,0:0:0:0:
182,272,67437,6,0,L|189:128,2,125.999996154785,0|8|0,1:0|0:1|0:0,0:0:0:0:
238,339,68294,2,0,P|270:345|311:339,1,62.9999980773926,0|8,1:0|0:1,0:0:0:0:
106,248,68808,6,0,L|113:104,2,125.999996154785,0|8|0,1:2|0:1|0:0,0:0:0:0:
42,309,69665,2,0,P|20:265|22:235,1,62.9999980773926,0|8,1:0|0:1,0:0:0:0:
73,56,70179,6,0,P|100:48|162:50,1,62.9999980773926,0|0,1:0|0:0,0:0:0:0:
215,82,70522,1,8,0:1:0:0:
254,161,70694,2,0,P|281:169|343:167,1,62.9999980773926,0|0,0:0|0:0,0:0:0:0:
398,141,71037,1,0,1:0:0:0:
387,228,71208,2,0,P|401:258|433:297,1,62.9999980773926,8|0,0:1|0:0,0:0:0:0:
398,141,71551,6,0,P|403:77|461:25,1,125.999996154785,2|8,1:2|0:1,0:0:0:0:
482,112,72065,1,0,0:0:0:0:
467,199,72237,2,0,P|470:232|488:274,2,62.9999980773926,0|0|8,0:0|1:0|0:1,0:0:0:0:
482,112,72751,1,0,0:0:0:0:
398,141,72922,6,0,P|337:138|261:130,1,125.999996154785,0|8,1:0|0:1,0:0:0:0:
184,118,73437,2,0,P|187:150|202:188,2,62.9999980773926,0|0|0,0:0|0:0|1:0,0:0:0:0:
236,48,73951,2,0,P|273:42|318:52,1,62.9999980773926,8|0,0:1|0:0,0:0:0:0:
398,141,74294,6,0,P|337:138|261:130,1,125.999996154785,0|8,1:2|0:1,0:0:0:0:
184,118,74808,2,0,L|42:133,1,125.999996154785,0|0,0:0|1:0,0:0:0:0:
5,202,75322,1,8,0:1:0:0:
5,202,75665,6,0,P|53:243|114:254,1,125.999996154785,0|8,1:0|0:1,0:0:0:0:
199,228,76179,2,0,P|260:238|307:279,1,125.999996154785,0|0,0:0|1:0,0:0:0:0:
333,368,76694,1,8,0:1:0:0:
333,368,77037,6,0,L|387:375,3,35,6|0|0|0,0:2|0:0|0:0|0:0,0:0:0:0:
400,340,77379,2,0,L|457:333,3,35,8|0|0|0,0:1|0:0|0:0|0:0,0:0:0:0:
461,298,77722,2,0,L|502:268,3,35,0|0|0|0,0:0|0:0|1:0|0:0,0:0:0:0:
508,235,78065,1,8,0:1:0:0:
365,122,78408,6,0,P|301:141|203:131,1,140,0|8,1:0|0:1,0:0:0:0:
157,80,78922,1,0,0:0:0:0:
151,91,79008,1,0,0:0:0:0:
144,102,79094,2,0,L|96:125,3,35,0|0|0|0,0:0|0:0|1:0|0:0,0:0:0:0:
86,140,79437,2,0,L|82:222,1,70,8|0,0:1|0:0,0:0:0:0:
149,297,79779,6,0,P|177:216|219:184,1,140,0|8,1:0|0:1,0:0:0:0:
303,217,80294,1,0,0:0:0:0:
309,228,80379,1,0,0:0:0:0:
316,239,80465,2,0,L|364:262,3,35,0|0|0|0,0:0|0:0|1:0|0:0,0:0:0:0:
387,258,80808,1,8,0:1:0:0:
483,103,81151,6,0,P|485:77|478:33,1,70,0|0,1:0|0:0,0:0:0:0:
395,71,81494,2,0,L|382:35,2,35,8|0|0,0:1|0:0|0:0,0:0:0:0:
374,159,81837,2,0,L|376:218,2,35,0|0|0,0:0|0:0|1:0,0:0:0:0:
305,99,82179,2,0,P|245:87|211:89,1,70,8|0,0:1|0:0,0:0:0:0:
134,163,82522,6,0,P|67:173|0:146,1,140,2|8,1:2|0:1,0:0:0:0:
54,71,83037,1,0,0:0:0:0:
66,78,83122,1,0,0:0:0:0:
78,85,83208,2,0,L|122:77,3,35,0|0|0|0,0:0|0:0|1:0|0:0,0:0:0:0:
142,59,83551,2,0,L|226:61,1,70,8|0,0:1|0:0,0:0:0:0:
316,138,83894,6,0,P|332:194|301:274,1,140,0|8,1:0|0:1,0:0:0:0:
222,306,84408,1,0,0:0:0:0:
161,238,84579,2,0,L|127:315,1,70,0|0,0:0|1:0,0:0:0:0:
85,380,84922,1,8,0:1:0:0:
54,200,85265,5,0,1:0:0:0:
54,200,85437,1,0,1:0:0:0:
87,115,85608,2,0,L|165:84,1,70,8|0,0:1|1:0,0:0:0:0:
202,187,85951,5,0,1:0:0:0:
202,187,86122,1,0,1:0:0:0:
235,102,86294,2,0,L|313:71,1,70,8|0,0:1|1:0,0:0:0:0:
346,177,86637,5,0,1:0:0:0:
346,177,86808,1,0,1:0:0:0:
379,92,86979,2,0,L|457:61,1,70,8|0,0:1|1:0,0:0:0:0:
462,73,87237,1,0,1:0:0:0:
479,81,87322,2,0,L|499:136,3,35,8|0|8|0,0:1|0:0|0:1|0:0,0:0:0:0:
488,159,87665,2,0,L|492:221,3,35,8|0|8|0,0:1|0:0|0:1|0:0,0:0:0:0:
479,228,88008,5,2,1:2:0:0:
392,140,97608,5,0,1:0:0:0:
392,140,97779,1,0,1:0:0:0:
315,187,97951,2,0,L|251:186,1,56,8|0,0:1|0:0,0:0:0:0:
179,144,98294,2,0,B|172:206|172:206|183:247|183:247|175:318,1,168,0|0,0:0|0:0,0:0:0:0:
92,223,98979,6,0,L|114:66,1,140,6|8,0:2|0:1,0:0:0:0:
181,25,99494,2,0,P|254:18|312:53,1,140,2|0,0:1|1:0,0:0:0:0:
371,117,100008,2,0,P|408:117|467:103,1,70,8|0,0:1|0:0,0:0:0:0:
287,125,100351,6,0,P|223:153|188:214,1,140,2|8,1:1|0:1,0:0:0:0:
169,299,100865,2,0,P|137:315|103:321,1,70,2|0,0:1|0:0,0:0:0:0:
105,230,101208,2,0,P|71:218|43:199,1,70,2|8,1:0|0:1,0:0:0:0:
54,108,101551,1,0,0:0:0:0:
54,108,101637,1,0,0:0:0:0:
54,108,101722,6,0,P|91:67|192:51,1,140,2|10,1:0|0:1,0:0:0:0:
248,96,102237,2,0,P|313:117|380:99,1,140,2|0,0:1|1:0,0:0:0:0:
452,43,102751,1,8,0:1:0:0:
452,43,103094,6,0,L|480:197,1,140,2|8,1:0|0:1,0:0:0:0:
480,220,103522,1,0,0:0:0:0:
480,220,103608,1,2,0:1:0:0:
422,290,103779,2,0,L|345:295,1,70,0|2,0:1|1:0,0:0:0:0:
271,252,104122,1,8,0:1:0:0:
206,316,104294,1,0,0:0:0:0:
197,195,104465,6,0,P|192:106|195:27,1,140,2|8,1:0|0:1,0:0:0:0:
106,27,104979,2,0,P|106:96|102:166,1,140,2|0,0:1|1:0,0:0:0:0:
57,247,105494,2,0,P|73:299|97:325,1,70,8|0,0:1|0:0,0:0:0:0:
206,316,105837,6,0,P|263:299|368:322,1,140,2|8,1:0|0:1,0:0:0:0:
421,352,106351,2,0,P|428:322|425:278,1,70,2|0,0:1|0:0,0:0:0:0:
512,250,106694,2,0,P|495:223|462:194,1,70,2|8,1:0|0:1,0:0:0:0:
377,177,107037,1,0,0:0:0:0:
377,177,107122,1,0,0:0:0:0:
377,177,107208,6,0,P|337:175|211:159,1,140,2|8,1:0|0:1,0:0:0:0:
161,113,107722,1,2,0:1:0:0:
147,203,107894,2,0,L|157:289,1,70,0|0,0:0|1:0,0:0:0:0:
191,356,108237,1,8,0:1:0:0:
267,306,108408,2,0,L|308:292,2,35,0|0|0,0:0|0:0|1:0,0:0:0:0:
86,333,108922,6,0,L|45:319,2,35,0|0|0,0:0|0:0|0:0,0:0:0:0:
155,272,109265,1,0,0:0:0:0:
178,183,109437,1,0,1:0:0:0:
137,101,109608,1,8,0:1:0:0:
137,101,109951,6,0,L|283:86,1,140,6|8,0:2|0:1,0:0:0:0:
306,172,110465,2,0,L|449:191,1,140,2|0,0:1|1:0,0:0:0:0:
505,121,110979,2,0,P|507:87|499:50,1,70,8|0,0:1|0:0,0:0:0:0:
385,2,111322,5,2,1:0:0:0:
364,90,111494,2,0,L|372:140,2,35,0|0|8,0:0|0:0|0:1,0:0:0:0:
298,25,111837,2,0,P|241:13|216:14,1,70,2|0,0:1|0:0,0:0:0:0:
160,71,112179,2,0,P|125:68|91:58,1,70,2|8,1:0|0:1,0:0:0:0:
91,58,112694,6,0,P|120:136|104:199,1,140,2|8,1:0|0:1,0:0:0:0:
58,265,113208,1,2,0:1:0:0:
148,272,113379,2,0,L|179:368,1,70,0|0,0:0|1:0,0:0:0:0:
244,281,113722,1,8,0:1:0:0:
244,281,114065,6,0,L|326:262,1,70,2|0,1:0|0:0,0:0:0:0:
346,271,114322,1,0,0:0:0:0:
346,271,114408,2,0,L|428:252,1,70,8|2,0:1|0:1,0:0:0:0:
474,186,114751,2,0,P|472:149|449:94,1,70,0|2,0:1|1:0,0:0:0:0:
403,47,115094,2,0,P|367:44|319:51,1,70,8|0,0:1|0:0,0:0:0:0:
237,134,115437,6,0,P|165:129|96:115,1,140,2|8,1:0|0:1,0:0:0:0:
35,49,115951,1,2,0:1:0:0:
13,137,116122,2,0,L|25:225,1,70,0|0,0:0|1:0,0:0:0:0:
102,288,116465,1,8,0:1:0:0:
102,288,116808,6,0,L|111:218,1,70,2|0,1:0|0:0,0:0:0:0:
130,190,117065,1,0,0:0:0:0:
130,190,117151,2,0,L|130:103,1,70,8|2,0:1|0:1,0:0:0:0:
177,42,117494,2,0,P|232:40|257:51,1,70,0|2,0:0|1:0,0:0:0:0:
322,93,117837,1,8,0:1:0:0:
409,69,118008,1,0,0:0:0:0:
348,182,118179,6,0,P|346:245|389:320,1,140,2|8,1:0|0:1,0:0:0:0:
471,324,118694,2,0,P|473:261|430:186,1,140,2|0,0:1|1:0,0:0:0:0:
348,182,119208,1,8,0:1:0:0:
348,182,119551,6,0,L|201:169,1,140,2|8,1:0|0:1,0:0:0:0:
186,188,119979,1,0,0:0:0:0:
186,188,120065,1,2,0:1:0:0:
139,109,120237,2,0,L|141:32,1,70,0|0,0:0|1:0,0:0:0:0:
90,186,120579,1,8,0:1:0:0:
90,186,120922,6,0,L|108:345,1,140,6|8,0:2|0:1,0:0:0:0:
184,373,121437,1,2,1:0:0:0:
294,123,121951,2,0,L|306:200,1,70,8|0,0:1|0:0,0:0:0:0:
385,234,122294,6,0,L|395:164,1,70,2|0,1:0|0:0,0:0:0:0:
412,138,122551,1,0,0:0:0:0:
412,138,122637,1,8,0:1:0:0:
484,193,122808,2,0,L|496:270,1,70,2|0,1:0|0:0,0:0:0:0:
445,339,123151,2,0,L|365:358,1,70,2|8,1:0|0:1,0:0:0:0:
234,243,123665,6,0,P|213:294|117:295,1,140,2|8,1:0|0:1,0:0:0:0:
147,216,124179,1,2,1:0:0:0:
147,216,124694,2,0,L|146:139,1,70,8|0,0:1|0:0,0:0:0:0:
219,62,125037,6,0,L|228:132,1,70,2|0,1:0|0:0,0:0:0:0:
247,162,125294,1,0,0:0:0:0:
247,162,125379,1,8,0:1:0:0:
326,116,125551,2,0,P|362:111|406:115,1,70,2|0,1:0|0:0,0:0:0:0:
478,150,125894,1,2,1:0:0:0:
472,59,126065,1,8,0:1:0:0:
472,59,126408,6,0,L|402:17,1,70,2|0,1:1|1:0,0:0:0:0:
320,28,126751,2,0,L|244:17,1,70,8|2,0:1|1:0,0:0:0:0:
159,27,127094,1,0,1:0:0:0:
159,27,127265,1,0,1:0:0:0:
186,114,127437,2,0,L|192:198,1,70,8|0,0:1|1:0,0:0:0:0:
278,265,127779,6,0,P|292:212|364:157,1,140,2|8,1:0|0:1,0:0:0:0:
447,160,128294,1,2,0:1:0:0:
411,243,128465,2,0,L|429:345,1,70,0|2,1:0|0:1,0:0:0:0:
500,235,128808,1,8,0:1:0:0:
500,235,129151,6,0,B|493:184|493:184|497:139|497:139|491:84,1,140,10|0,0:1|0:0,0:0:0:0:
381,82,129665,2,0,B|385:125|385:125|381:170|381:170|388:221,1,140,10|0,0:1|0:0,0:0:0:0:
280,198,130179,2,0,B|273:147|273:147|277:102|277:102|271:47,1,140,10|0,0:1|0:0,0:0:0:0:
387,91,130694,2,0,B|391:134|391:134|387:179|387:179|394:230,1,140,10|0,0:1|0:0,0:0:0:0:
305,334,131208,6,0,P|235:335|186:293,1,115.50000352478,10|0,0:1|0:0,0:0:0:0:
199,276,131551,6,0,B|154:323|82:304|82:304|86:284|110:256,1,167.999994873047,10|2,0:1|1:2,0:0:0:0:
