osu file format v14

[General]
AudioFilename: mp3.mp3
AudioLeadIn: 0
PreviewTime: 66595
Countdown: 0
SampleSet: Normal
StackLeniency: 0.7
Mode: 1
LetterboxInBreaks: 0
WidescreenStoryboard: 0

[Editor]
DistanceSpacing: 1
BeatDivisor: 4
GridSize: 4
TimelineZoom: 1.7

[Metadata]
Title:Mountains (Ft. Veela)
TitleUnicode:Mountains (Ft. Veela)
Artist:Rameses B
ArtistUnicode:Rameses B
Creator:SKSalt
Version:Muzukashii
Source:
Tags:yzrin yuzu__rinrin liquid Melodic DnB drum and bass Monstercat
BeatmapID:721511
BeatmapSetID:324772

[Difficulty]
HPDrainRate:5
CircleSize:2
OverallDifficulty:5
ApproachRate:5
SliderMultiplier:1.4
SliderTickRate:1

[Events]
//Background and Video events
0,0,"_origin_Anime-Bildites-10 (1).jpg",0,0
//Break Periods
//Storyboard Layer 0 (Background)
//Storyboard Layer 1 (Fail)
//Storyboard Layer 2 (Pass)
//Storyboard Layer 3 (Foreground)
//Storyboard Sound Samples

[TimingPoints]
853,342.857142857143,4,1,0,60,1,0
32224,-100,4,1,0,80,0,0
41995,-100,4,1,0,60,0,0
44738,-100,4,1,0,70,0,0
66681,-100,4,1,0,85,0,1
88624,-100,4,1,0,85,0,0

[HitObjects]
256,192,21767,12,0,22624,0:0:0:0:
136,164,22795,5,4,0:0:0:0:
172,136,23138,1,2,0:0:0:0:
172,136,23310,1,0,0:0:0:0:
188,196,23653,1,0,0:0:0:0:
180,136,23824,1,2,0:0:0:0:
108,128,24167,1,0,0:0:0:0:
108,128,24338,1,2,0:0:0:0:
92,184,24681,1,2,0:0:0:0:
92,184,24853,1,0,0:0:0:0:
92,184,25195,1,2,0:0:0:0:
232,192,25538,1,2,0:0:0:0:
424,152,25881,1,0,0:0:0:0:
200,168,26053,1,2,0:0:0:0:
152,172,26395,1,2,0:0:0:0:
144,168,26567,1,0,0:0:0:0:
256,208,26910,1,0,0:0:0:0:
224,152,27595,1,2,0:0:0:0:
196,164,27938,1,2,0:0:0:0:
228,136,28281,1,0,0:0:0:0:
244,180,28624,1,2,0:0:0:0:
160,120,28795,1,0,0:0:0:0:
192,144,29138,1,0,0:0:0:0:
192,144,29310,1,2,0:0:0:0:
176,184,29653,1,0,0:0:0:0:
244,248,29995,1,2,0:0:0:0:
236,244,30167,1,0,0:0:0:0:
476,168,30510,1,0,0:0:0:0:
288,216,30681,1,2,0:0:0:0:
276,208,31024,1,0,0:0:0:0:
140,164,31367,1,2,0:0:0:0:
140,164,31538,1,0,0:0:0:0:
200,160,31881,1,0,0:0:0:0:
180,164,32053,1,0,0:0:0:0:
216,216,32224,1,2,0:0:0:0:
140,164,32395,1,2,0:0:0:0:
232,184,32738,1,0,0:0:0:0:
144,192,33081,1,2,0:0:0:0:
104,184,33424,1,0,0:0:0:0:
168,144,33767,1,6,0:0:0:0:
128,152,34110,1,2,0:0:0:0:
128,152,34281,1,0,0:0:0:0:
216,252,34624,1,0,0:0:0:0:
200,240,34795,1,2,0:0:0:0:
20,168,35138,1,2,0:0:0:0:
132,132,35310,1,0,0:0:0:0:
96,192,35653,1,0,0:0:0:0:
96,192,35824,1,2,0:0:0:0:
184,240,35995,1,2,0:0:0:0:
216,244,36167,1,0,0:0:0:0:
180,180,36510,1,2,0:0:0:0:
180,184,36853,1,0,0:0:0:0:
180,184,37024,1,2,0:0:0:0:
168,168,37367,1,0,0:0:0:0:
168,168,37538,1,0,0:0:0:0:
248,168,37710,1,2,0:0:0:0:
232,176,37881,1,2,0:0:0:0:
228,152,38224,1,0,0:0:0:0:
128,136,38567,1,2,0:0:0:0:
184,136,38910,1,2,0:0:0:0:
272,184,39081,1,0,0:0:0:0:
208,152,39424,1,0,0:0:0:0:
200,148,39595,1,2,0:0:0:0:
212,228,40281,1,2,0:0:0:0:
236,184,40624,1,0,0:0:0:0:
220,184,40967,1,2,0:0:0:0:
220,184,41138,1,0,0:0:0:0:
232,236,41481,1,0,0:0:0:0:
220,232,41653,1,2,0:0:0:0:
220,232,41824,1,0,0:0:0:0:
256,192,41995,12,0,44395,0:0:0:0:
56,168,44738,5,0,0:0:0:0:
220,164,45081,5,0,0:0:0:0:
220,164,45424,1,2,0:0:0:0:
152,216,45595,1,2,0:0:0:0:
200,168,45767,1,0,0:0:0:0:
208,212,45938,1,2,0:0:0:0:
208,172,46281,1,2,0:0:0:0:
80,184,46453,1,0,0:0:0:0:
304,184,46795,1,0,0:0:0:0:
260,164,47138,1,2,0:0:0:0:
272,180,47824,1,0,0:0:0:0:
276,200,47910,1,0,0:0:0:0:
272,180,47995,1,0,0:0:0:0:
272,180,48167,1,2,0:0:0:0:
272,180,48338,1,2,0:0:0:0:
152,152,48510,1,0,0:0:0:0:
272,180,48681,1,2,0:0:0:0:
308,212,49024,1,2,0:0:0:0:
188,84,49538,1,2,0:0:0:0:
200,168,49881,1,0,0:0:0:0:
120,144,50567,1,0,0:0:0:0:
128,144,50738,1,2,0:0:0:0:
128,144,50910,1,0,0:0:0:0:
352,168,51081,1,0,0:0:0:0:
184,140,51253,1,2,0:0:0:0:
172,152,51424,1,0,0:0:0:0:
180,156,51767,1,2,0:0:0:0:
256,208,52281,1,0,0:0:0:0:
256,208,52624,1,2,0:0:0:0:
232,208,53310,1,0,0:0:0:0:
220,212,53395,1,0,0:0:0:0:
232,208,53481,1,0,0:0:0:0:
232,208,53653,1,2,0:0:0:0:
232,208,53824,1,0,0:0:0:0:
104,180,53995,1,0,0:0:0:0:
232,208,54167,1,2,0:0:0:0:
320,192,54510,1,0,0:0:0:0:
268,192,55024,1,0,0:0:0:0:
264,188,55367,1,2,0:0:0:0:
196,172,55710,1,0,0:0:0:0:
140,168,56395,1,2,0:0:0:0:
136,168,56567,1,0,0:0:0:0:
136,168,56738,1,0,0:0:0:0:
128,164,56910,1,2,0:0:0:0:
372,200,57253,1,0,0:0:0:0:
168,160,57767,1,2,0:0:0:0:
180,164,58110,1,2,0:0:0:0:
260,136,58795,1,0,0:0:0:0:
276,216,58881,1,0,0:0:0:0:
224,144,58967,1,0,0:0:0:0:
224,144,59138,1,2,0:0:0:0:
224,144,59310,1,0,0:0:0:0:
224,144,59481,1,2,0:0:0:0:
224,144,59653,1,0,0:0:0:0:
212,176,59995,1,2,0:0:0:0:
96,136,60510,1,2,0:0:0:0:
92,132,60853,1,0,0:0:0:0:
240,200,61195,1,4,0:0:0:0:
196,180,61538,1,2,0:0:0:0:
140,188,61710,1,0,0:0:0:0:
148,188,61881,1,0,0:0:0:0:
148,188,62053,1,2,0:0:0:0:
188,152,62224,1,0,0:0:0:0:
188,152,62395,1,2,0:0:0:0:
268,148,62738,1,2,0:0:0:0:
308,200,63253,1,0,0:0:0:0:
248,148,63595,1,2,0:0:0:0:
300,176,63938,1,4,0:0:0:0:
188,136,64281,1,0,0:0:0:0:
76,192,64367,1,0,0:0:0:0:
188,136,64453,1,0,0:0:0:0:
188,136,64624,1,2,0:0:0:0:
188,136,64795,1,0,0:0:0:0:
160,200,64967,1,0,0:0:0:0:
280,224,65138,1,2,0:0:0:0:
312,180,65995,1,2,0:0:0:0:
288,188,66253,1,2,0:0:0:0:
272,192,66510,1,0,0:0:0:0:
196,192,66681,1,4,0:0:0:0:
196,188,67024,1,2,0:0:0:0:
196,188,67195,1,0,0:0:0:0:
320,216,67281,1,0,0:0:0:0:
48,128,67367,1,0,0:0:0:0:
128,152,67538,1,0,0:0:0:0:
128,152,67710,1,2,0:0:0:0:
100,160,68053,1,0,0:0:0:0:
100,160,68224,1,0,0:0:0:0:
32,124,68395,1,2,0:0:0:0:
280,184,68567,1,0,0:0:0:0:
232,208,68910,1,0,0:0:0:0:
112,168,69081,1,2,0:0:0:0:
252,188,69424,1,2,0:0:0:0:
240,196,69767,1,0,0:0:0:0:
240,196,69938,1,2,0:0:0:0:
232,184,70281,1,0,0:0:0:0:
232,184,70453,1,2,0:0:0:0:
144,208,70624,1,0,0:0:0:0:
280,160,70795,1,0,0:0:0:0:
248,172,71138,1,2,0:0:0:0:
300,204,71310,1,0,0:0:0:0:
248,172,71481,1,2,0:0:0:0:
224,208,71567,1,2,0:0:0:0:
224,208,71653,1,2,0:0:0:0:
176,220,71824,1,2,0:0:0:0:
176,220,71995,1,0,0:0:0:0:
168,216,72167,1,0,0:0:0:0:
208,160,72510,1,2,0:0:0:0:
196,224,72853,1,0,0:0:0:0:
188,216,73195,1,2,0:0:0:0:
268,248,73367,1,0,0:0:0:0:
180,152,73538,1,0,0:0:0:0:
176,160,73881,1,2,0:0:0:0:
176,160,74053,1,0,0:0:0:0:
164,132,74395,1,0,0:0:0:0:
164,136,74567,1,2,0:0:0:0:
164,136,74738,1,0,0:0:0:0:
76,160,74824,1,0,0:0:0:0:
180,52,74910,1,0,0:0:0:0:
76,160,75081,1,0,0:0:0:0:
152,164,75253,1,2,0:0:0:0:
236,216,75595,1,0,0:0:0:0:
232,212,75938,1,2,0:0:0:0:
136,172,76281,1,0,0:0:0:0:
132,160,76367,1,0,0:0:0:0:
136,160,76453,1,0,0:0:0:0:
200,140,76624,1,2,0:0:0:0:
184,152,76967,1,0,0:0:0:0:
180,152,77310,1,2,0:0:0:0:
196,192,77653,1,4,0:0:0:0:
196,188,77995,1,2,0:0:0:0:
196,188,78167,1,0,0:0:0:0:
72,200,78253,1,0,0:0:0:0:
212,240,78338,1,0,0:0:0:0:
128,152,78510,1,0,0:0:0:0:
128,152,78681,1,2,0:0:0:0:
100,160,79024,1,0,0:0:0:0:
100,160,79195,1,0,0:0:0:0:
204,240,79367,1,2,0:0:0:0:
280,184,79538,1,0,0:0:0:0:
412,248,79881,1,0,0:0:0:0:
112,168,80053,1,2,0:0:0:0:
252,188,80395,1,2,0:0:0:0:
240,196,80738,1,2,0:0:0:0:
240,196,80910,1,0,0:0:0:0:
232,184,81253,1,0,0:0:0:0:
232,184,81424,1,2,0:0:0:0:
280,160,81767,1,0,0:0:0:0:
248,172,82110,1,2,0:0:0:0:
248,172,82453,1,2,0:0:0:0:
108,136,82538,1,2,0:0:0:0:
108,136,82624,1,2,0:0:0:0:
176,220,82795,1,2,0:0:0:0:
88,132,82967,1,0,0:0:0:0:
168,216,83310,1,0,0:0:0:0:
208,160,83481,1,2,0:0:0:0:
196,224,83824,1,0,0:0:0:0:
188,216,84167,1,2,0:0:0:0:
372,256,84338,1,0,0:0:0:0:
180,152,84510,1,0,0:0:0:0:
176,160,84853,1,2,0:0:0:0:
368,252,85195,1,2,0:0:0:0:
164,132,85367,1,0,0:0:0:0:
164,136,85538,1,2,0:0:0:0:
164,136,85710,1,0,0:0:0:0:
180,52,85881,1,0,0:0:0:0:
152,164,86224,1,2,0:0:0:0:
176,196,86395,1,0,0:0:0:0:
236,216,86567,1,0,0:0:0:0:
232,212,86910,1,2,0:0:0:0:
104,240,87081,1,0,0:0:0:0:
136,172,87253,1,0,0:0:0:0:
184,152,87938,1,2,0:0:0:0:
400,160,88624,1,4,0:0:0:0:
