osu file format v14

[General]
AudioFilename: Rameses B - Hide and Seek [mp3clan.com].mp3
AudioLeadIn: 0
PreviewTime: -1
Countdown: 1
SampleSet: Normal
StackLeniency: 0.7
Mode: 0
LetterboxInBreaks: 1
WidescreenStoryboard: 0

[Editor]
DistanceSpacing: 1.7
BeatDivisor: 4
GridSize: 4
TimelineZoom: 1.6

[Metadata]
Title:Hide and Seek
TitleUnicode:Hide and Seek
Artist:Rameses B
ArtistUnicode:Rameses B
Creator:auux
Version:Insane
Source:Rameses B
Tags:Rameses B drum and bass dubstep remix
BeatmapID:656662
BeatmapSetID:291647

[Difficulty]
HPDrainRate:5
CircleSize:4
OverallDifficulty:8
ApproachRate:9
SliderMultiplier:1.4
SliderTickRate:1

[Events]
//Background and Video events
0,0,"Water_blue_clouds_nature_anime_multiscreen_skyscapes_1920x1080.jpg",0,0
//Break Periods
2,91964,113929
2,194493,207988
2,229964,231988
2,257824,262694
2,281296,312789
//Storyboard Layer 0 (Background)
//Storyboard Layer 1 (Fail)
//Storyboard Layer 2 (Pass)
//Storyboard Layer 3 (Foreground)
//Storyboard Sound Samples

[TimingPoints]
0,352.941176470588,4,1,0,100,1,0
33705,-100,4,1,0,100,0,0
46737,-100,4,1,0,100,0,0
69176,-100,4,1,0,100,0,0
91764,-100,4,1,0,100,0,0
110117,-100,4,1,0,100,0,0
143999,-100,4,1,0,100,0,0
187411,-100,4,1,0,100,0,0
193411,-100,4,1,0,100,0,0
208235,-100,4,1,0,100,0,0
214941,-100,4,1,0,100,0,0
236102.954545455,-100,4,1,0,100,0,0
237154.460862134,352.941176470588,4,1,0,100,1,0
246352,-100,4,1,0,100,0,0
257999,-100,4,1,0,100,0,0
268941,-100,4,1,0,100,0,0
314470,-100,4,1,0,100,0,0

[HitObjects]
256,192,535,12,0,1428,0:0:0:0:
184,140,1588,5,0,0:0:0:0:
360,224,1765,1,0,0:0:0:0:
188,308,1941,2,0,P|144:308|112:272,1,70
252,208,2294,1,0,0:0:0:0:
64,120,2471,2,0,B|140:80|140:80|228:80|228:80|332:40|332:40,1,280
392,192,3353,1,0,0:0:0:0:
168,324,3529,1,0,0:0:0:0:
88,184,3706,2,0,P|104:144|140:112,1,70
380,312,4058,1,0,0:0:0:0:
340,108,4235,1,0,0:0:0:0:
244,320,4412,1,0,0:0:0:0:
424,68,4588,6,0,P|336:64|292:108,1,140
344,312,5118,1,0,0:0:0:0:
88,264,5295,1,0,0:0:0:0:
344,116,5470,1,0,0:0:0:0:
348,120,5558,1,0,0:0:0:0:
352,124,5646,1,0,0:0:0:0:
112,104,5824,5,0,0:0:0:0:
264,332,6001,1,0,0:0:0:0:
344,72,6176,1,0,0:0:0:0:
348,76,6264,1,0,0:0:0:0:
352,80,6352,1,0,0:0:0:0:
380,328,6530,5,0,0:0:0:0:
88,272,6707,1,0,0:0:0:0:
216,76,6883,1,0,0:0:0:0:
220,80,6971,1,0,0:0:0:0:
224,84,7059,1,0,0:0:0:0:
332,304,7235,5,0,0:0:0:0:
224,168,7412,1,0,0:0:0:0:
148,300,7588,1,0,0:0:0:0:
304,208,7765,1,0,0:0:0:0:
92,164,7941,1,0,0:0:0:0:
208,56,8118,1,0,0:0:0:0:
308,172,8294,1,0,0:0:0:0:
460,104,8470,2,0,P|380:84|336:32,1,140
332,292,9176,5,0,0:0:0:0:
136,136,9529,1,0,0:0:0:0:
340,188,9882,1,0,0:0:0:0:
132,260,10235,1,0,0:0:0:0:
288,280,10411,1,0,0:0:0:0:
172,192,10588,1,0,0:0:0:0:
328,144,10764,1,0,0:0:0:0:
196,88,10941,1,0,0:0:0:0:
260,288,11117,5,0,0:0:0:0:
268,280,11205,1,0,0:0:0:0:
276,272,11293,1,0,0:0:0:0:
284,264,11382,1,0,0:0:0:0:
292,256,11470,2,0,P|364:216|408:152,1,140
292,56,11999,5,0,0:0:0:0:
280,204,12176,1,0,0:0:0:0:
328,56,12352,1,0,0:0:0:0:
240,200,12529,1,0,0:0:0:0:
200,328,12705,6,0,P|128:308|80:244,1,140
180,64,13235,1,0,0:0:0:0:
336,268,13411,1,0,0:0:0:0:
120,224,13588,1,0,0:0:0:0:
336,72,13764,2,0,P|376:84|376:116,1,70
288,328,14117,5,0,0:0:0:0:
136,184,14294,1,0,0:0:0:0:
392,260,14470,1,0,0:0:0:0:
236,72,14647,1,0,0:0:0:0:
112,288,14823,2,0,P|128:324|172:328,1,70
360,300,15176,5,0,0:0:0:0:
232,236,15529,1,0,0:0:0:0:
88,92,15882,2,0,P|156:64|248:68,1,140
376,92,16411,5,0,0:0:0:0:
148,168,16588,1,0,0:0:0:0:
344,296,16764,1,0,0:0:0:0:
348,292,16852,1,0,0:0:0:0:
352,288,16941,1,0,0:0:0:0:
256,92,17117,5,0,0:0:0:0:
400,280,17294,1,0,0:0:0:0:
120,172,17470,1,0,0:0:0:0:
124,168,17558,1,0,0:0:0:0:
128,164,17647,1,0,0:0:0:0:
420,88,17823,5,0,0:0:0:0:
268,328,17999,1,0,0:0:0:0:
168,76,18176,1,0,0:0:0:0:
172,72,18264,1,0,0:0:0:0:
176,68,18353,1,0,0:0:0:0:
376,164,18529,6,0,L|316:212,1,70
124,284,18882,2,0,L|176:340,1,70
152,144,19235,2,0,L|228:100,1,70
256,296,19588,5,0,0:0:0:0:
260,292,19676,1,0,0:0:0:0:
264,288,19765,1,0,0:0:0:0:
136,184,19941,5,0,0:0:0:0:
140,180,20029,1,0,0:0:0:0:
144,176,20118,1,0,0:0:0:0:
332,80,20294,5,0,0:0:0:0:
336,76,20382,1,0,0:0:0:0:
340,72,20471,1,0,0:0:0:0:
204,64,20647,6,0,P|136:116|104:184,1,140
376,316,21176,5,0,0:0:0:0:
220,192,21529,1,0,0:0:0:0:
104,64,21882,1,0,0:0:0:0:
100,284,22235,2,0,P|176:324|340:224,1,280
88,200,23294,6,0,L|104:232,7,35
276,232,23999,5,0,0:0:0:0:
108,64,24176,1,0,0:0:0:0:
376,132,24352,1,0,0:0:0:0:
100,284,24529,2,0,P|140:328|152:328,1,70
232,64,24882,5,0,0:0:0:0:
372,284,25058,1,0,0:0:0:0:
144,212,25235,1,0,0:0:0:0:
352,80,25411,2,0,P|388:112|376:144,1,70
168,332,25764,5,0,0:0:0:0:
224,112,25941,1,0,0:0:0:0:
408,304,26117,1,0,0:0:0:0:
92,216,26294,2,0,P|72:256|92:276,1,70
324,60,26647,5,0,0:0:0:0:
328,328,26823,1,0,0:0:0:0:
156,148,26999,1,0,0:0:0:0:
440,192,27176,2,0,P|452:228|432:264,1,70
180,80,27529,5,0,0:0:0:0:
184,76,27617,1,0,0:0:0:0:
188,72,27705,1,0,0:0:0:0:
328,256,27882,5,0,0:0:0:0:
332,252,27970,1,0,0:0:0:0:
336,248,28058,1,0,0:0:0:0:
112,300,28235,5,0,0:0:0:0:
116,296,28323,1,0,0:0:0:0:
120,292,28411,1,0,0:0:0:0:
240,120,28588,5,0,0:0:0:0:
244,124,28676,1,0,0:0:0:0:
248,128,28764,1,0,0:0:0:0:
252,132,28852,1,0,0:0:0:0:
256,136,28941,1,0,0:0:0:0:
260,140,29029,1,0,0:0:0:0:
264,144,29117,1,0,0:0:0:0:
268,148,29205,1,0,0:0:0:0:
272,152,29294,1,0,0:0:0:0:
400,156,29470,6,0,P|404:204|360:224,1,70
252,308,29823,1,0,0:0:0:0:
100,148,29999,1,0,0:0:0:0:
356,112,30176,1,0,0:0:0:0:
92,300,30352,2,0,P|108:336|136:344,1,70
276,232,30705,5,0,0:0:0:0:
108,64,30882,1,0,0:0:0:0:
376,132,31058,1,0,0:0:0:0:
100,284,31235,2,0,P|140:328|152:328,1,70
232,64,31588,5,0,0:0:0:0:
372,284,31764,1,0,0:0:0:0:
144,212,31941,1,0,0:0:0:0:
352,80,32117,2,0,P|388:112|376:144,1,70
168,332,32470,5,0,0:0:0:0:
224,112,32647,1,0,0:0:0:0:
408,304,32823,1,0,0:0:0:0:
92,216,33000,2,0,P|72:256|92:276,1,70
400,68,33353,5,0,0:0:0:0:
160,64,33529,1,0,0:0:0:0:
376,304,33705,1,0,0:0:0:0:
172,220,33882,2,0,P|204:272|152:344,1,140
412,320,34411,5,0,0:0:0:0:
324,244,34588,1,0,0:0:0:0:
224,172,34764,1,0,0:0:0:0:
112,84,34941,1,0,0:0:0:0:
280,128,35117,5,0,0:0:0:0:
408,56,35294,2,0,B|436:72|436:72|408:96|408:96|440:120|440:120|412:136|412:136,1,140
72,168,35823,5,0,0:0:0:0:
280,268,35999,1,0,0:0:0:0:
280,64,36176,1,0,0:0:0:0:
368,196,36352,1,0,0:0:0:0:
188,200,36529,1,0,0:0:0:0:
368,104,36705,5,0,0:0:0:0:
456,232,36882,1,0,0:0:0:0:
284,236,37058,1,0,0:0:0:0:
152,56,37235,5,0,0:0:0:0:
232,176,37411,1,0,0:0:0:0:
72,172,37588,1,0,0:0:0:0:
224,244,37764,5,0,0:0:0:0:
232,80,37941,1,0,0:0:0:0:
376,152,38117,1,0,0:0:0:0:
168,288,38294,2,0,P|128:256|120:164,1,140
348,96,38823,5,0,0:0:0:0:
208,256,38999,2,0,P|168:224|160:132,1,140
388,60,39529,5,0,0:0:0:0:
248,216,39705,2,0,P|208:184|200:92,1,140
384,328,40235,5,0,0:0:0:0:
136,68,40411,2,0,P|116:136|152:224,1,140
344,144,40941,5,0,0:0:0:0:
220,224,41294,1,0,0:0:0:0:
84,304,41647,1,0,0:0:0:0:
292,96,41823,2,0,L|364:160,1,70
320,296,42176,5,0,0:0:0:0:
88,156,42352,1,0,0:0:0:0:
376,80,42529,1,0,0:0:0:0:
188,280,42705,2,0,P|124:288|112:280,1,70
276,232,43058,5,0,0:0:0:0:
108,64,43235,1,0,0:0:0:0:
376,132,43411,1,0,0:0:0:0:
100,284,43588,2,0,P|140:328|152:328,1,70
232,64,44117,5,0,0:0:0:0:
344,220,44470,1,0,0:0:0:0:
140,224,44823,2,0,P|140:144|316:92,1,280
288,300,45705,6,0,L|208:300,2,70
232,204,46235,2,0,L|268:204,4,35
128,76,46764,5,0,0:0:0:0:
136,76,46852,1,0,0:0:0:0:
144,76,46941,2,0,P|180:76|208:56,1,70
212,56,47205,1,0,0:0:0:0:
220,56,47294,6,0,P|272:64|288:88,1,70
360,316,47647,1,0,0:0:0:0:
276,248,47823,2,0,L|240:280,1,35
388,164,47999,1,0,0:0:0:0:
280,96,48176,6,0,L|256:128,2,35
192,300,48529,1,0,0:0:0:0:
172,152,48705,1,0,0:0:0:0:
356,88,48882,5,0,0:0:0:0:
360,92,48970,1,0,0:0:0:0:
364,96,49058,1,0,0:0:0:0:
168,80,49235,6,0,L|168:156,1,70
168,156,49499,1,0,0:0:0:0:
168,168,49588,2,0,P|180:208|208:212,1,70
376,276,49941,5,0,0:0:0:0:
380,280,50029,1,0,0:0:0:0:
384,284,50117,1,0,0:0:0:0:
348,112,50294,6,0,L|292:164,1,70
200,228,50647,2,0,L|136:176,1,70
156,60,50999,5,0,0:0:0:0:
264,184,51176,1,0,0:0:0:0:
104,60,51352,1,0,0:0:0:0:
212,184,51529,1,0,0:0:0:0:
336,68,51705,6,0,L|356:96,4,35
376,260,52235,5,0,0:0:0:0:
380,264,52323,1,0,0:0:0:0:
384,268,52411,2,0,L|392:168,1,70
388,192,52676,1,0,0:0:0:0:
384,184,52764,2,0,L|316:160,1,70
184,236,53117,5,0,0:0:0:0:
272,124,53294,1,0,0:0:0:0:
136,72,53470,1,0,0:0:0:0:
272,228,53647,1,0,0:0:0:0:
248,56,53823,5,0,0:0:0:0:
256,56,53911,1,0,0:0:0:0:
264,56,53999,1,0,0:0:0:0:
268,56,54088,1,0,0:0:0:0:
276,56,54176,1,0,0:0:0:0:
284,56,54264,2,0,P|376:72|400:100,1,105
256,336,54705,5,0,0:0:0:0:
352,36,55058,1,0,0:0:0:0:
164,36,55411,1,0,0:0:0:0:
444,236,55764,1,0,0:0:0:0:
48,236,56117,1,0,0:0:0:0:
248,152,56470,5,0,0:0:0:0:
300,216,56823,1,0,0:0:0:0:
208,244,56999,1,0,0:0:0:0:
176,264,57176,1,0,0:0:0:0:
152,280,57352,1,0,0:0:0:0:
120,300,57529,1,0,0:0:0:0:
120,72,57705,6,0,L|148:104,3,35
296,92,58235,1,0,0:0:0:0:
140,216,58411,1,0,0:0:0:0:
148,224,58587,1,0,0:0:0:0:
340,272,58764,5,0,0:0:0:0:
308,132,58941,1,0,0:0:0:0:
192,220,59117,1,0,0:0:0:0:
200,228,59293,1,0,0:0:0:0:
400,272,59470,5,0,0:0:0:0:
368,132,59647,1,0,0:0:0:0:
252,220,59823,1,0,0:0:0:0:
260,228,59999,1,0,0:0:0:0:
216,72,60176,6,0,P|176:44|144:68,2,70
308,172,60705,1,0,0:0:0:0:
188,128,60882,6,0,P|148:100|116:124,2,70
292,224,61411,1,0,0:0:0:0:
156,184,61588,6,0,P|116:156|84:180,2,70
268,272,62117,1,0,0:0:0:0:
384,60,62294,5,0,0:0:0:0:
384,64,62382,1,0,0:0:0:0:
384,68,62470,1,0,0:0:0:0:
384,72,62558,1,0,0:0:0:0:
384,76,62647,1,0,0:0:0:0:
384,80,62735,1,0,0:0:0:0:
384,88,62823,1,0,0:0:0:0:
128,228,63176,5,0,0:0:0:0:
256,60,63529,1,0,0:0:0:0:
368,232,63882,1,0,0:0:0:0:
112,228,64058,2,0,P|72:184|92:156,1,70
304,56,64411,5,0,0:0:0:0:
300,72,64588,1,0,0:0:0:0:
296,88,64764,1,0,0:0:0:0:
176,200,64941,5,0,0:0:0:0:
172,212,65117,1,0,0:0:0:0:
168,224,65294,1,0,0:0:0:0:
164,236,65470,1,0,0:0:0:0:
388,268,65647,6,0,L|428:200,1,70
172,100,65999,2,0,L|104:116,1,70
192,312,66352,2,0,L|264:356,1,70
404,104,66705,2,0,L|336:56,1,70
256,192,67058,1,0,0:0:0:0:
256,192,67235,12,0,68470,0:0:0:0:
296,136,68647,6,0,L|328:164,4,35
176,232,69176,5,4,0:0:0:0:
368,240,69352,5,0,0:0:0:0:
156,136,69529,1,0,0:0:0:0:
304,68,69705,2,0,L|340:112,2,35
272,240,70058,5,0,0:0:0:0:
96,68,70235,2,0,L|132:112,2,35
412,72,70588,5,0,0:0:0:0:
412,84,70764,1,0,0:0:0:0:
412,96,70941,1,0,0:0:0:0:
412,108,71117,1,0,0:0:0:0:
240,116,71294,2,0,L|212:144,2,35
328,264,71647,5,0,0:0:0:0:
136,128,71823,2,0,L|88:196,1,70
376,176,72176,5,0,0:0:0:0:
172,64,72352,2,0,L|124:148,1,70
196,256,72705,6,0,L|196:164,3,70
324,144,73411,1,0,0:0:0:0:
144,296,73588,6,0,L|144:204,2,70
232,76,74117,5,0,0:0:0:0:
296,152,74294,1,0,0:0:0:0:
356,232,74470,1,0,0:0:0:0:
432,316,74647,2,0,L|432:232,1,70
172,200,74999,5,0,0:0:0:0:
368,72,75176,2,0,L|416:128,1,70
284,132,75529,2,0,L|332:200,1,70
212,200,75882,2,0,L|256:264,1,70
256,192,76235,12,0,76941,0:0:0:0:
336,124,77117,6,0,L|360:156,4,35
260,196,77647,1,0,0:0:0:0:
184,312,77823,1,0,0:0:0:0:
144,120,77999,6,0,L|168:152,4,35
360,204,78529,1,0,0:0:0:0:
160,216,78705,1,0,0:0:0:0:
240,80,78882,1,0,0:0:0:0:
328,284,79058,2,0,P|236:288|184:264,1,140
180,192,79588,2,0,P|208:172|264:184,1,70
312,184,79941,2,0,P|348:168|392:188,1,70
284,68,80294,5,4,0:0:0:0:
420,248,80470,6,0,P|292:308|160:252,1,280
176,108,81352,2,0,L|152:136,4,35
364,96,81882,5,0,0:0:0:0:
212,236,82058,1,0,0:0:0:0:
96,96,82235,1,0,0:0:0:0:
356,204,82411,2,0,L|376:244,4,35
256,72,82941,5,0,0:0:0:0:
96,224,83117,1,0,0:0:0:0:
300,280,83294,1,0,0:0:0:0:
152,112,83470,2,0,L|136:72,4,35
292,84,83999,5,0,0:0:0:0:
396,236,84176,1,0,0:0:0:0:
208,168,84352,1,0,0:0:0:0:
440,120,84529,1,0,0:0:0:0:
240,308,84705,1,0,0:0:0:0:
200,88,84882,1,0,0:0:0:0:
348,292,85058,1,0,0:0:0:0:
368,76,85235,1,0,0:0:0:0:
200,232,85411,1,0,0:0:0:0:
428,152,85588,6,0,P|392:144|364:164,1,70
292,152,85941,6,0,P|256:144|228:164,1,70
104,280,86294,5,4,0:0:0:0:
248,56,86470,1,0,0:0:0:0:
320,280,86647,1,0,0:0:0:0:
112,196,86823,2,0,P|120:140|148:144,1,70
368,112,87176,5,0,0:0:0:0:
156,72,87352,1,0,0:0:0:0:
272,300,87529,1,0,0:0:0:0:
112,152,87705,2,0,P|128:104|152:108,1,70
132,304,88058,5,0,0:0:0:0:
392,200,88235,1,0,0:0:0:0:
196,72,88411,1,0,0:0:0:0:
300,312,88588,2,0,P|336:320|344:280,1,70
216,160,88941,6,0,L|248:128,4,35
368,208,89470,1,0,0:0:0:0:
280,272,89647,1,0,0:0:0:0:
256,192,89823,12,0,91764,0:0:0:0:
168,56,114529,5,0,0:0:0:0:
332,72,114705,2,0,L|324:116,13,35
236,64,116029,6,0,L|228:108,15,35
224,164,117529,6,0,L|216:208,14,35
316,184,118941,6,0,L|308:228,17,35
208,248,120617,6,0,L|200:292,15,35
136,136,122117,6,0,L|128:180,16,35
252,184,123705,6,0,L|244:228,16,35
168,72,125294,6,0,L|160:116,16,35
268,168,126882,6,0,L|260:212,18,35
156,200,128647,6,0,L|148:244,17,35
244,132,130323,6,0,L|236:176,16,35
332,196,131911,6,0,L|324:240,18,35
232,232,133676,6,0,L|224:276,16,35
160,144,135264,6,0,L|152:188,18,35
244,200,137029,6,0,L|236:244,17,35
256,192,138705,12,0,141176,0:0:0:0:
248,104,144176,6,0,P|312:64|388:80,1,140
248,324,145058,1,0,0:0:0:0:
120,88,145499,2,0,L|100:128,5,35
400,84,146382,5,0,0:0:0:0:
336,248,146823,2,0,L|168:308,1,175
96,144,147705,2,0,P|152:92|264:92,1,175
404,232,148588,1,0,0:0:0:0:
120,60,149029,1,0,0:0:0:0:
280,308,149470,1,0,0:0:0:0:
284,172,149911,6,0,P|368:108|400:32,1,175
72,304,150794,1,0,0:0:0:0:
380,172,151235,1,0,0:0:0:0:
168,292,151676,2,0,L|56:116,1,175
156,72,152558,1,0,0:0:0:0:
380,144,152823,2,0,P|416:148|424:168,2,35
368,160,153176,2,0,P|288:144|276:104,1,105
100,192,153882,5,0,0:0:0:0:
312,148,154323,1,0,0:0:0:0:
216,248,154764,1,0,0:0:0:0:
128,168,155205,1,0,0:0:0:0:
232,92,155735,1,0,0:0:0:0:
360,240,156088,2,0,P|424:180|448:80,2,175
88,84,157499,1,0,0:0:0:0:
284,172,157941,1,0,0:0:0:0:
400,68,158382,2,0,B|428:88|428:88|400:112|400:112|428:132|428:132|400:152|400:152|432:168|432:168,1,175
224,104,159264,5,0,0:0:0:0:
292,168,159705,1,0,0:0:0:0:
384,256,159970,2,0,L|352:280,2,35
200,228,160588,1,0,0:0:0:0:
136,136,161029,1,0,0:0:0:0:
236,96,161470,1,0,0:0:0:0:
292,160,161911,1,0,0:0:0:0:
264,240,162352,1,0,0:0:0:0:
176,92,162794,6,0,P|272:56|344:72,2,175
176,296,164117,1,0,0:0:0:0:
344,184,164558,2,0,P|340:240|332:244,3,70
128,268,165529,1,0,0:0:0:0:
264,124,165970,1,0,0:0:0:0:
224,324,166411,1,0,0:0:0:0:
116,168,166852,1,0,0:0:0:0:
276,236,167294,1,0,0:0:0:0:
164,108,167735,1,0,0:0:0:0:
208,88,168176,1,0,0:0:0:0:
264,92,168617,1,0,0:0:0:0:
304,124,169058,1,0,0:0:0:0:
388,256,169411,6,0,P|296:316|168:272,1,245
260,176,170205,6,0,L|236:212,4,35
144,256,170823,5,0,0:0:0:0:
268,76,171176,1,0,0:0:0:0:
120,312,171529,2,0,B|80:272|80:272|120:248|120:248|96:232|96:232|116:224|116:224|100:216|100:216|120:208|120:208|100:200|100:200|200:172,1,315
396,128,172588,5,0,0:0:0:0:
256,284,172941,1,0,0:0:0:0:
128,112,173294,1,0,0:0:0:0:
356,296,173647,2,0,P|412:252|384:184,1,140
336,76,174352,5,0,0:0:0:0:
144,296,174705,1,0,0:0:0:0:
240,68,175058,1,0,0:0:0:0:
320,292,175411,2,0,P|248:332|168:312,1,140
304,60,176117,5,0,0:0:0:0:
128,260,176470,1,0,0:0:0:0:
376,292,176823,1,0,0:0:0:0:
144,108,177176,2,0,P|184:52|256:52,1,140
376,56,177882,5,0,0:0:0:0:
316,344,178235,1,0,0:0:0:0:
112,128,178588,1,0,0:0:0:0:
392,168,178941,2,0,P|424:236|356:268,1,140
128,52,179647,5,0,0:0:0:0:
224,312,179999,1,0,0:0:0:0:
236,44,180352,1,0,0:0:0:0:
352,284,180705,2,0,P|424:240|428:160,1,140
160,80,181411,6,0,L|304:92,1,140
192,172,182117,2,0,L|336:184,1,140
240,264,182823,2,0,L|392:280,1,140
356,72,183529,5,0,0:0:0:0:
88,296,183882,1,0,0:0:0:0:
156,72,184235,1,0,0:0:0:0:
284,284,184588,1,0,0:0:0:0:
292,76,184941,2,0,P|360:120|380:176,1,140
152,292,185647,5,0,0:0:0:0:
236,72,185999,1,0,0:0:0:0:
352,280,186352,1,0,0:0:0:0:
344,68,186705,2,0,P|424:168|304:232,1,280
184,184,187676,6,0,L|296:156,2,105
320,200,188558,2,0,L|440:168,2,105
116,108,189441,2,0,L|220:80,2,105
184,132,190323,1,0,0:0:0:0:
336,112,190764,1,0,0:0:0:0:
300,216,191294,1,0,0:0:0:0:
176,260,191735,1,0,0:0:0:0:
120,144,192176,1,0,0:0:0:0:
196,104,192617,1,0,0:0:0:0:
408,152,193058,6,0,L|356:208,2,70
152,64,193764,2,0,P|104:144|136:264,1,210
256,92,208588,6,0,L|204:136,1,35
216,284,210352,6,0,L|196:252,4,35
288,96,211235,6,0,L|400:72,1,105
136,320,213705,6,0,L|104:284,1,35
288,60,215205,1,0,0:0:0:0:
356,196,215647,1,0,0:0:0:0:
180,224,215999,1,0,0:0:0:0:
152,84,216352,1,0,0:0:0:0:
288,208,216794,1,0,0:0:0:0:
212,88,217147,1,0,0:0:0:0:
180,224,217588,1,0,0:0:0:0:
72,128,217941,1,0,0:0:0:0:
108,248,218294,1,0,0:0:0:0:
208,132,218735,1,0,0:0:0:0:
276,244,219088,1,0,0:0:0:0:
344,124,219441,1,0,0:0:0:0:
232,252,219794,1,0,0:0:0:0:
168,120,220147,1,0,0:0:0:0:
112,240,220499,1,0,0:0:0:0:
360,56,220852,5,0,0:0:0:0:
360,72,221029,1,0,0:0:0:0:
360,88,221205,1,0,0:0:0:0:
360,100,221382,1,0,0:0:0:0:
256,144,221558,5,0,0:0:0:0:
256,160,221735,1,0,0:0:0:0:
256,176,221911,1,0,0:0:0:0:
256,188,222088,1,0,0:0:0:0:
384,232,222264,6,0,L|344:256,15,35
176,308,223764,1,0,0:0:0:0:
320,268,224029,1,0,0:0:0:0:
384,112,224382,1,0,0:0:0:0:
400,276,224735,1,0,0:0:0:0:
448,96,225088,1,0,0:0:0:0:
280,284,225441,1,0,0:0:0:0:
232,88,225794,1,0,0:0:0:0:
192,280,226147,1,0,0:0:0:0:
152,80,226499,1,0,0:0:0:0:
116,244,226852,1,0,0:0:0:0:
216,88,227205,1,0,0:0:0:0:
264,264,227558,1,0,0:0:0:0:
324,100,227999,1,0,0:0:0:0:
368,272,228352,1,0,0:0:0:0:
408,96,228617,1,0,0:0:0:0:
408,268,228970,1,0,0:0:0:0:
288,124,229411,1,0,0:0:0:0:
212,268,229764,1,0,0:0:0:0:
256,192,232588,12,0,234176,0:0:0:0:
352,128,234352,6,0,L|320:156,6,35
168,288,235058,6,0,L|104:212,1,70
248,92,235412,1,0,0:0:0:0:
288,272,235588,2,0,L|216:296,1,70
144,68,235941,5,0,0:0:0:0:
384,188,236117,1,0,0:0:0:0:
176,328,236294,1,0,0:0:0:0:
296,72,236470,2,0,L|376:92,1,70
216,156,236823,5,0,0:0:0:0:
280,168,236999,1,0,0:0:0:0:
204,132,237154,1,0,0:0:0:0:
292,188,237330,1,0,0:0:0:0:
192,104,237507,1,0,0:0:0:0:
308,216,237683,1,0,0:0:0:0:
180,76,237860,1,0,0:0:0:0:
320,240,238036,1,0,0:0:0:0:
92,236,238213,6,0,L|152:304,1,70
404,112,238566,2,0,L|336:48,1,70
264,256,238919,2,0,P|292:292|264:308,1,70
104,156,239272,2,0,P|136:176|160:156,1,70
272,36,239625,2,0,P|248:64|272:92,1,70
424,172,239977,2,0,P|396:152|360:176,1,70
264,40,240330,5,0,0:0:0:0:
336,152,240507,1,0,0:0:0:0:
188,152,240683,1,0,0:0:0:0:
184,64,240860,5,0,0:0:0:0:
268,200,241036,1,0,0:0:0:0:
112,200,241213,1,0,0:0:0:0:
264,120,241389,5,0,0:0:0:0:
352,256,241566,1,0,0:0:0:0:
200,256,241742,1,0,0:0:0:0:
348,176,241919,5,0,0:0:0:0:
424,296,242095,1,0,0:0:0:0:
288,304,242272,1,0,0:0:0:0:
252,104,242448,6,0,P|276:76|256:32,1,70
128,168,242801,2,0,P|100:140|72:180,1,70
256,256,243154,2,0,P|228:288|256:316,1,70
380,176,243507,2,0,P|408:208|436:176,1,70
264,72,243860,5,0,0:0:0:0:
416,224,244036,1,0,0:0:0:0:
196,316,244213,1,0,0:0:0:0:
348,100,244389,1,0,0:0:0:0:
120,164,244566,1,0,0:0:0:0:
356,300,244742,1,0,0:0:0:0:
244,76,244919,1,0,0:0:0:0:
136,304,245095,1,0,0:0:0:0:
384,120,245272,1,0,0:0:0:0:
168,112,245448,5,0,0:0:0:0:
328,308,245625,1,0,0:0:0:0:
340,76,245801,1,0,0:0:0:0:
164,288,245977,1,0,0:0:0:0:
212,116,246330,6,0,L|248:148,1,35
396,180,246683,2,0,L|364:204,1,35
120,176,247036,2,0,L|152:160,1,35
308,60,247389,2,0,L|280:92,1,35
172,92,247742,2,0,L|204:128,1,35
312,324,248095,2,0,L|280:292,1,35
448,224,248448,2,0,L|412:200,1,35
432,48,248801,2,0,L|384:76,1,35
104,304,249153,2,0,L|108:248,1,35
212,116,249507,6,0,L|248:148,1,35
396,180,249860,2,0,L|364:204,1,35
120,176,250213,2,0,L|152:160,1,35
308,60,250566,2,0,L|280:92,1,35
256,192,250919,12,0,252154,0:0:0:0:
336,124,252330,5,0,0:0:0:0:
292,324,252507,1,0,0:0:0:0:
92,156,252683,1,0,0:0:0:0:
416,204,252860,2,0,P|436:156|404:128,1,70
160,56,253213,5,0,0:0:0:0:
136,288,253389,1,0,0:0:0:0:
336,104,253566,1,0,0:0:0:0:
100,316,253742,2,0,P|68:284|76:240,1,70
236,64,254095,5,0,0:0:0:0:
364,300,254272,1,0,0:0:0:0:
100,224,254448,1,0,0:0:0:0:
376,216,254625,2,0,P|400:176|384:164,1,70
324,176,254977,2,0,P|348:136|332:124,1,70
272,136,255330,2,0,P|296:96|280:84,1,70
224,88,255683,2,0,P|248:48|232:36,1,70
136,168,256036,6,0,P|112:208|128:220,1,70
188,208,256388,2,0,P|164:248|180:260,1,70
240,248,256741,2,0,P|216:288|232:300,1,70
288,296,257095,2,0,P|264:336|280:348,3,70
256,200,263294,6,0,L|256:164,40,35
256,192,266911,12,0,268742,0:0:0:0:
256,192,268919,5,4,0:0:0:0:
372,80,269095,5,0,0:0:0:0:
376,84,269183,1,0,0:0:0:0:
380,88,269272,1,0,0:0:0:0:
116,216,269448,2,0,P|96:252|124:264,1,70
156,60,269801,5,0,0:0:0:0:
320,304,269977,1,0,0:0:0:0:
328,52,270154,1,0,0:0:0:0:
92,180,270330,1,0,0:0:0:0:
96,184,270419,1,0,0:0:0:0:
100,188,270507,1,0,0:0:0:0:
376,152,270683,2,0,P|404:184|392:196,1,70
220,64,271036,6,0,P|176:56|172:72,1,70
344,276,271389,2,0,P|384:300|404:280,1,70
172,60,271742,5,0,0:0:0:0:
256,308,271919,1,0,0:0:0:0:
344,56,272095,1,0,0:0:0:0:
168,308,272272,1,0,0:0:0:0:
256,60,272448,1,0,0:0:0:0:
344,308,272625,1,0,0:0:0:0:
340,192,272801,6,0,B|284:152|256:208|208:160,1,140
408,60,273330,1,0,0:0:0:0:
240,304,273507,1,0,0:0:0:0:
128,80,273683,1,0,0:0:0:0:
336,284,273860,2,0,P|380:272|376:248,1,70
296,56,274213,5,0,0:0:0:0:
164,284,274389,1,0,0:0:0:0:
80,88,274566,1,0,0:0:0:0:
380,264,274742,2,0,P|416:248|408:216,1,70
408,104,275095,6,0,L|352:56,1,70
72,256,275448,2,0,L|132:316,1,70
340,260,275801,2,0,L|308:292,4,35
212,72,276330,5,0,0:0:0:0:
180,316,276507,1,0,0:0:0:0:
404,168,276683,1,0,0:0:0:0:
120,220,276860,2,0,P|92:188|96:144,1,70
360,100,277213,5,0,0:0:0:0:
384,124,277301,1,0,0:0:0:0:
404,160,277389,1,0,0:0:0:0:
388,196,277477,1,0,0:0:0:0:
368,224,277566,1,0,0:0:0:0:
224,224,277742,2,0,P|184:164|216:104,1,140
324,304,278272,6,0,L|256:328,1,70
124,96,278625,1,0,0:0:0:0:
428,84,278801,1,0,0:0:0:0:
184,288,278977,1,0,0:0:0:0:
248,72,279154,2,0,L|312:56,4,35
352,240,280213,5,0,0:0:0:0:
356,244,280302,1,0,0:0:0:0:
360,248,280390,1,0,0:0:0:0:
120,132,280566,5,0,0:0:0:0:
124,136,280655,1,0,0:0:0:0:
128,140,280743,1,0,0:0:0:0:
348,72,280919,5,0,0:0:0:0:
352,76,281008,1,0,0:0:0:0:
356,80,281096,1,0,0:0:0:0:
256,192,313389,12,0,314183,0:0:0:0:
