osu file format v13

[General]
AudioFilename: Rameses B - Flaklypa.mp3
AudioLeadIn: 0
PreviewTime: 15574
Countdown: 1
SampleSet: Soft
StackLeniency: 0.7
Mode: 0
LetterboxInBreaks: 1
WidescreenStoryboard: 1

[Editor]
DistanceSpacing: 1
BeatDivisor: 4
GridSize: 4
TimelineZoom: 1

[Metadata]
Title:Flaklypa
TitleUnicode:Flåklypa
Artist:Rameses B
ArtistUnicode:Rameses B
Creator:-kevincela-
Version:Normal
Source:
Tags:
BeatmapID:453359
BeatmapSetID:190390

[Difficulty]
HPDrainRate:3
CircleSize:3
OverallDifficulty:3
ApproachRate:4
SliderMultiplier:1.1
SliderTickRate:1

[Events]
//Background and Video events
0,0,"Rameses B - Russ EP (Free) - cover.jpg",0,0
//Break Periods
//Storyboard Layer 0 (Background)
//Storyboard Layer 1 (Fail)
//Storyboard Layer 2 (Pass)
//Storyboard Layer 3 (Foreground)
//Storyboard Sound Samples
//Background Colour Transformations
3,100,163,162,255

[TimingPoints]
-84,461.538461538462,4,2,0,70,1,0
15608,-100,4,1,0,50,0,0
16531,-100,4,2,0,70,0,1
31300,-100,4,2,0,70,0,0
34992,-100,4,2,0,40,0,0
35454,-100,4,2,0,70,0,0
42377,-100,4,2,0,40,0,0
42839,-100,4,2,0,70,0,0
49762,-100,4,2,0,40,0,0
50223,-100,4,2,0,70,0,0
94069,468.75,4,2,0,70,1,0
96607,652.173913043478,4,2,0,55,1,0
98563,618.556701030928,4,2,0,55,1,0
99181,659.340659340659,4,2,0,55,1,0
99840,645.161290322581,4,2,0,55,1,0
101775,659.340659340659,4,2,0,55,1,0
103093,666.666666666667,4,2,0,55,1,0
105759,681.818181818182,4,2,0,55,1,0
107122,659.340659340659,4,2,0,55,1,0
109759,631.578947368421,4,2,0,55,1,0
111022,659.340659340659,4,2,0,55,1,0
111681,683.760683760684,4,2,0,55,1,0
112364,645.161290322581,4,2,0,55,1,0
113009,693.64161849711,4,2,0,55,1,0
113702,736.196319018405,4,2,0,55,1,0
114438,857.142857142857,4,2,0,55,1,0
115295,740.740740740741,4,2,0,55,1,0
116035,766.773162939297,4,2,0,55,1,0
116801,722.89156626506,4,2,0,55,1,0
117523,923.076923076923,4,2,0,55,1,0
117984,1000,4,2,0,55,1,0
119920,461.538461538462,4,2,0,70,1,0
134689,-100,4,2,0,70,0,1
149458,-100,4,2,0,70,0,0
153150,-100,4,2,0,40,0,0
153612,-100,4,2,0,70,0,0
160535,-100,4,2,0,40,0,0
160996,-100,4,2,0,70,0,0
167920,-100,4,2,0,40,0,0
168381,-100,4,2,0,70,0,0
179920,-100,4,2,0,40,0,0
180381,-100,4,2,0,20,0,0
180612,-100,4,2,0,15,0,0

[Colours]
Combo1 : 209,3,226
Combo2 : 125,125,255
Combo3 : 18,124,255
Combo4 : 12,200,233
Combo5 : 239,33,219
Combo6 : 228,228,228
Combo7 : 226,5,160

[HitObjects]
172,132,1762,6,0,P|116:144|56:124,2,110,6|2|2,0:0|0:0|0:0,0:0:0:0:
256,60,3146,1,2,0:0:0:0:
340,132,3608,2,0,L|348:248,1,110,2|2,0:0|0:0,0:0:0:0:
288,336,4531,1,2,0:0:0:0:
184,304,4992,2,0,L|112:300,1,55,2|2,0:0|0:0,0:0:0:0:
100,332,5454,6,0,P|108:276|96:212,1,110,2|2,0:0|0:0,0:0:0:0:
56,124,6377,2,0,P|47:69|55:15,1,110,2|2,0:0|0:0,0:0:0:0:
160,48,7300,2,0,L|280:36,1,110,2|2,0:0|0:0,0:0:0:0:
312,140,8223,2,0,L|192:152,1,110,2|2,0:0|0:0,0:0:0:0:
168,180,8916,1,2,0:0:0:0:
132,204,9146,6,0,P|73:208|28:184,2,110,4|0|0,1:0|1:0|1:0,0:0:0:0:
224,144,10531,1,0,1:0:0:0:
296,224,10992,2,0,L|288:344,1,110,0|0,1:0|1:0,0:0:0:0:
400,320,11916,2,0,L|408:200,1,110,0|0,1:0|1:0,0:0:0:0:
344,120,12839,69,4,1:0:0:0:
244,72,13300,2,0,P|234:42|232:16,2,55,0|0|0,1:0|1:0|1:0,0:0:0:0:
168,152,14223,2,0,P|164:184|156:208,1,55,0|0,1:0|1:0,0:0:0:0:
132,240,14685,38,0,B|204:236|204:236|268:268|268:268|356:264,1,220,0|2,0:0|0:0,0:0:0:0:
440,212,16069,1,2,0:0:0:0:
392,112,16531,22,0,P|440:100|500:120,1,110,2|2,1:0|1:0,0:0:0:0:
440,212,17454,2,0,L|444:276,2,55,2|0|8,1:2|0:0|1:2,0:0:0:0:
392,112,18377,2,0,P|340:129|287:117,1,110,2|2,1:0|1:0,0:0:0:0:
192,64,19300,2,0,L|196:8,2,55,2|0|8,1:2|0:0|1:2,0:0:0:0:
96,116,20223,5,2,1:0:0:0:
80,224,20685,1,2,1:0:0:0:
168,288,21146,1,2,1:0:0:0:
184,180,21608,1,4,3:0:0:0:
268,248,22069,54,0,P|376:272|452:192,1,220,4|4,1:2|1:2,0:0:0:0:
344,164,23454,1,4,1:2:0:0:
376,60,23916,22,0,P|320:56|264:88,1,110,2|2,1:0|1:0,0:0:0:0:
196,160,24839,2,0,L|128:148,2,55,2|0|8,1:2|0:0|1:2,0:0:0:0:
260,252,25762,6,0,P|272:304|252:364,1,110,2|2,1:0|1:0,0:0:0:0:
160,300,26685,2,0,L|84:308,2,55,2|0|8,1:2|0:0|1:2,0:0:0:0:
260,252,27608,53,0,0:0:0:0:
356,304,28069,1,2,0:0:0:0:
456,264,28531,1,0,0:0:0:0:
468,156,28992,1,2,0:0:0:0:
404,68,29454,22,0,B|324:76|324:76|292:108|224:112|184:72,1,220,4|0,1:0|1:0,0:0:0:0:
100,28,30839,1,8,0:0:0:0:
44,124,31300,6,0,P|36:176|60:244,1,110,6|8,1:0|2:0,0:0:0:0:
144,292,32223,2,0,L|264:280,1,110,2|8,1:0|0:0,0:0:0:0:
336,208,33146,53,2,1:0:0:0:
364,316,33608,1,8,2:0:0:0:
472,292,34069,1,2,1:0:0:0:
448,184,34531,2,0,P|448:156|456:120,1,55,8|2,2:0|0:0,0:0:0:0:
480,96,34992,6,0,P|424:100|376:80,1,110,2|12,2:0|0:0,0:0:0:0:
280,24,35916,37,0,3:0:0:0:
196,92,36377,1,8,0:0:0:0:
196,92,36608,2,0,L|72:84,2,110,2|2|2,0:0|0:0|0:0,0:0:0:0:
228,120,37762,2,0,P|240:176|220:232,1,110,0|12,3:0|0:0,0:0:0:0:
124,268,38685,38,0,L|4:256,1,110,6|8,1:0|0:0,0:0:0:0:
32,364,39608,2,0,L|152:376,1,110,2|8,1:0|0:0,0:0:0:0:
224,300,40531,22,0,P|228:256|196:192,1,110,2|8,1:0|0:0,0:0:0:0:
120,124,41454,1,2,1:0:0:0:
196,44,41916,2,0,L|260:48,1,55,8|2,0:0|0:0,0:0:0:0:
280,80,42377,86,0,P|328:88|392:68,1,110,2|12,0:2|0:0,0:0:0:0:
484,20,43300,37,0,3:0:0:0:
504,128,43762,1,8,0:0:0:0:
504,128,43992,2,0,P|504:184|480:240,2,110,2|2|2,0:0|0:0|0:0,0:0:0:0:
484,88,45146,2,0,L|356:84,1,110,0|12,3:0|0:0,0:0:0:0:
288,156,46069,70,0,P|232:164|168:136,1,110,6|8,1:0|0:0,0:0:0:0:
140,44,46992,2,0,P|193:35|245:53,1,110,2|8,1:0|0:0,0:0:0:0:
288,156,47916,2,0,L|300:284,1,110,2|8,1:0|0:0,0:0:0:0:
376,344,48839,1,2,1:0:0:0:
452,264,49300,2,0,L|460:204,1,55,8|0,3:0|0:0,0:0:0:0:
496,184,49762,86,0,P|444:180|392:136,1,110,0|12,2:1|0:0,0:0:0:0:
320,68,50685,53,0,3:0:0:0:
216,104,51146,1,8,0:0:0:0:
216,104,51377,2,0,L|104:96,2,110,2|2|2,0:0|0:0|0:0,0:0:0:0:
248,136,52531,2,0,P|260:188|240:252,1,110,0|12,3:0|0:0,0:0:0:0:
184,332,53454,54,0,P|236:352|300:336,2,110,2|8|2,1:0|0:0|1:0,0:0:0:0:
104,256,54839,1,8,0:0:0:0:
60,156,55300,2,0,L|64:36,1,110,2|12,1:0|0:0,0:0:0:0:
172,56,56223,2,0,L|168:176,1,110,2|12,1:0|0:0,0:0:0:0:
196,200,56916,1,2,0:0:0:0:
228,228,57146,6,0,P|272:228|332:188,2,110,12|12|12,0:0|0:0|0:0,0:0:0:0:
248,120,58531,1,12,0:0:0:0:
264,12,58992,2,0,P|220:12|160:52,2,110,12|12|12,0:0|0:0|0:0,0:0:0:0:
348,84,60377,1,12,0:0:0:0:
448,32,60839,6,0,B|468:92|440:140|440:140|412:188|432:248,1,220,2|8,0:0|3:2,0:0:0:0:
460,348,62223,1,8,3:2:0:0:
352,320,62685,2,0,P|268:344|192:312,1,165,8|0,3:2|3:0,0:0:0:0:
172,284,63608,2,0,P|152:228|164:160,1,110,2|2,0:0|0:0,0:0:0:0:
224,92,64531,6,0,L|340:88,2,110,4|8|0,0:0|0:0|0:0,0:0:0:0:
156,180,65916,1,8,0:0:0:0:
55,135,66377,2,0,P|45:188|64:240,1,110,0|8,0:0|0:0,0:0:0:0:
148,312,67300,2,0,L|264:304,1,110,0|8,0:0|0:0,0:0:0:0:
364,336,68223,6,0,B|380:280|340:232|340:232|352:104,1,220,0|0,0:0|0:0,0:0:0:0:
276,44,69608,1,8,0:0:0:0:
180,96,70069,2,0,P|128:108|64:80,2,110,0|8|0,0:0|0:0|0:0,0:0:0:0:
276,44,71454,1,8,0:0:0:0:
352,124,71916,70,0,P|364:220|272:304,1,220,0|0,0:0|0:0,0:0:0:0:
172,304,73300,1,8,0:0:0:0:
96,224,73762,2,0,P|136:200|204:200,1,110,0|8,0:0|0:0,0:0:0:0:
172,304,74685,2,0,P|132:328|64:328,1,110,0|8,0:0|0:0,0:0:0:0:
96,224,75608,6,0,P|200:196|280:276,1,220,0|0,0:0|0:0,0:0:0:0:
172,304,76992,1,8,0:0:0:0:
96,224,77454,1,0,0:0:0:0:
136,120,77916,1,8,0:0:0:0:
236,168,78377,2,0,L|248:240,2,55,0|0|8,0:0|0:0|0:0,0:0:0:0:
316,96,79300,5,4,0:0:0:0:
408,160,79762,1,8,0:0:0:0:
480,76,80223,1,0,0:0:0:0:
408,160,80685,1,8,0:0:0:0:
408,160,80916,2,0,L|416:272,2,110,2|2|2,0:0|0:0|0:0,0:0:0:0:
316,96,82300,70,0,L|320:32,2,55,2|8|2,0:0|0:0|0:0,0:0:0:0:
228,160,83223,1,2,0:0:0:0:
124,120,83685,1,2,0:0:0:0:
40,192,84146,2,0,L|36:256,2,55,2|8|2,0:0|0:0|0:0,0:0:0:0:
124,120,85069,1,2,0:0:0:0:
228,160,85531,1,2,0:0:0:0:
228,160,85762,2,0,P|240:216|224:280,1,110,2|10,0:0|0:0,0:0:0:0:
136,320,86685,5,2,0:0:0:0:
40,268,87146,1,8,0:0:0:0:
40,268,87377,2,0,P|28:212|44:148,2,110,2|2|2,0:0|0:0|0:0,0:0:0:0:
136,320,88762,1,2,0:0:0:0:
196,228,89223,1,2,0:0:0:0:
272,308,89685,6,0,L|348:312,2,55,0|8|2,0:0|0:0|0:0,0:0:0:0:
196,228,90608,1,2,0:0:0:0:
256,136,91069,1,2,0:0:0:0:
172,64,91531,70,0,L|164:4,2,55,2|8|2,0:0|0:0|0:0,0:0:0:0:
112,156,92454,1,2,0:0:0:0:
196,228,92916,1,2,0:0:0:0:
256,136,93377,1,2,0:0:0:0:
256,136,93608,1,8,0:0:0:0:
172,64,94069,5,4,0:0:0:0:
362,146,96607,6,0,P|390:237|304:332,1,220,2|2,0:0|0:0,0:0:0:0:
208,316,98563,1,2,0:0:0:0:
132,236,99181,2,0,P|178:207|232:209,1,110,2|2,0:0|0:0,0:0:0:0:
208,316,100485,1,0,0:0:0:0:
296,372,101130,1,2,0:0:0:0:
396,332,101775,70,0,B|392:260|392:260|360:204|360:204|356:120,1,220,2|2,0:0|0:0,0:0:0:0:
308,20,103759,1,2,0:0:0:0:
240,112,104426,2,0,P|160:144|60:60,1,220,0|2,0:0|0:0,0:0:0:0:
164,36,106440,1,2,0:0:0:0:
240,112,107122,6,0,P|248:200|160:320,1,220,2|2,0:0|0:0,0:0:0:0:
72,328,109100,2,0,L|-4:320,2,55,2|2|2,0:0|0:0|0:0,0:0:0:0:
180,308,110390,1,2,0:0:0:0:
272,360,111022,2,0,P|328:352|376:312,1,110,0|2,0:0|0:0,0:0:0:0:
400,276,112022,1,2,0:0:0:0:
420,220,112364,6,0,L|412:100,1,110,2|2,0:0|0:0,0:0:0:0:
308,68,113702,2,0,L|316:188,1,110,2|2,0:0|0:0,0:0:0:0:
232,244,115295,1,2,0:0:0:0:
256,192,115665,12,0,119920,1:0:0:0:
84,80,120843,70,0,L|100:200,1,110,0|0,1:0|1:0,0:0:0:0:
208,208,121766,2,0,L|192:88,2,110,0|0|0,1:0|1:0|1:0,0:0:0:0:
288,284,123150,2,0,L|276:356,2,55,0|0|2,1:0|1:0|1:2,0:0:0:0:
384,232,124073,5,2,1:2:0:0:
484,184,124535,2,0,P|456:144|392:120,1,110,2|2,1:2|1:2,0:0:0:0:
384,232,125458,2,0,L|392:344,1,110,2|2,1:2|1:2,0:0:0:0:
284,320,126381,2,0,L|276:208,1,110,2|0,1:2|1:0,0:0:0:0:
200,132,127304,5,6,1:2:0:0:
104,188,127766,1,2,1:2:0:0:
44,96,128227,1,0,1:2:0:0:
140,40,128689,1,4,3:0:0:0:
200,132,129150,69,6,1:2:0:0:
300,176,129612,1,2,1:2:0:0:
288,68,130073,1,0,1:2:0:0:
200,132,130535,2,0,P|192:188|224:252,1,110,0|0,0:0|1:0,0:0:0:0:
300,304,131458,6,0,L|372:316,2,55,2|2|2,1:2|1:2|1:2,0:0:0:0:
211,238,132381,2,0,L|139:250,2,55,2|2|0,1:2|1:2|0:0,0:0:0:0:
308,188,133304,1,2,0:0:0:0:
388,112,133766,2,0,P|348:84|280:80,1,110,2|8,0:0|0:0,0:0:0:0:
192,136,134689,53,2,1:0:0:0:
192,136,134920,2,0,L|72:128,1,110,0|0,0:0|1:0,0:0:0:0:
48,100,135612,2,0,P|64:144|56:212,1,110,8|2,1:2|1:2,0:0:0:0:
32,312,136535,5,2,1:0:0:0:
32,312,136766,2,0,L|148:304,1,110,0|0,0:0|1:0,0:0:0:0:
176,332,137458,2,0,P|160:292|176:216,1,110,8|2,1:2|1:2,0:0:0:0:
260,164,138381,53,2,1:0:0:0:
272,272,138843,1,2,1:0:0:0:
169,227,139304,2,0,L|112:232,2,55,2|0|0,1:0|0:0|1:0,0:0:0:0:
260,164,140227,22,0,P|348:196|368:320,1,220,2|8,1:0|1:2,0:0:0:0:
272,272,141612,1,2,1:2:0:0:
260,164,142073,6,0,P|264:108|292:56,1,110,2|0,0:0|0:0,0:0:0:0:
392,28,142996,2,0,L|460:24,2,55,2|2|0,0:0|0:0|0:0,0:0:0:0:
288,60,143920,53,2,1:0:0:0:
368,136,144381,1,0,0:0:0:0:
300,224,144843,2,0,L|312:288,2,55,8|0|2,1:2|0:0|1:2,0:0:0:0:
200,176,145766,21,0,0:0:0:0:
96,208,146227,1,2,0:0:0:0:
36,116,146689,1,8,1:0:0:0:
140,84,147150,1,2,0:0:0:0:
200,176,147612,6,0,P|272:212|388:140,1,220,0|0,0:0|0:0,0:0:0:0:
284,100,148996,1,0,1:0:0:0:
200,176,149458,54,0,L|208:296,1,110,2|8,1:0|0:0,0:0:0:0:
104,324,150381,2,0,L|96:204,1,110,2|8,1:0|0:0,0:0:0:0:
124,108,151304,2,0,P|180:76|240:84,1,110,2|8,1:0|0:0,0:0:0:0:
312,144,152227,1,2,1:0:0:0:
420,116,152689,2,0,L|484:120,1,55,8|2,0:0|0:0,0:0:0:0:
504,152,153150,6,0,P|516:208|500:272,1,110,2|8,0:0|0:0,0:0:0:0:
436,344,154073,37,0,3:0:0:0:
328,316,154535,1,8,0:0:0:0:
328,316,154766,2,0,L|212:328,2,110,2|2|2,0:0|0:0|0:0,0:0:0:0:
360,284,155920,2,0,P|372:232|356:176,1,110,0|8,3:0|0:0,0:0:0:0:
280,100,156843,70,0,L|168:100,1,110,2|8,1:0|0:0,0:0:0:0:
72,152,157766,2,0,P|60:208|76:260,1,110,2|8,1:0|0:0,0:0:0:0:
172,308,158689,2,0,P|184:252|168:200,1,110,2|8,1:0|0:0,0:0:0:0:
74,257,159612,1,2,1:0:0:0:
172,308,160073,2,0,L|252:304,1,55,8|2,0:0|0:0,0:0:0:0:
264,332,160535,86,0,L|380:324,1,110,2|8,0:0|0:0,0:0:0:0:
468,268,161458,69,0,3:0:0:0:
412,172,161920,1,8,0:0:0:0:
412,172,162150,2,0,B|392:124|392:124|396:64,2,110,2|2|2,0:0|0:0|0:0,0:0:0:0:
440,208,163304,2,0,L|324:204,1,110,0|8,3:0|0:0,0:0:0:0:
232,252,164227,6,0,P|176:264|120:240,1,110,2|8,1:0|0:0,0:0:0:0:
80,148,165150,2,0,P|136:136|192:160,1,110,2|8,1:0|0:0,0:0:0:0:
232,252,166073,2,0,L|360:240,1,110,2|8,1:0|0:0,0:0:0:0:
428,312,166996,1,2,1:0:0:0:
476,212,167458,2,0,L|480:152,1,55,8|0,3:0|0:0,0:0:0:0:
504,120,167920,6,0,P|440:124|392:100,1,110,2|8,0:0|0:0,0:0:0:0:
308,44,168843,53,0,3:0:0:0:
236,128,169304,1,8,0:0:0:0:
236,128,169535,2,0,L|248:244,2,110,2|2|2,0:0|0:0|0:0,0:0:0:0:
204,100,170689,2,0,P|153:79|99:85,1,110,0|8,3:0|0:0,0:0:0:0:
48,184,171612,54,0,L|64:300,1,110,2|8,1:0|0:0,0:0:0:0:
172,308,172535,2,0,L|156:192,1,110,2|8,1:0|0:0,0:0:0:0:
204,100,173458,1,2,1:0:0:0:
280,180,173920,1,8,0:0:0:0:
372,124,174381,2,0,P|388:176|372:240,1,110,2|8,1:0|0:0,0:0:0:0:
348,264,175073,1,2,0:0:0:0:
308,280,175304,37,2,0:0:0:0:
204,252,175766,1,8,0:0:0:0:
228,360,176227,1,2,0:0:0:0:
124,324,176689,2,0,P|96:320|60:320,1,55,8|0,0:0|0:0,0:0:0:0:
28,340,177150,6,0,P|36:296|20:228,1,110,2|8,0:0|0:0,0:0:0:0:
108,168,178073,2,0,P|94:115|102:60,1,110,2|8,0:0|0:0,0:0:0:0:
204,108,178996,70,0,L|340:104,1,110,2|0,0:0|1:0,0:0:0:0:
408,164,179920,1,0,1:0:0:0:
324,232,180381,2,0,L|264:228,2,55,0|0|4,1:0|1:0|1:2,0:0:0:0:
