osu file format v13

[General]
AudioFilename: Rameses B - Flaklypa.mp3
AudioLeadIn: 0
PreviewTime: 15574
Countdown: 1
SampleSet: Soft
StackLeniency: 0.7
Mode: 0
LetterboxInBreaks: 1
WidescreenStoryboard: 1

[Editor]
DistanceSpacing: 1.2
BeatDivisor: 4
GridSize: 4
TimelineZoom: 1

[Metadata]
Title:Flaklypa
TitleUnicode:Flåklypa
Artist:Rameses B
ArtistUnicode:Rameses B
Creator:-kevincela-
Version:Insane
Source:
Tags:
BeatmapID:453358
BeatmapSetID:190390

[Difficulty]
HPDrainRate:7
CircleSize:4
OverallDifficulty:8
ApproachRate:9
SliderMultiplier:1.8
SliderTickRate:1

[Events]
//Background and Video events
0,0,"Rameses B - Russ EP (Free) - cover.jpg",0,0
//Break Periods
//Storyboard Layer 0 (Background)
//Storyboard Layer 1 (Fail)
//Storyboard Layer 2 (Pass)
//Storyboard Layer 3 (Foreground)
//Storyboard Sound Samples
//Background Colour Transformations
3,100,163,162,255

[TimingPoints]
-84,461.538461538462,4,2,0,70,1,0
15146,-83.3333333333333,4,2,0,70,0,0
15608,-66.6666666666667,4,1,0,50,0,0
16531,-66.6666666666667,4,2,0,70,0,1
28531,-58.8235294117647,4,2,0,70,0,1
29454,-66.6666666666667,4,2,0,70,0,1
31300,-66.6666666666667,4,2,0,70,0,0
31877,-66.6666666666667,4,2,0,60,0,0
32223,-66.6666666666667,4,2,0,70,0,0
32800,-66.6666666666667,4,2,0,60,0,0
32916,-66.6666666666667,4,2,0,50,0,0
33031,-66.6666666666667,4,2,0,70,0,0
33723,-66.6666666666667,4,2,0,60,0,0
34069,-66.6666666666667,4,2,0,70,0,0
34992,-133.333333333333,4,2,0,40,0,0
35454,-100,4,2,0,70,0,0
38685,-66.6666666666667,4,2,0,70,0,0
39262,-66.6666666666667,4,2,0,60,0,0
39608,-66.6666666666667,4,2,0,70,0,0
40185,-66.6666666666667,4,2,0,60,0,0
40300,-66.6666666666667,4,2,0,50,0,0
40416,-66.6666666666667,4,2,0,70,0,0
41108,-66.6666666666667,4,2,0,60,0,0
41454,-66.6666666666667,4,2,0,70,0,0
42377,-133.333333333333,4,2,0,40,0,0
42839,-100,4,2,0,70,0,0
46069,-66.6666666666667,4,2,0,70,0,0
46646,-66.6666666666667,4,2,0,60,0,0
46992,-66.6666666666667,4,2,0,70,0,0
47569,-66.6666666666667,4,2,0,60,0,0
47685,-66.6666666666667,4,2,0,50,0,0
47916,-66.6666666666667,4,2,0,70,0,0
48492,-66.6666666666667,4,2,0,60,0,0
49762,-133.333333333333,4,2,0,40,0,0
50223,-100,4,2,0,70,0,0
53454,-66.6666666666667,4,2,0,70,0,0
54031,-66.6666666666667,4,2,0,60,0,0
54377,-66.6666666666667,4,2,0,70,0,0
54954,-66.6666666666667,4,2,0,60,0,0
55069,-66.6666666666667,4,2,0,50,0,0
55300,-66.6666666666667,4,2,0,70,0,0
55877,-66.6666666666667,4,2,0,60,0,0
56223,-66.6666666666667,4,2,0,70,0,0
57146,-100,4,2,0,70,0,0
64531,-100,4,2,0,70,0,0
94069,468.75,4,2,0,70,1,0
96607,652.173913043478,4,2,0,55,1,0
98563,618.556701030928,4,2,0,55,1,0
99181,659.340659340659,4,2,0,55,1,0
99840,645.161290322581,4,2,0,55,1,0
101775,659.340659340659,4,2,0,55,1,0
103093,666.666666666667,4,2,0,55,1,0
105759,681.818181818182,4,2,0,55,1,0
107122,659.340659340659,4,2,0,55,1,0
109759,631.578947368421,4,2,0,55,1,0
111022,659.340659340659,4,2,0,55,1,0
111681,683.760683760684,4,2,0,55,1,0
112364,645.161290322581,4,2,0,55,1,0
113009,693.64161849711,4,2,0,55,1,0
113702,736.196319018405,4,2,0,55,1,0
114438,857.142857142857,4,2,0,55,1,0
115295,740.740740740741,4,2,0,55,1,0
116035,766.773162939297,4,2,0,55,1,0
116801,722.89156626506,4,2,0,55,1,0
117523,923.076923076923,4,2,0,55,1,0
117984,1000,4,2,0,55,1,0
119920,461.538461538462,4,2,0,70,1,0
130535,-133.333333333333,4,2,0,70,0,0
130996,-100,4,2,0,70,0,0
133304,-83.3333333333333,4,2,0,70,0,0
133766,-66.6666666666667,4,2,0,70,0,0
134227,-66.6666666666667,4,2,0,70,0,0
134689,-66.6666666666667,4,2,0,70,0,1
146689,-58.8235294117647,4,2,0,70,0,1
147612,-100,4,2,0,70,0,1
149458,-66.6666666666667,4,2,0,70,0,0
150035,-66.6666666666667,4,2,0,60,0,0
150381,-66.6666666666667,4,2,0,70,0,0
150958,-66.6666666666667,4,2,0,60,0,0
151073,-66.6666666666667,4,2,0,50,0,0
151304,-66.6666666666667,4,2,0,70,0,0
151881,-66.6666666666667,4,2,0,60,0,0
152227,-66.6666666666667,4,2,0,70,0,0
153150,-133.333333333333,4,2,0,40,0,0
153612,-100,4,2,0,70,0,0
156843,-66.6666666666667,4,2,0,70,0,0
157420,-66.6666666666667,4,2,0,60,0,0
157766,-66.6666666666667,4,2,0,70,0,0
158343,-66.6666666666667,4,2,0,60,0,0
158458,-66.6666666666667,4,2,0,50,0,0
158689,-66.6666666666667,4,2,0,70,0,0
159266,-66.6666666666667,4,2,0,60,0,0
159612,-66.6666666666667,4,2,0,60,0,0
160535,-133.333333333333,4,2,0,70,0,0
160996,-100,4,2,0,70,0,0
164227,-66.6666666666667,4,2,0,70,0,0
164804,-66.6666666666667,4,2,0,60,0,0
165150,-66.6666666666667,4,2,0,70,0,0
165727,-66.6666666666667,4,2,0,60,0,0
165843,-66.6666666666667,4,2,0,50,0,0
166073,-66.6666666666667,4,2,0,70,0,0
166650,-66.6666666666667,4,2,0,60,0,0
166996,-66.6666666666667,4,2,0,70,0,0
167920,-133.333333333333,4,2,0,70,0,0
168381,-100,4,2,0,70,0,0
171612,-66.6666666666667,4,2,0,70,0,0
172189,-66.6666666666667,4,2,0,60,0,0
172535,-66.6666666666667,4,2,0,70,0,0
173112,-66.6666666666667,4,2,0,60,0,0
173227,-66.6666666666667,4,2,0,50,0,0
173458,-66.6666666666667,4,2,0,70,0,0
174035,-66.6666666666667,4,2,0,60,0,0
174381,-66.6666666666667,4,2,0,70,0,0
175304,-100,4,2,0,70,0,0
179458,-100,4,2,0,70,0,0
179689,-100,4,2,0,50,0,0
179920,-100,4,2,0,40,0,0
180150,-100,4,2,0,30,0,0
180381,-100,4,2,0,20,0,0
180612,-100,4,2,0,15,0,0

[Colours]
Combo1 : 209,3,226
Combo2 : 125,125,255
Combo3 : 18,124,255
Combo4 : 12,200,233
Combo5 : 239,33,219
Combo6 : 228,228,228
Combo7 : 226,5,160

[HitObjects]
88,140,1762,5,6,0:0:0:0:
100,128,2223,1,2,0:0:0:0:
112,116,2685,1,2,0:0:0:0:
124,104,3146,2,0,L|112:240,1,135,2|0,0:0|0:0,0:0:0:0:
112,238,3608,6,0,P|156:220|216:232,1,90,2|0,0:0|0:0,0:0:0:0:
316,320,4069,2,0,P|236:355|168:304,1,180,2|2,0:0|0:0,0:0:0:0:
168,304,4877,1,0,0:0:0:0:
168,304,4992,1,2,0:0:0:0:
92,384,5223,1,2,0:0:0:0:
60,232,5454,6,0,P|60:188|84:136,1,90,2|0,0:0|0:0,0:0:0:0:
172,92,5916,2,0,L|332:80,1,135,2|0,0:0|0:0,0:0:0:0:
328,104,6377,2,0,L|320:0,1,90,2|0,0:0|0:0,0:0:0:0:
432,28,6839,2,0,L|444:164,1,135,2|0,0:0|0:0,0:0:0:0:
420,188,7300,70,0,P|468:192|504:216,1,90,2|0,0:0|0:0,0:0:0:0:
428,296,7762,2,0,P|372:292|320:232,1,135,2|0,0:0|0:0,0:0:0:0:
316,204,8223,1,2,0:0:0:0:
316,204,8569,1,0,0:0:0:0:
316,204,8685,1,2,0:0:0:0:
236,276,8916,1,2,0:0:0:0:
219,82,9146,22,0,L|216:172,1,90,4|2,1:0|3:0,0:0:0:0:
88,244,9608,2,0,L|91:154,1,90,0|2,1:0|3:0,0:0:0:0:
220,82,10069,2,0,P|264:92|316:80,1,90,0|2,1:0|3:0,0:0:0:0:
175,245,10531,2,0,P|131:235|88:244,1,90,0|2,1:0|3:0,0:0:0:0:
20,292,10877,85,0,0:0:0:0:
20,292,10992,2,0,L|28:388,1,90,0|2,1:0|3:0,0:0:0:0:
175,245,11454,2,0,P|218:254|262:246,1,90,0|2,1:0|3:0,0:0:0:0:
395,98,11916,2,0,L|388:188,1,90,0|2,1:0|3:0,0:0:0:0:
440,252,12262,1,0,1:0:0:0:
440,252,12377,2,0,L|496:244,1,45,0|0,1:0|1:0,0:0:0:0:
472,324,12608,2,0,L|416:332,1,45,2|0,3:0|1:0,0:0:0:0:
364,376,12839,85,4,1:0:0:0:
256,304,13069,1,0,0:0:0:0:
148,376,13300,2,0,P|96:372|60:348,1,90,0|0,1:0|1:0,0:0:0:0:
72,184,13762,21,0,1:0:0:0:
128,296,13992,1,0,0:0:0:0:
212,112,14223,2,0,L|204:201,1,90,0|0,1:0|1:0,0:0:0:0:
288,352,14685,86,0,L|372:360,2,60,0|0|2,0:0|0:0|0:0,0:0:0:0:
220,296,15146,22,0,L|136:304,2,71.9999978027344,2|0|0,0:0|0:0|0:0,0:0:0:0:
292,248,15608,38,0,P|288:136|220:220,1,270.000010299683,2|2,0:0|0:0,0:0:0:0:
288,352,16300,1,2,0:0:0:0:
424,264,16531,86,0,P|448:196|396:64,1,202.500007724762,2|0,1:0|0:0,0:0:0:0:
328,40,16992,2,0,P|229:73|152:20,1,202.500007724762,2|0,1:0|0:0,0:0:0:0:
84,76,17454,2,0,L|92:152,1,67.5000025749208,2|0,1:2|0:0,0:0:0:0:
28,264,17685,2,0,L|20:188,1,67.5000025749208,0|0,0:0|0:0,0:0:0:0:
91,144,17916,2,0,P|148:176|216:164,1,135.000005149842,8|0,1:2|0:0,0:0:0:0:
356,79,18377,70,0,P|260:79|214:164,1,202.500007724762,2|0,1:0|0:0,0:0:0:0:
236,248,18839,2,0,B|188:252|160:228|160:228|116:244|116:244|84:216|36:228,1,202.500007724762,2|0,1:0|0:0,0:0:0:0:
60,312,19300,2,0,L|68:388,1,67.5000025749208,2|0,1:2|0:0,0:0:0:0:
32,232,19531,2,0,L|24:156,1,67.5000025749208,0|0,0:0|0:0,0:0:0:0:
116,240,19762,2,0,P|184:248|248:204,1,135.000005149842,8|0,1:2|0:0,0:0:0:0:
412,254,20223,38,0,P|316:275|239:215,1,202.500007724762,2|0,1:0|0:0,0:0:0:0:
260,132,20685,2,0,P|355:111|433:171,1,202.500007724762,2|0,1:0|0:0,0:0:0:0:
412,254,21146,1,2,1:0:0:0:
244,308,21377,1,0,0:0:0:0:
260,132,21608,2,0,P|260:88|240:40,2,90.0000034332277,4|8|8,3:0|3:0|3:0,3:0:0:0:
200,204,22069,86,0,P|120:216|72:108,1,202.500007724762,4|0,1:2|0:0,0:0:0:0:
148,140,22531,2,0,P|136:228|24:244,1,202.500007724762,4|0,1:2|0:0,0:0:0:0:
28,332,22992,70,0,L|120:348,2,90.0000034332277,4|0|0,1:2|0:0|0:0,0:0:0:0:
72,176,23454,2,0,P|64:140|88:80,1,90.0000034332277,4|0,1:2|0:0,0:0:0:0:
180,48,23762,1,0,0:0:0:0:
244,132,23916,38,0,P|344:148|392:64,1,202.500007724762,2|0,1:0|0:0,0:0:0:0:
304,64,24377,2,0,B|328:148|328:148|304:264,1,202.500007724762,2|0,1:0|0:0,0:0:0:0:
244,316,24839,1,2,1:2:0:0:
304,372,24954,1,0,0:0:0:0:
364,316,25069,2,0,P|392:304|428:300,1,67.5000025749208
500,336,25300,2,0,P|473:272|492:188,1,135.000005149842,8|0,1:2|0:0,0:0:0:0:
512,48,25762,86,0,P|464:96|340:68,1,202.500007724762,2|0,1:0|0:0,0:0:0:0:
304,140,26223,2,0,P|213:105|134:162,1,202.500007724762,2|0,1:0|0:0,0:0:0:0:
64,120,26685,2,0,L|68:44,2,67.5000025749208,2|0|0,1:2|0:0|0:0,0:0:0:0:
8,180,27031,1,0,0:0:0:0:
64,236,27146,2,0,B|80:280|80:280|76:372,1,135.000005149842,8|0,1:2|0:0,0:0:0:0:
236,328,27608,6,0,L|332:316,2,90.0000034332277,0|2|2,0:0|0:0|0:0,0:0:0:0:
153,247,28069,2,0,L|64:236,2,90.0000034332277,0|2|2,0:0|0:0|0:0,0:0:0:0:
252,180,28531,54,0,L|360:168,2,102.000001945496,0|2|2,0:0|0:0|0:0,0:0:0:0:
169,99,28992,2,0,L|68:88,2,102.000001945496,0|2|2,0:0|0:0|0:0,0:0:0:0:
260,36,29454,22,0,L|345:28,1,67.5000025749208,4|2,1:0|0:0,0:0:0:0:
380,108,29685,2,0,L|297:115,1,67.5000025749208,0|2,0:0|0:0,0:0:0:0:
440,164,29916,2,0,P|456:136|424:40,1,135.000005149842,0|0,1:0|0:0,0:0:0:0:
380,108,30262,1,0,0:0:0:0:
356,192,30377,2,0,B|344:224|344:224|344:256|368:328|368:328|304:352|240:300,1,270.000010299683,0|8,1:0|0:0,0:0:0:0:
247,305,31300,6,0,L|96:324,1,135.000005149842,6|0,1:0|0:0,0:0:0:0:
113,321,31762,2,0,P|124:288|124:244,1,67.5000025749208,8|2,2:0|0:0,0:0:0:0:
116,176,31992,2,0,P|112:144|96:108,1,67.5000025749208,2|2,0:0|0:0,0:0:0:0:
24,76,32223,54,0,L|168:60,1,135.000005149842,2|0,1:0|0:0,0:0:0:0:
158,61,32685,1,8,0:0:0:0:
228,100,32800,1,2,0:0:0:0:
300,140,32916,2,0,L|412:128,1,101.250003862381,2|0,0:1|0:0,0:0:0:0:
400,129,33146,22,0,P|392:176|416:264,1,135.000005149842,2|0,1:0|0:0,0:0:0:0:
413,259,33608,2,0,L|332:248,1,67.5000025749208,8|2,2:0|0:0,0:0:0:0:
268,264,33839,2,0,L|186:252,1,67.5000025749208,2|2,0:0|0:0,0:0:0:0:
124,276,34069,6,0,P|108:228|112:136,1,135.000005149842,2|0,1:0|0:0,0:0:0:0:
109,144,34531,1,8,2:0:0:0:
188,164,34646,1,2,0:0:0:0:
268,152,34762,1,2,0:0:0:0:
328,100,34877,1,0,0:0:0:0:
360,24,34992,70,2,L|500:44,1,135.000005149842,2|12,2:0|0:0,1:1:0:0:
460,148,35685,37,0,0:0:0:0:
496,252,35916,2,0,P|500:300|480:356,1,90,0|0,3:0|0:0,0:0:0:0:
460,148,36377,1,8,0:0:0:0:
215,199,36608,2,0,P|294:239|380:220,1,180,2|2,0:0|0:0,0:0:0:0:
460,148,37300,1,8,0:0:0:0:
496,252,37531,2,0,P|500:300|480:356,1,90,2|0,0:0|3:0,0:0:0:0:
460,148,37992,1,2,0:0:0:0:
460,148,38108,1,0,0:0:0:0:
460,148,38223,2,0,P|456:100|476:44,1,90,12|2,0:0|0:0,0:0:0:0:
467,60,38685,86,0,L|312:68,1,135.000005149842,6|0,1:0|0:0,0:0:0:0:
332,67,39146,2,0,P|312:89|296:129,1,67.5000025749208,8|2,0:0|0:0,0:0:0:0:
296,204,39377,2,0,P|300:240|320:280,1,67.5000025749208,2|2,0:0|0:0,0:0:0:0:
368,328,39608,54,0,L|208:304,1,135.000005149842,2|0,1:0|0:0,0:0:0:0:
235,308,40069,1,8,2:0:0:0:
160,340,40185,1,2,0:0:0:0:
88,304,40300,2,0,P|72:252|92:192,1,101.250003862381,2|0,0:1|0:0,0:0:0:0:
82,207,40531,22,0,L|220:188,1,135.000005149842,2|0,1:0|0:0,0:0:0:0:
215,188,40992,2,0,L|204:112,1,67.5000025749208,8|2,0:0|0:0,0:0:0:0:
280,88,41223,2,0,L|291:164,1,67.5000025749208,2|2,0:0|0:0,0:0:0:0:
344,216,41454,6,0,P|396:236|472:200,1,135.000005149842,2|0,1:0|0:0,0:0:0:0:
466,207,41916,1,8,0:0:0:0:
496,284,42031,1,2,0:0:0:0:
440,340,42146,1,2,0:0:0:0:
364,312,42262,1,0,0:0:0:0:
300,360,42377,70,0,L|128:352,1,135.000005149842,2|12,0:2|0:0,0:0:0:0:
108,260,43069,69,0,0:0:0:0:
190,100,43300,2,0,P|200:144|192:188,1,90,0|0,3:0|0:0,0:0:0:0:
108,260,43762,1,8,0:0:0:0:
120,60,43992,2,0,P|176:20|268:76,1,180,2|2,0:0|0:0,0:0:0:0:
288,172,44685,1,8,0:0:0:0:
372,108,44916,2,0,P|380:64|368:16,1,90,2|0,0:0|3:0,0:0:0:0:
288,172,45377,1,2,0:0:0:0:
288,172,45492,1,0,0:0:0:0:
288,172,45608,2,0,P|278:215|286:259,1,90,12|2,0:0|0:0,0:0:0:0:
286,259,46069,6,0,L|144:252,1,135.000005149842,6|0,1:0|0:0,0:0:0:0:
151,252,46531,2,0,P|160:288|152:340,1,67.5000025749208,8|2,0:0|0:0,0:0:0:0:
88,360,46762,2,0,L|12:356,1,67.5000025749208,2|2,0:0|0:0,0:0:0:0:
158,318,46992,22,0,L|296:328,1,135.000005149842,2|0,1:0|0:0,0:0:0:0:
293,327,47454,1,8,0:0:0:0:
364,368,47569,1,2,0:0:0:0:
440,340,47685,2,0,B|444:300|444:300|436:272|436:272|440:228,1,101.250003862381,2|0,0:1|0:0,0:0:0:0:
438,240,47916,6,0,P|388:248|324:192,1,135.000005149842,2|0,1:0|0:0,0:0:0:0:
326,198,48377,2,0,L|236:204,1,67.5000025749208,8|2,0:0|0:0,0:0:0:0:
184,176,48608,2,0,L|93:181,1,67.5000025749208,2|2,0:0|0:0,0:0:0:0:
40,152,48839,54,0,P|40:80|84:24,1,135.000005149842,2|0,1:0|0:0,0:0:0:0:
248,72,49300,2,0,L|240:124,1,45.0000017166138,8|0,3:0|0:0,0:0:0:0:
264,68,49454,2,0,L|256:116,1,45.0000017166138,8|0,3:0|0:0,0:0:0:0:
280,64,49608,2,0,L|272:120,1,45.0000017166138,8|0,3:0|0:0,0:0:0:0:
296,60,49762,6,0,P|360:76|428:40,1,135.000005149842,0|12,2:1|0:0,0:0:0:0:
476,140,50454,53,0,0:0:0:0:
408,224,50685,2,0,L|308:216,1,90,0|0,3:0|0:0,0:0:0:0:
468,304,51146,1,8,0:0:0:0:
208,356,51377,2,0,L|388:372,1,180,2|2,0:0|0:0,0:0:0:0:
468,304,52069,1,8,0:0:0:0:
408,224,52300,2,0,P|396:184|408:128,1,90,2|0,0:0|3:0,0:0:0:0:
304,32,52762,1,2,0:0:0:0:
304,32,52877,1,0,0:0:0:0:
304,32,52992,2,0,P|311:75|299:118,1,90,12|0,0:0|0:0,0:0:0:0:
299,119,53454,22,0,L|152:113,1,135.000005149842,2|0,1:0|0:0,0:0:0:0:
164,113,53916,2,0,P|160:149|172:197,1,67.5000025749208,8|2,0:0|0:0,0:0:0:0:
208,248,54146,2,0,P|213:281|208:314,1,67.5000025749208,2|2,0:0|0:0,0:0:0:0:
152,372,54377,38,0,L|300:368,1,135.000005149842,2|0,1:0|0:0,0:0:0:0:
287,368,54839,1,8,0:0:0:0:
360,332,54954,1,2,0:0:0:0:
436,364,55069,2,0,P|440:312|400:256,1,101.250003862381,2|0,0:1|0:0,0:0:0:0:
417,270,55300,86,0,P|392:204|416:144,1,135.000005149842,2|0,1:0|0:0,0:0:0:0:
414,146,55762,2,0,P|377:140|345:116,1,67.5000025749208,12|2,0:0|0:0,0:0:0:0:
300,64,55992,2,0,L|216:72,1,67.5000025749208,2|2,0:0|0:0,0:0:0:0:
172,124,56223,70,0,P|100:136|48:92,1,135.000005149842,2|0,1:0|0:0,0:0:0:0:
53,101,56685,1,12,0:0:0:0:
12,172,56800,1,2,0:0:0:0:
20,252,56916,1,2,0:0:0:0:
72,316,57031,1,0,0:0:0:0:
152,332,57146,69,12,0:0:0:0:
172,124,57377,1,0,0:0:0:0:
232,288,57608,1,12,0:0:0:0:
96,172,57839,1,0,0:0:0:0:
308,248,58069,1,12,0:0:0:0:
152,332,58300,1,2,0:0:0:0:
152,332,58416,1,2,0:0:0:0:
152,332,58531,1,12,0:0:0:0:
240,180,58762,1,0,0:0:0:0:
312,340,58992,6,0,L|416:348,1,90,12|0,0:0|0:0,0:0:0:0:
500,304,59454,1,12,0:0:0:0:
412,240,59685,1,0,0:0:0:0:
506,108,59916,2,0,P|517:151|512:196,1,90,12|0,0:0|0:0,0:0:0:0:
412,240,60377,2,0,L|312:232,1,90,12|0,0:0|0:0,0:0:0:0:
224,324,60839,70,0,P|138:333|84:265,1,180,2|8,0:0|3:2,0:0:0:0:
120,188,61454,2,0,L|192:176,1,60,8|8,3:2|3:2,0:0:0:0:
60,124,61762,2,0,L|-12:112,2,60,8|8|8,3:2|3:2|3:2,0:0:0:0:
128,76,62223,2,0,L|200:64,2,60,8|8|8,3:2|3:2|3:2,0:0:0:0:
120,188,62685,6,0,L|104:344,1,135,8|0,3:2|3:0,0:0:0:0:
176,360,63146,1,0,3:0:0:0:
212,352,63262,1,0,3:0:0:0:
248,344,63377,1,0,3:0:0:0:
284,336,63492,1,0,3:0:0:0:
320,328,63608,1,2,0:0:0:0:
368,208,63839,1,0,0:0:0:0:
472,284,64069,2,0,P|496:228|480:148,1,135,2|0,0:0|0:0,0:0:0:0:
464,124,64531,6,0,P|456:80|468:28,1,90,4|0,0:0|0:0,0:0:0:0:
360,60,64992,2,0,P|272:80|200:28,1,180,8|0,0:0|0:0,0:0:0:0:
112,92,65685,1,0,0:0:0:0:
16,44,65916,2,0,P|4:84|16:136,1,90,8|0,0:0|0:0,0:0:0:0:
72,224,66377,70,0,P|81:267|69:310,1,90
164,364,66839,2,0,L|264:352,1,90,8|0,0:0|0:0,0:0:0:0:
344,296,67300,1,0,0:0:0:0:
241,158,67531,2,0,P|235:202|252:244,2,90,2|8|2,0:0|0:0|0:0,0:0:0:0:
328,92,68223,6,0,L|444:84,1,90
242,158,68685,2,0,P|178:174|88:104,1,180,8|0,0:0|0:0,0:0:0:0:
188,68,69377,1,2,0:0:0:0:
242,157,69608,2,0,L|238:265,1,90,8|2,0:0|0:0,0:0:0:0:
364,320,70069,6,0,L|368:212,2,90,0|0|8,0:0|0:0|0:0,0:0:0:0:
272,376,70762,1,0,0:0:0:0:
180,324,70992,2,0,P|132:320|88:336,1,90
16,220,71454,2,0,P|64:224|108:208,1,90,8|0,0:0|0:0,0:0:0:0:
103,210,71800,1,0,0:0:0:0:
103,210,71916,70,0,L|92:112,1,90
216,60,72377,2,0,L|227:158,1,90,8|0,0:0|0:0,0:0:0:0:
316,208,72839,1,0,0:0:0:0:
420,184,73069,1,2,0:0:0:0:
304,320,73300,1,8,0:0:0:0:
408,296,73531,1,2,0:0:0:0:
224,252,73762,6,0,L|124:260,1,90
8,348,74223,2,0,P|56:348|104:320,1,90,8|0,0:0|0:0,0:0:0:0:
160,184,74685,2,0,P|112:184|64:212,1,90,0|2,0:0|0:0,0:0:0:0:
8,348,75146,1,8,0:0:0:0:
93,329,75377,1,2,0:0:0:0:
160,184,75608,6,0,L|172:88,1,90
228,236,76069,2,0,P|192:264|128:260,1,90,8|0,0:0|0:0,0:0:0:0:
68,196,76531,1,0,0:0:0:0:
144,100,76762,1,2,0:0:0:0:
228,236,76992,1,8,0:0:0:0:
68,196,77223,1,2,0:0:0:0:
232,144,77454,70,0,B|280:132|320:152|320:152|360:172|408:160,1,180,0|8,0:0|0:0,0:0:0:0:
418,7,78146,1,0,0:0:0:0:
418,7,78262,1,0,0:0:0:0:
418,7,78377,2,0,P|385:37|372:80,1,90
486,210,78839,1,8,0:0:0:0:
499,179,78954,1,2,0:0:0:0:
500,145,79069,1,2,0:0:0:0:
489,113,79185,1,2,0:0:0:0:
467,87,79300,21,4,0:0:0:0:
486,210,79531,1,2,0:0:0:0:
324,160,79762,2,0,L|424:156,1,90,8|2,0:0|0:0,0:0:0:0:
228,204,80223,2,0,L|128:200,1,90,0|2,0:0|0:0,0:0:0:0:
56,132,80685,1,8,0:0:0:0:
96,292,80916,69,2,0:0:0:0:
96,292,81031,1,0,0:0:0:0:
96,292,81146,2,0,P|100:336|88:384,1,90,0|2,0:0|0:0,0:0:0:0:
139,200,81608,2,0,P|164:163|204:134,1,90,8|2,0:0|0:0,0:0:0:0:
200,136,81954,1,0,0:0:0:0:
200,136,82069,1,0,0:0:0:0:
196,280,82300,1,2,0:0:0:0:
44,212,82531,1,8,0:0:0:0:
200,136,82762,1,2,0:0:0:0:
393,205,82992,6,0,L|304:212,1,90,0|2,0:0|0:0,0:0:0:0:
268,344,83454,2,0,L|357:350,1,90,8|2,0:0|0:0,0:0:0:0:
357,350,83800,1,0,0:0:0:0:
357,350,83916,1,0,0:0:0:0:
304,212,84146,1,2,0:0:0:0:
268,344,84377,1,8,0:0:0:0:
393,206,84608,1,2,0:0:0:0:
218,178,84839,6,0,P|214:223|232:264,1,90,0|2,0:0|0:0,0:0:0:0:
393,206,85300,2,0,P|379:163|346:133,1,90,8|2,0:0|0:0,0:0:0:0:
346,133,85646,1,0,0:0:0:0:
346,133,85762,2,0,L|451:125,1,90,2|0,0:0|0:0,0:0:0:0:
392,20,86223,2,0,L|287:28,1,90,10|0,0:0|0:0,0:0:0:0:
220,180,86685,69,2,0:0:0:0:
144,104,86916,2,0,P|144:56|160:16,2,90,2|8|2,0:0|0:0|0:0,0:0:0:0:
220,180,87608,1,0,0:0:0:0:
248,76,87839,1,2,0:0:0:0:
116,212,88069,1,8,0:0:0:0:
328,148,88300,1,2,0:0:0:0:
144,104,88531,5,0,0:0:0:0:
300,240,88762,1,2,0:0:0:0:
248,76,88992,1,8,0:0:0:0:
200,272,89223,1,2,0:0:0:0:
200,272,89339,1,0,0:0:0:0:
200,272,89454,2,0,P|224:312|264:336,1,90
220,180,89916,1,8,0:0:0:0:
108,312,90146,1,2,0:0:0:0:
300,240,90377,5,0,0:0:0:0:
327,233,90492,1,0,0:0:0:0:
355,233,90607,1,2,0:0:0:0:
382,241,90723,1,0,0:0:0:0:
406,254,90838,1,8,0:0:0:0:
427,274,90953,1,0,0:0:0:0:
442,297,91069,1,2,0:0:0:0:
450,324,91184,1,0,0:0:0:0:
452,352,91300,69,0,0:0:0:0:
424,365,91415,1,0,0:0:0:0:
395,371,91530,1,2,0:0:0:0:
364,369,91646,1,0,0:0:0:0:
336,360,91761,1,8,0:0:0:0:
307,351,91876,1,0,0:0:0:0:
277,349,91992,1,2,0:0:0:0:
247,355,92107,1,0,0:0:0:0:
220,368,92223,21,0,0:0:0:0:
182,379,92338,1,0,0:0:0:0:
143,377,92453,1,2,0:0:0:0:
107,361,92569,1,0,0:0:0:0:
80,333,92684,1,8,0:0:0:0:
64,297,92799,1,0,0:0:0:0:
61,258,92915,1,2,0:0:0:0:
73,221,93030,1,0,0:0:0:0:
97,190,93146,86,0,L|164:200,1,45
216,248,93377,2,0,L|260:241,1,45,0|0,0:0|0:0,0:0:0:0:
336,200,93608,1,8,0:0:0:0:
384,192,93724,1,0,0:0:0:0:
428,216,93839,1,0,0:0:0:0:
448,260,93955,1,0,0:0:0:0:
440,308,94069,1,4,0:0:0:0:
440,308,96607,6,0,P|352:328|348:124,1,360,2|2,0:0|0:0,0:0:0:0:
336,128,98563,1,2,0:0:0:0:
240,148,98872,1,2,0:0:0:0:
156,96,99181,70,0,B|132:140|148:184|148:184|164:228|140:272,1,180,2|2,0:0|0:0,0:0:0:0:
141,269,100485,2,0,P|192:308|300:276,1,180,0|2,0:0|0:0,0:0:0:0:
364,204,101452,1,2,0:0:0:0:
384,304,101775,6,0,P|304:288|264:196,1,180,2|2,0:0|0:0,0:0:0:0:
312,120,102764,1,2,0:0:0:0:
232,64,103093,2,0,B|184:64|184:64|148:96|88:96|52:48,1,180,2|2,0:0|0:0,0:0:0:0:
64,61,104426,6,0,P|77:119|57:208,1,150,0|2,0:0|0:0,0:0:0:0:
36,232,105093,2,0,L|200:212,1,150,0|2,0:0|0:0,0:0:0:0:
216,208,105759,2,0,P|196:256|244:372,1,180,0|2,0:0|0:0,0:0:0:0:
240,369,107122,70,0,P|363:360|316:168,1,360,2|2,0:0|0:0,0:0:0:0:
334,173,109100,1,2,0:0:0:0:
256,236,109429,1,2,0:0:0:0:
177,173,109759,22,0,P|156:220|216:328,1,180,2|2,0:0|0:0,0:0:0:0:
211,325,111022,2,0,B|132:316|132:316|92:356|36:344,1,180,0|2,0:0|0:0,0:0:0:0:
60,248,112022,1,2,0:0:0:0:
28,148,112364,86,0,B|80:136|116:160|116:160|152:184|201:172,1,180,2|2,0:0|0:0,0:0:0:0:
280,116,113355,1,2,0:0:0:0:
384,188,113702,2,0,P|392:272|368:376,1,180,2|2,0:0|0:0,0:0:0:0:
372,365,115295,85,2,0:0:0:0:
256,192,115480,12,0,119484,0:0:0:0:
352,92,119920,6,0,P|360:136|340:188,1,90,0|0,1:0|0:0,0:0:0:0:
224,124,120381,2,0,P|216:80|236:28,1,90,0|0,1:0|0:0,0:0:0:0:
352,92,120843,2,0,L|452:84,1,90,0|0,1:0|0:0,0:0:0:0:
508,196,121304,2,0,L|408:204,1,90,0|0,1:0|0:0,0:0:0:0:
320,280,121766,6,0,P|308:328|324:392,1,90,0|0,1:0|0:0,0:0:0:0:
184,312,122227,2,0,P|196:264|180:200,1,90,0|0,1:0|0:0,0:0:0:0:
128,112,122689,2,0,L|232:104,1,90,0|0,1:0|0:0,0:0:0:0:
280,60,123035,1,0,1:0:0:0:
280,60,123150,2,0,L|272:16,1,45,0|0,1:0|0:0,0:0:0:0:
352,24,123381,2,0,L|360:68,1,45,0|0,1:0|0:0,0:0:0:0:
316,132,123612,69,2,1:2:0:0:
436,44,123843,1,0,0:0:0:0:
316,132,124073,2,0,P|300:192|328:272,1,135,2|0,1:2|0:0,0:0:0:0:
344,284,124535,2,0,L|244:276,1,90,2|0,1:2|0:0,0:0:0:0:
25,320,124996,6,0,L|160:332,1,135,2|0,1:2|0:0,0:0:0:0:
176,352,125458,2,0,P|152:316|148:264,1,90,2|0,1:2|0:0,0:0:0:0:
219,63,125920,6,0,P|240:126|227:191,1,135,2|0,1:2|0:0,0:0:0:0:
204,212,126381,2,0,L|312:204,1,90,2|0,1:2|0:0,0:0:0:0:
364,240,126727,1,0,1:0:0:0:
364,240,126843,2,0,L|372:292,1,45
448,296,127073,2,0,L|440:244,1,45,0|0,1:0|0:0,0:0:0:0:
416,176,127304,70,0,P|464:176|508:208,1,90,6|0,1:2|0:0,0:0:0:0:
396,360,127766,2,0,P|348:360|304:328,1,90,2|0,1:2|0:0,0:0:0:0:
236,232,128227,2,0,L|224:336,1,90,0|0,1:2|0:0,0:0:0:0:
152,212,128689,22,0,L|144:132,2,60,4|8|8,3:0|3:0|3:0,0:0:0:0:
92,276,129150,69,6,1:2:0:0:
236,232,129381,1,0,0:0:0:0:
110,88,129612,2,0,P|154:79|196:96,1,90,2|0,1:2|0:0,0:0:0:0:
321,224,130073,2,0,P|279:240|236:232,1,90,0|0,1:2|0:0,0:0:0:0:
400,148,130535,54,0,L|412:304,1,135.000005149842,0|0,0:0|1:0,0:0:0:0:
328,364,131227,69,0,0:0:0:0:
220,316,131458,2,0,P|168:304|128:316,1,90,2|2,1:2|1:2,0:0:0:0:
304,272,131920,85,2,1:2:0:0:
176,384,132150,1,0,0:0:0:0:
304,272,132381,2,0,P|300:228|272:184,1,90,2|2,1:2|1:2,0:0:0:0:
128,148,132843,86,0,L|40:156,2,60,0|0|2,0:0|0:0|0:0,0:0:0:0:
204,100,133304,38,0,L|288:108,2,71.9999978027344,2|0|0,0:0|0:0|0:0,0:0:0:0:
124,64,133766,38,0,L|112:-4,1,67.5000025749208,2|2,0:0|0:0,0:0:0:0:
128,148,133996,2,0,L|116:216,1,67.5000025749208,2|2,0:0|0:0,0:0:0:0:
204,100,134227,2,0,L|352:112,1,135.000005149842,8|0,0:0|0:0,0:0:0:0:
460,360,134689,86,0,P|364:312|384:232,1,202.500007724762,2|0,1:0|0:0,0:0:0:0:
452,192,135150,2,0,L|308:184,1,135.000005149842,0|0,0:0|1:0,0:0:0:0:
159,244,135612,2,0,P|151:268|151:316,1,67.5000025749208,8|0,1:2|0:0,0:0:0:0:
236,200,135843,2,0,P|236:166|226:134,1,67.5000025749208,0|0,0:0|0:0,0:0:0:0:
159,92,136073,2,0,P|219:100|283:64,1,135.000005149842,2|0,1:2|0:0,0:0:0:0:
458,58,136535,70,0,P|371:104|282:64,1,202.500007724762,2|0,1:0|0:0,0:0:0:0:
208,16,136996,2,0,P|148:8|84:44,1,135.000005149842,0|0,0:0|1:0,0:0:0:0:
60,216,137458,2,0,L|68:288,1,67.5000025749208,8|0,1:2|0:0,0:0:0:0:
144,360,137689,2,0,L|151:292,1,67.5000025749208,0|0,0:0|0:0,0:0:0:0:
228,248,137920,2,0,P|296:248|348:192,1,135.000005149842,2|0,1:2|0:0,0:0:0:0:
376,32,138381,37,2,1:0:0:0:
264,168,138612,1,0,0:0:0:0:
431,338,138843,2,0,P|448:273|436:208,1,135.000005149842,2|0,1:0|0:0,0:0:0:0:
264,168,139304,85,2,1:0:0:0:
432,339,139535,1,0,0:0:0:0:
512,116,139766,1,0,1:0:0:0:
512,116,140227,70,0,P|420:152|340:80,1,202.500007724762,2|0,1:0|0:0,0:0:0:0:
396,32,140689,2,0,L|260:48,1,135.000005149842,2|0,1:0|0:0,0:0:0:0:
120,80,141150,38,0,L|20:68,2,90.0000034332277,8|0|0,1:2|0:0|0:0,0:0:0:0:
208,144,141612,2,0,P|224:188|220:248,1,90.0000034332277,2|0,1:2|0:0,0:0:0:0:
180,328,141920,1,0,0:0:0:0:
324,360,142073,86,0,P|424:340|456:248,1,202.500007724762,2|0,0:0|0:0,0:0:0:0:
396,184,142535,2,0,P|296:204|264:296,1,202.500007724762,0|0,0:0|0:0,0:0:0:0:
324,360,142996,2,0,L|392:364,1,67.5000025749208,2|2,0:0|0:0,0:0:0:0:
263,290,143227,2,0,L|195:294,1,67.5000025749208,2|2,0:0|0:0,0:0:0:0:
348,272,143458,2,0,B|416:276|416:276|452:268|476:232,1,135.000005149842,0|0,0:0|0:0,0:0:0:0:
456,35,143920,70,0,P|377:89|395:183,1,202.500007724762,2|0,1:0|0:0,0:0:0:0:
470,239,144381,2,0,P|491:295|464:364,1,135.000005149842,0|0,0:0|1:0,0:0:0:0:
264,291,144843,2,0,L|184:288,1,67.5000025749208,8|0,1:2|0:0,0:0:0:0:
168,196,145073,2,0,L|248:199,1,67.5000025749208
136,112,145304,2,0,P|96:144|88:232,1,135.000005149842,2|0,1:2|0:0,0:0:0:0:
264,292,145766,38,0,L|376:288,2,90.0000034332277,0|2|2,0:0|0:0|0:0,0:0:0:0:
167,196,146227,2,0,L|55:192,2,90.0000034332277,0|2|2,0:0|0:0|0:0,0:0:0:0:
292,120,146689,86,0,L|412:116,2,102.000001945496,8|2|2,1:0|0:0|0:0,0:0:0:0:
195,24,147150,2,0,L|80:20,2,102.000001945496,0|2|2,0:0|0:0|0:0,0:0:0:0:
292,120,147612,69,0,0:0:0:0:
456,44,147843,1,2,0:0:0:0:
440,224,148073,2,0,P|436:272|472:360,1,135,2|2,0:0|0:0,0:0:0:0:
465,352,148535,2,0,P|383:366|308:316,1,180,0|0,1:0|1:0,0:0:0:0:
307,314,149458,38,0,L|164:321,1,135,2|0,1:0|0:0,0:0:0:0:
172,320,149920,2,0,P|184:293|185:253,1,67.5000025749208,8|2,0:0|0:0,0:0:0:0:
180,176,150150,2,0,P|172:144|148:112,1,67.5000025749208,2|2,0:0|0:0,0:0:0:0:
84,72,150381,86,0,L|236:64,1,135.000005149842,2|0,1:0|0:0,0:0:0:0:
219,65,150843,1,8,0:0:0:0:
296,92,150958,1,2,0:0:0:0:
372,120,151073,2,0,P|384:164|376:236,1,101.250003862381,2|0,0:1|0:0,0:0:0:0:
381,220,151304,70,0,L|241:209,1,135.000005149842,2|0,1:0|0:0,0:0:0:0:
246,210,151766,2,0,P|240:246|248:290,1,67.5000025749208,8|2,0:0|0:0,0:0:0:0:
296,336,151996,2,0,L|368:332,1,67.5000025749208,2|2,0:0|0:0,0:0:0:0:
224,372,152227,38,0,L|88:368,1,135.000005149842,2|0,1:0|0:0,0:0:0:0:
89,368,152689,1,8,0:0:0:0:
48,300,152804,1,2,0:0:0:0:
48,220,152920,1,2,0:0:0:0:
100,160,153035,1,0,0:0:0:0:
176,136,153150,70,0,L|328:128,1,135.000005149842,2|8,0:0|0:0,0:0:0:0:
380,212,153843,37,0,0:0:0:0:
296,276,154073,2,0,P|280:320|288:376,1,90,0|0,3:0|0:0,0:0:0:0:
380,212,154535,1,8,0:0:0:0:
456,288,154766,2,0,P|484:232|436:120,1,180,2|2,0:0|0:0,0:0:0:0:
348,80,155458,1,8,0:0:0:0:
252,132,155689,2,0,P|208:136|164:124,1,90,2|0,0:0|3:0,0:0:0:0:
20,228,156150,1,2,0:0:0:0:
20,228,156266,1,0,0:0:0:0:
20,228,156381,2,0,P|64:224|108:236,1,90,8|0,0:0|0:0,0:0:0:0:
108,235,156843,38,0,L|121:376,1,135,2|0,1:0|0:0,0:0:0:0:
120,370,157304,2,0,P|153:372|201:360,1,67.5000025749208,8|2,0:0|0:0,0:0:0:0:
260,328,157535,2,0,L|326:336,1,67.5000025749208,2|2,0:0|0:0,0:0:0:0:
400,300,157766,22,0,P|424:244|404:164,1,135.000005149842,2|0,1:0|0:0,0:0:0:0:
410,173,158227,1,8,0:0:0:0:
332,196,158343,1,2,0:0:0:0:
260,164,158458,2,0,B|220:160|220:160|200:164|200:164|152:160,1,101.250003862381,2|0,0:1|0:0,0:0:0:0:
159,160,158689,6,0,L|168:308,1,135.000005149842,2|0,1:0|0:0,0:0:0:0:
167,295,159150,2,0,P|132:292|92:300,1,67.5000025749208,8|2,0:0|0:0,0:0:0:0:
236,348,159381,2,0,P|271:351|311:343,1,67.5000025749208,2|2,0:0|0:0,0:0:0:0:
380,304,159612,54,0,B|384:256|384:256|412:228|412:228|416:176,1,135.000005149842,2|0,1:0|0:0,0:0:0:0:
416,181,160074,1,8,0:0:0:0:
360,124,160189,1,2,0:0:0:0:
280,108,160304,1,2,0:0:0:0:
200,124,160420,1,0,0:0:0:0:
136,180,160535,6,0,L|148:320,1,135.000005149842,2|8,0:0|0:0,0:0:0:0:
240,368,161227,69,0,0:0:0:0:
324,300,161458,2,0,P|356:296|420:320,1,90,0|0,3:0|0:0,0:0:0:0:
240,368,161920,1,8,0:0:0:0:
426,154,162150,2,0,P|453:237|410:313,1,180,2|2,0:0|0:0,0:0:0:0:
240,368,162843,1,8,0:0:0:0:
112,248,163073,2,0,P|108:200|128:152,1,90,2|0,0:0|3:0,0:0:0:0:
301,96,163535,1,2,0:0:0:0:
301,96,163650,1,0,0:0:0:0:
301,96,163766,2,0,L|212:104,1,90,8|0,0:0|0:0,0:0:0:0:
212,104,164227,6,0,P|212:172|248:240,1,135.000005149842,2|0,1:0|0:0,0:0:0:0:
241,231,164689,2,0,L|321:224,1,67.5000025749208,8|2,0:0|0:0,0:0:0:0:
388,248,164920,2,0,L|467:240,1,67.5000025749208,2|2,0:0|0:0,0:0:0:0:
472,320,165150,38,0,L|332:332,1,135.000005149842,2|0,1:0|0:0,0:0:0:0:
337,331,165612,1,8,0:0:0:0:
260,356,165727,1,2,0:0:0:0:
180,336,165843,2,0,P|148:312|120:244,1,101.250003862381,2|0,0:1|0:0,0:0:0:0:
121,257,166073,86,0,B|56:268|56:268|16:260|0:216,1,135.000005149842,2|0,1:0|0:0,0:0:0:0:
4,226,166535,2,0,P|16:192|16:152,1,67.5000025749208,8|2,0:0|0:0,0:0:0:0:
4,80,166766,2,0,L|84:68,1,67.5000025749208,2|2,0:0|0:0,0:0:0:0:
144,104,166996,70,0,P|188:120|272:88,1,135.000005149842,2|0,1:0|0:0,0:0:0:0:
424,40,167458,2,0,L|364:32,1,45.0000017166138,8|0,3:0|0:0,0:0:0:0:
428,56,167612,2,0,L|372:48,1,45.0000017166138,8|0,3:0|0:0,0:0:0:0:
432,72,167766,2,0,L|372:64,1,45.0000017166138,8|0,3:0|0:0,3:0:0:0:
436,88,167920,6,0,P|436:160|400:216,1,135.000005149842,2|8,0:0|0:0,0:0:0:0:
296,228,168612,53,0,0:0:0:0:
200,176,168843,2,0,P|184:224|196:276,1,90,0|0,3:0|0:0,0:0:0:0:
268,336,169304,1,8,0:0:0:0:
288,128,169535,2,0,P|252:92|128:104,1,180,2|2,0:0|0:0,0:0:0:0:
200,176,170227,1,8,0:0:0:0:
384,152,170458,2,0,L|492:140,1,90,2|0,0:0|3:0,0:0:0:0:
448,288,170920,1,2,0:0:0:0:
448,288,171035,1,0,0:0:0:0:
448,288,171150,2,0,L|358:297,1,90,8|0,0:0|0:0,0:0:0:0:
358,297,171612,22,0,B|304:296|304:296|276:308|276:308|204:304,1,135.000005149842,2|0,1:0|0:0,0:0:0:0:
226,305,172073,2,0,L|232:372,1,67.5000025749208,8|2,0:0|0:0,0:0:0:0:
172,252,172304,2,0,L|177:185,1,67.5000025749208,2|2,0:0|0:0,0:0:0:0:
108,296,172535,22,0,P|48:288|0:216,1,135.000005149842,2|0,1:0|0:0,0:0:0:0:
3,232,172996,1,8,0:0:0:0:
40,160,173112,1,2,0:0:0:0:
88,96,173227,2,0,L|216:92,1,101.250003862381,2|0,0:1|0:0,0:0:0:0:
189,92,173458,6,0,P|256:112|316:72,1,135.000005149842,2|0,1:0|0:0,0:0:0:0:
309,81,173920,2,0,L|320:160,1,67.5000025749208,8|2,0:0|0:0,0:0:0:0:
376,204,174150,2,0,L|367:270,1,67.5000025749208,2|2,0:0|0:0,0:0:0:0:
412,340,174381,54,0,B|352:320|352:320|280:324,1,135.000005149842,2|0,1:0|0:0,0:0:0:0:
280,323,174843,1,8,0:0:0:0:
200,344,174958,1,2,0:0:0:0:
140,292,175073,1,2,0:0:0:0:
180,220,175189,1,0,0:0:0:0:
144,148,175304,53,2,0:0:0:0:
280,323,175535,1,0,0:0:0:0:
96,220,175766,1,8,0:0:0:0:
332,256,175996,1,0,0:0:0:0:
120,372,176227,1,2,0:0:0:0:
144,148,176458,1,2,0:0:0:0:
144,148,176573,1,2,0:0:0:0:
144,148,176689,1,8,0:0:0:0:
280,323,176920,1,0,0:0:0:0:
420,152,177150,6,0,L|328:136,1,90,2|0,0:0|0:0,0:0:0:0:
331,136,177496,1,0,0:0:0:0:
332,136,177612,2,0,P|324:92|336:48,1,90,8|0,0:0|0:0,0:0:0:0:
504,112,178073,2,0,P|512:156|500:200,1,90,2|0,0:0|0:0,0:0:0:0:
318,249,178535,2,0,L|408:256,1,90,8|0,0:0|0:0,0:0:0:0:
304,336,178996,86,0,P|252:304|252:192,1,180,2|0,0:0|1:0,0:0:0:0:
260,184,179689,1,0,1:0:0:0:
268,176,179920,1,0,1:0:0:0:
276,168,180150,1,0,1:0:0:0:
284,160,180381,1,0,1:0:0:0:
292,152,180612,1,0,1:0:0:0:
300,144,180843,5,4,1:2:0:0:
