osu file format v13

[General]
AudioFilename: Rameses B - Flaklypa.mp3
AudioLeadIn: 0
PreviewTime: 15574
Countdown: 1
SampleSet: Soft
StackLeniency: 0.7
Mode: 0
LetterboxInBreaks: 1
WidescreenStoryboard: 1

[Editor]
DistanceSpacing: 0.5
BeatDivisor: 4
GridSize: 4
TimelineZoom: 1

[Metadata]
Title:Flaklypa
TitleUnicode:Flåklypa
Artist:Rameses B
ArtistUnicode:Rameses B
Creator:-kevincela-
Version:Hard
Source:
Tags:
BeatmapID:453357
BeatmapSetID:190390

[Difficulty]
HPDrainRate:5
CircleSize:4
OverallDifficulty:6
ApproachRate:8
SliderMultiplier:1.5
SliderTickRate:1

[Events]
//Background and Video events
0,0,"Rameses B - Russ EP (Free) - cover.jpg",0,0
//Break Periods
//Storyboard Layer 0 (Background)
//Storyboard Layer 1 (Fail)
//Storyboard Layer 2 (Pass)
//Storyboard Layer 3 (Foreground)
//Storyboard Sound Samples
//Background Colour Transformations
3,100,163,162,255

[TimingPoints]
-84,461.538461538462,4,2,0,70,1,0
15146,-90.9090909090909,4,2,0,70,0,0
15608,-83.3333333333333,4,1,0,50,0,0
16531,-83.3333333333333,4,2,0,70,0,1
28531,-76.9230769230769,4,2,0,70,0,1
29467,-83.3333333333333,4,2,0,70,0,1
31300,-83.3333333333333,4,2,0,70,0,0
31992,-83.3333333333333,4,2,0,60,0,0
32223,-83.3333333333333,4,2,0,70,0,0
32916,-83.3333333333333,4,2,0,50,0,0
33146,-83.3333333333333,4,2,0,70,0,0
33839,-83.3333333333333,4,2,0,60,0,0
34069,-83.3333333333333,4,2,0,70,0,0
34992,-133.333333333333,4,2,0,40,0,0
35454,-100,4,2,0,70,0,0
38685,-83.3333333333333,4,2,0,70,0,0
39377,-83.3333333333333,4,2,0,60,0,0
39608,-83.3333333333333,4,2,0,70,0,0
40300,-83.3333333333333,4,2,0,50,0,0
40531,-83.3333333333333,4,2,0,70,0,0
41223,-83.3333333333333,4,2,0,60,0,0
41454,-83.3333333333333,4,2,0,70,0,0
42377,-133.333333333333,4,2,0,40,0,0
42839,-100,4,2,0,70,0,0
46069,-83.3333333333333,4,2,0,70,0,0
46762,-83.3333333333333,4,2,0,60,0,0
46992,-83.3333333333333,4,2,0,70,0,0
47685,-83.3333333333333,4,2,0,50,0,0
47916,-83.3333333333333,4,2,0,70,0,0
48492,-83.3333333333333,4,2,0,60,0,0
49762,-133.333333333333,4,2,0,40,0,0
50223,-100,4,2,0,70,0,0
53454,-83.3333333333333,4,2,0,70,0,0
54146,-83.3333333333333,4,2,0,60,0,0
54377,-83.3333333333333,4,2,0,70,0,0
55069,-83.3333333333333,4,2,0,50,0,0
55300,-83.3333333333333,4,2,0,70,0,0
55992,-83.3333333333333,4,2,0,60,0,0
56223,-83.3333333333333,4,2,0,70,0,0
57146,-100,4,2,0,70,0,0
64531,-100,4,2,0,70,0,0
94069,468.75,4,2,0,70,1,0
96607,652.173913043478,4,2,0,55,1,0
98563,618.556701030928,4,2,0,55,1,0
99181,659.340659340659,4,2,0,55,1,0
99840,645.161290322581,4,2,0,55,1,0
101775,659.340659340659,4,2,0,55,1,0
103093,666.666666666667,4,2,0,55,1,0
105759,681.818181818182,4,2,0,55,1,0
107122,659.340659340659,4,2,0,55,1,0
109759,631.578947368421,4,2,0,55,1,0
111022,659.340659340659,4,2,0,55,1,0
111681,683.760683760684,4,2,0,55,1,0
112364,645.161290322581,4,2,0,55,1,0
113009,693.64161849711,4,2,0,55,1,0
113702,736.196319018405,4,2,0,55,1,0
114438,857.142857142857,4,2,0,55,1,0
115295,740.740740740741,4,2,0,55,1,0
116035,766.773162939297,4,2,0,55,1,0
116801,722.89156626506,4,2,0,55,1,0
117523,923.076923076923,4,2,0,55,1,0
117984,1000,4,2,0,55,1,0
119920,461.538461538462,4,2,0,70,1,0
130535,-133.333333333333,4,2,0,70,0,0
130996,-100,4,2,0,70,0,0
133304,-90.9090909090909,4,2,0,70,0,0
133766,-83.3333333333333,4,2,0,70,0,0
134227,-83.3333333333333,4,2,0,70,0,0
134689,-83.3333333333333,4,2,0,70,0,1
146689,-76.9230769230769,4,2,0,70,0,1
147612,-100,4,2,0,70,0,1
149458,-83.3333333333333,4,2,0,70,0,0
150150,-83.3333333333333,4,2,0,60,0,0
150381,-83.3333333333333,4,2,0,70,0,0
151073,-83.3333333333333,4,2,0,50,0,0
151304,-83.3333333333333,4,2,0,70,0,0
151996,-83.3333333333333,4,2,0,60,0,0
152227,-83.3333333333333,4,2,0,70,0,0
153150,-133.333333333333,4,2,0,40,0,0
153612,-100,4,2,0,70,0,0
156843,-83.3333333333333,4,2,0,70,0,0
157535,-83.3333333333333,4,2,0,60,0,0
157766,-83.3333333333333,4,2,0,70,0,0
158458,-83.3333333333333,4,2,0,50,0,0
158689,-83.3333333333333,4,2,0,70,0,0
159381,-83.3333333333333,4,2,0,60,0,0
159612,-83.3333333333333,4,2,0,60,0,0
160535,-133.333333333333,4,2,0,70,0,0
160996,-100,4,2,0,70,0,0
164227,-83.3333333333333,4,2,0,70,0,0
164920,-83.3333333333333,4,2,0,60,0,0
165150,-83.3333333333333,4,2,0,70,0,0
165843,-83.3333333333333,4,2,0,50,0,0
166073,-83.3333333333333,4,2,0,70,0,0
166766,-83.3333333333333,4,2,0,60,0,0
166996,-83.3333333333333,4,2,0,70,0,0
167920,-133.333333333333,4,2,0,70,0,0
168381,-100,4,2,0,70,0,0
171612,-83.3333333333333,4,2,0,70,0,0
172304,-83.3333333333333,4,2,0,60,0,0
172535,-83.3333333333333,4,2,0,70,0,0
173227,-83.3333333333333,4,2,0,50,0,0
173458,-83.3333333333333,4,2,0,70,0,0
174150,-83.3333333333333,4,2,0,60,0,0
174381,-83.3333333333333,4,2,0,70,0,0
175304,-100,4,2,0,70,0,0
179458,-100,4,2,0,70,0,0
179689,-100,4,2,0,50,0,0
179920,-100,4,2,0,40,0,0
180150,-100,4,2,0,30,0,0
180381,-100,4,2,0,20,0,0
180612,-100,4,2,0,15,0,0

[Colours]
Combo1 : 209,3,226
Combo2 : 125,125,255
Combo3 : 18,124,255
Combo4 : 12,200,233
Combo5 : 239,33,219
Combo6 : 228,228,228
Combo7 : 226,5,160

[HitObjects]
180,112,1762,6,0,P|86:111|32:68,2,150,6|2|2,0:0|0:0|0:0,0:0:0:0:
348,80,3146,2,0,L|356:208,1,112.5,2|0,0:0|0:0,0:0:0:0:
340,220,3608,6,0,P|433:220|496:268,2,150,2|2|2,0:0|0:0|0:0,0:0:0:0:
224,292,4876,1,0,0:0:0:0:
224,292,4992,1,2,0:0:0:0:
140,312,5223,1,2,0:0:0:0:
72,260,5454,6,0,P|48:184|76:92,1,150,2|2,0:0|0:0,0:0:0:0:
188,152,6261,1,0,0:0:0:0:
188,152,6377,2,0,L|364:140,1,150,2|2,0:0|0:0,0:0:0:0:
416,252,7185,1,0,0:0:0:0:
416,252,7301,2,0,L|240:264,1,150,2|2,0:0|0:0,0:0:0:0:
148,316,8108,1,0,0:0:0:0:
148,316,8223,2,0,P|136:272|152:200,1,112.5,2|0,0:0|0:0,0:0:0:0:
172,180,8685,2,0,L|80:172,1,75,2|2,0:0|0:0,0:0:0:0:
108,92,9146,70,0,L|200:100,1,75,4|2,1:0|3:0,0:0:0:0:
256,148,9608,2,0,P|268:108|260:56,1,75,0|2,1:0|3:0,0:0:0:0:
172,180,10069,2,0,P|167:221|179:262,1,75,0|2,1:0|3:0,0:0:0:0:
248,308,10531,2,0,L|384:312,1,112.5,0|0,1:0|0:0,0:0:0:0:
392,328,10992,22,0,P|384:288|396:236,1,75,0|2,1:0|3:0,0:0:0:0:
440,180,11454,2,0,P|447:138|439:97,1,75,0|2,1:0|3:0,0:0:0:0:
376,44,11916,2,0,L|240:44,1,112.5,0|0,1:0|1:0,0:0:0:0:
228,56,12377,1,0,1:0:0:0:
152,96,12608,1,2,3:0:0:0:
72,68,12839,86,0,P|72:124|160:180,1,150,4|0,1:0|1:0,0:0:0:0:
224,152,13531,1,0,1:0:0:0:
304,188,13762,2,0,L|296:360,1,150,0|0,1:0|1:0,0:0:0:0:
376,380,14454,1,0,1:0:0:0:
456,308,14685,6,0,L|530:316,2,50,0|0|2,0:0|0:0|0:0,0:0:0:0:
404,248,15146,6,0,L|332:256,2,55.0000016784668,2|0|0,0:0|0:0|0:0,0:0:0:0:
460,192,15608,22,0,P|468:128|372:40,1,179.999994506836,2|2,0:0|0:0,0:0:0:0:
292,76,16300,1,2,0:0:0:0:
192,36,16531,6,0,P|148:24|96:36,1,89.9999972534181,2|0,1:0|0:0,0:0:0:0:
36,116,16992,2,0,L|44:268,1,134.999995880127,2|0,1:0|0:0,0:0:0:0:
43,250,17454,2,0,P|87:266|135:258,1,89.9999972534181,2|0,1:2|0:0,0:0:0:0:
232,224,17916,2,0,P|276:218|317:234,1,89.9999972534181,8|0,1:2|0:0,0:0:0:0:
368,328,18377,53,2,1:0:0:0:
260,324,18608,1,0,0:0:0:0:
318,234,18839,2,0,P|327:177|305:89,1,134.999995880127,2|0,1:0|0:0,0:0:0:0:
312,102,19300,2,0,L|404:108,1,89.9999972534181,2|0,1:2|0:0,0:0:0:0:
356,12,19762,2,0,L|264:6,1,89.9999972534181,8|0,1:2|0:0,0:0:0:0:
204,92,20223,22,0,P|132:116|40:48,1,179.999994506836,2|2,1:0|1:0,0:0:0:0:
140,8,20916,1,0,0:0:0:0:
204,92,21146,2,0,P|212:144|200:192,1,89.9999972534181,2|0,1:0|0:0,0:0:0:0:
136,264,21608,2,0,L|48:272,2,59.9999981689454,4|8|8,3:0|3:0|3:0,0:0:0:0:
200,296,22069,6,0,P|248:292|288:264,1,89.9999972534181,4|0,1:2|0:0,0:0:0:0:
296,164,22531,2,0,P|248:168|208:196,1,89.9999972534181,4|0,1:2|0:0,0:0:0:0:
283,270,22992,54,0,L|357:277,2,59.9999981689454,4|0|0,1:2|0:0|0:0,0:0:0:0:
232,324,23454,2,0,L|172:332,2,59.9999981689454,4|0|0,1:2|0:0|0:0,0:0:0:0:
296,360,23916,22,0,L|396:372,1,89.9999972534181,2|0,1:0|0:0,0:0:0:0:
468,304,24377,2,0,P|444:252|456:168,1,134.999995880127,2|0,1:0|0:0,0:0:0:0:
452,176,24839,2,0,P|403:177|361:154,1,89.9999972534181,2|0,1:2|0:0,0:0:0:0:
320,64,25300,2,0,L|208:76,1,89.9999972534181,8|0,1:2|0:0,0:0:0:0:
176,168,25762,5,2,1:0:0:0:
112,80,25992,1,0,0:0:0:0:
60,176,26223,2,0,L|72:336,1,134.999995880127,2|0,1:0|0:0,0:0:0:0:
70,311,26685,2,0,P|110:295|160:300,1,89.9999972534181,2|0,1:2|0:0,0:0:0:0:
260,328,27146,2,0,P|304:331|346:315,1,89.9999972534181,8|0,1:2|0:0,0:0:0:0:
380,212,27608,54,0,L|388:144,2,59.9999981689454,0|2|2,0:0|0:0|0:0,0:0:0:0:
312,184,28069,2,0,L|320:116,2,59.9999981689454,0|2|2,0:0|0:0|0:0,0:0:0:0:
240,152,28531,22,0,L|252:68,2,64.9999970245363,0|2|2,0:0|0:0|0:0,0:0:0:0:
168,124,28992,2,0,L|180:48,2,64.9999970245363,0|2|2,0:0|0:0|0:0,0:0:0:0:
112,180,29454,6,0,P|112:228|172:304,1,146.249993305207,4|0,1:0|0:0,0:0:0:0:
170,303,29916,2,0,L|77:309,1,89.9999972534181,0|0,1:0|0:0,0:0:0:0:
248,348,30377,2,0,L|436:336,1,179.999994506836,0|8,1:0|0:0,0:0:0:0:
428,337,31300,54,0,B|429:273|429:273|457:237|457:237|457:165,1,179.999994506836,6|8,1:0|2:0,0:0:0:0:
404,72,31992,1,2,0:0:0:0:
288,132,32223,22,0,P|208:128|144:48,1,179.999994506836,2|8,1:0|0:0,0:0:0:0:
252,28,32916,1,2,0:1:0:0:
376,168,33146,6,0,B|372:256|372:256|368:304|328:336,1,179.999994506836,2|8,1:0|2:0,0:0:0:0:
224,360,33839,1,2,0:0:0:0:
128,276,34069,54,0,P|116:232|124:180,1,89.9999972534181,2|0,1:0|0:0,0:0:0:0:
216,136,34531,2,0,L|276:140,3,44.999998626709,8|2|2|0,2:0|0:0|0:0|0:0,0:0:0:0:
284,164,34992,6,0,L|276:44,1,112.500004291535,2|12,2:0|0:0,0:0:0:0:
360,16,35685,37,0,0:0:0:0:
412,88,35916,2,0,P|416:120|408:172,1,75,0|0,3:0|0:0,0:0:0:0:
380,248,36377,1,8,0:0:0:0:
264,280,36608,6,0,L|96:272,1,150,2|2,0:0|0:0,0:0:0:0:
56,204,37300,1,8,0:0:0:0:
8,128,37531,2,0,P|84:120|140:180,1,150,2|2,0:0|0:0,0:0:0:0:
27,271,38223,2,0,P|34:235|55:203,1,75,12|2,0:0|0:0,0:0:0:0:
220,140,38685,54,0,L|408:144,1,179.999994506836,6|8,1:0|0:0,0:0:0:0:
484,212,39377,1,2,0:0:0:0:
416,328,39608,6,0,P|364:356|256:300,1,179.999994506836,2|8,1:0|0:0,0:0:0:0:
216,212,40300,1,2,0:1:0:0:
308,110,40531,54,0,P|361:180|345:266,1,179.999994506836,2|8,1:0|0:0,0:0:0:0:
260,336,41223,1,2,0:0:0:0:
136,284,41454,22,0,P|114:244|116:192,1,89.9999972534181,2|0,1:0|0:0,0:0:0:0:
172,112,41916,2,0,P|176:88|176:56,3,44.999998626709,8|2|2|0,0:0|0:0|0:0|0:0,0:0:0:0:
152,44,42377,86,0,P|207:53|268:40,1,112.500004291535,2|12,0:2|0:0,0:0:0:0:
348,16,43069,37,0,0:0:0:0:
408,84,43300,2,0,P|415:120|408:176,1,75,0|0,3:0|0:0,0:0:0:0:
380,240,43762,1,8,0:0:0:0:
260,296,43992,22,0,P|192:308|128:256,1,150,2|2,0:0|0:0,0:0:0:0:
212,220,44685,1,8,0:0:0:0:
164,144,44916,2,0,P|232:132|296:184,1,150,2|2,0:0|0:0,0:0:0:0:
212,220,45608,1,12,0:0:0:0:
164,144,45839,1,2,0:0:0:0:
136,276,46069,38,0,P|200:312|296:260,1,179.999994506836,6|8,1:0|0:0,0:0:0:0:
336,172,46762,1,2,0:0:0:0:
268,56,46992,6,0,B|208:52|208:52|148:64|148:64|76:60,1,179.999994506836,2|8,1:0|0:0,0:0:0:0:
4,128,47685,1,2,0:1:0:0:
80,240,47916,54,0,B|172:244|172:244|264:296,1,179.999994506836,2|8,1:0|0:0,0:0:0:0:
336,348,48608,1,2,0:0:0:0:
412,236,48839,22,0,L|404:140,1,89.9999972534181,2|0,1:0|0:0,0:0:0:0:
328,68,49300,2,0,L|324:4,2,59.9999981689454,8|8|8,3:0|3:0|3:0,0:0:0:0:
264,116,49762,86,0,P|204:124|148:100,1,112.500004291535,0|12,2:1|0:0,0:0:0:0:
84,52,50454,53,0,0:0:0:0:
44,132,50685,2,0,P|40:176|52:228,1,75,0|0,3:0|0:0,0:0:0:0:
88,284,51146,1,8,0:0:0:0:
204,220,51377,6,0,P|280:212|344:260,1,150,2|2,0:0|0:0,0:0:0:0:
364,336,52069,1,8,0:0:0:0:
412,192,52300,2,0,B|416:152|404:124|404:124|440:100|440:48,1,150,2|2,0:0|0:0,0:0:0:0:
348,52,52992,2,0,L|256:56,1,75,12|0,0:0|0:0,0:0:0:0:
144,112,53454,38,0,P|116:184|168:288,1,179.999994506836,2|8,1:0|0:0,0:0:0:0:
248,324,54146,1,2,0:0:0:0:
372,276,54377,6,0,P|408:195|380:112,1,179.999994506836,2|8,1:0|0:0,0:0:0:0:
288,52,55069,1,2,0:1:0:0:
172,120,55300,54,0,P|120:128|28:52,1,179.999994506836,2|12,1:0|0:0,0:0:0:0:
132,20,55992,1,2,0:0:0:0:
264,144,56223,22,0,P|268:200|256:244,1,89.9999972534181,2|0,1:0|0:0,0:0:0:0:
172,296,56685,2,0,L|104:288,3,44.999998626709,12|2|2|0,0:0|0:0|0:0|0:0,0:0:0:0:
100,268,57146,37,12,0:0:0:0:
148,192,57377,1,0,0:0:0:0:
92,120,57608,2,0,L|4:108,2,75,12|0|12,0:0|0:0|0:0,0:0:0:0:
172,76,58300,1,2,0:0:0:0:
172,76,58416,1,2,0:0:0:0:
172,76,58531,2,0,L|246:65,1,75,12|0,0:0|0:0,0:0:0:0:
336,120,58992,5,12,0:0:0:0:
424,136,59223,1,0,0:0:0:0:
484,72,59454,2,0,P|452:52|412:48,1,75,12|0,0:0|0:0,0:0:0:0:
416,228,59916,2,0,P|452:223|484:203,1,75,12|0,0:0|0:0,0:0:0:0:
424,136,60377,1,12,0:0:0:0:
416,228,60608,1,0,0:0:0:0:
404,320,60839,70,0,L|252:316,1,150,2|8,0:0|3:2,0:0:0:0:
212,256,61454,6,0,L|216:196,1,50,8|8,3:2|3:2,0:0:0:0:
172,148,61762,2,0,L|168:98,2,50,8|8|8,3:2|3:2|3:2,0:0:0:0:
112,188,62223,2,0,L|108:237,2,50,8|8|8,3:2|3:2|3:2,0:0:0:0:
52,140,62685,6,0,P|64:80|136:28,1,150,8|0,3:2|3:0,0:0:0:0:
220,52,63377,1,0,3:0:0:0:
308,76,63608,2,0,L|400:68,1,75,2|0,0:0|0:0,0:0:0:0:
452,128,64069,2,0,P|464:192|448:276,1,150,2|4,0:0|0:0,0:0:0:0:
380,336,64762,69,0,0:0:0:0:
292,332,64992,2,0,L|204:328,1,75,8|0,0:0|0:0,0:0:0:0:
283,243,65454,2,0,P|352:268|380:336,1,150,0|8,0:0|0:0,0:0:0:0:
292,332,66146,1,0,0:0:0:0:
284,244,66377,22,0,P|284:208|304:164,1,75,0|0,0:0|0:0,0:0:0:0:
380,136,66839,2,0,L|464:144,1,75,8|0,0:0|0:0,0:0:0:0:
308,84,67300,2,0,L|224:92,2,75,0|2|8,0:0|0:0|0:0,0:0:0:0:
388,48,67992,1,2,0:0:0:0:
300,172,68223,70,0,P|296:208|308:256,1,75,0|0,0:0|0:0,0:0:0:0:
376,300,68685,2,0,B|332:304|332:304|276:288|276:288|220:292,1,150,8|0,0:0|0:0,0:0:0:0:
144,328,69377,1,2,0:0:0:0:
60,356,69608,2,0,P|56:316|76:268,1,75,8|2,0:0|0:0,0:0:0:0:
176,208,70069,6,0,L|264:204,1,75,0|0,0:0|0:0,0:0:0:0:
332,240,70531,1,8,0:0:0:0:
260,292,70762,1,0,0:0:0:0:
251,205,70992,2,0,P|304:156|388:172,1,150,0|8,0:0|0:0,0:0:0:0:
436,280,71685,85,0,0:0:0:0:
436,280,71800,1,0,0:0:0:0:
436,280,71916,2,0,P|434:324|416:364,1,75,0|0,0:0|0:0,0:0:0:0:
336,368,72377,2,0,L|172:360,1,150,8|0,0:0|0:0,0:0:0:0:
132,288,73069,1,2,0:0:0:0:
192,220,73300,2,0,P|200:176|188:128,1,75,8|2,0:0|0:0,0:0:0:0:
124,24,73762,22,0,P|116:68|128:116,1,75,0|0,0:0|0:0,0:0:0:0:
195,146,74223,2,0,L|352:136,1,150,8|0,0:0|0:0,0:0:0:0:
420,188,74916,2,0,P|424:225|416:261,2,75,2|8|2,0:0|0:0|0:0,0:0:0:0:
336,308,75608,70,0,P|400:352|480:328,1,150,0|8,0:0|0:0,0:0:0:0:
416,261,76300,1,0,0:0:0:0:
336,308,76531,2,0,P|292:312|260:304,1,75,0|2,0:0|0:0,0:0:0:0:
180,268,76992,2,0,P|142:263|106:271,1,75,8|2,0:0|0:0,0:0:0:0:
44,348,77454,6,0,P|60:288|36:192,1,150,0|8,0:0|0:0,0:0:0:0:
0,124,78146,1,0,0:0:0:0:
68,64,78377,2,0,L|172:68,1,75,0|0,0:0|0:0,0:0:0:0:
228,96,78839,2,0,L|272:92,3,37.5,8|2|2|2,0:0|0:0|0:0|0:0,0:0:0:0:
288,76,79300,6,0,P|324:68|384:84,1,75,4|2,0:0|0:0,0:0:0:0:
428,136,79762,1,8,0:0:0:0:
472,212,79992,2,0,P|404:220|340:144,1,150,2|2,0:0|0:0,0:0:0:0:
428,136,80685,1,8,0:0:0:0:
472,212,80916,1,2,0:0:0:0:
411,357,81146,70,0,P|408:328|420:284,1,75,0|2,0:0|0:0,0:0:0:0:
472,212,81608,1,8,0:0:0:0:
340,256,81839,2,0,P|280:268|208:220,1,150,2|2,0:0|0:0,0:0:0:0:
184,136,82531,2,0,L|192:56,1,75,8|2,0:0|0:0,0:0:0:0:
68,76,82992,6,0,L|60:156,1,75,0|2,0:0|0:0,0:0:0:0:
48,240,83454,1,8,0:0:0:0:
32,328,83685,2,0,P|104:312|136:232,1,150,2|2,0:0|0:0,0:0:0:0:
136,160,84377,2,0,L|240:156,1,75,8|2,0:0|0:0,0:0:0:0:
370,189,84839,6,0,L|296:192,2,75,0|2|8,0:0|0:0|0:0,0:0:0:0:
444,240,85531,1,2,0:0:0:0:
476,324,85762,2,0,B|434:334|400:317|400:317|366:300|324:310,1,150,2|10,0:0|0:0,0:0:0:0:
252,356,86454,1,0,0:0:0:0:
102,299,86685,70,0,P|139:295|176:304,1,75,2|2,0:0|0:0,0:0:0:0:
252,356,87146,1,8,0:0:0:0:
312,288,87377,2,0,P|324:232|272:144,1,150,2|2,0:0|0:0,0:0:0:0:
204,112,88069,2,0,L|120:116,1,75,8|2,0:0|0:0,0:0:0:0:
284,152,88531,22,0,L|368:148,1,75,0|2,0:0|0:0,0:0:0:0:
444,184,88992,1,8,0:0:0:0:
404,264,89223,2,0,L|252:268,1,150,2|0,0:0|0:0,0:0:0:0:
168,300,89916,2,0,P|152:340|156:380,1,75,8|2,0:0|0:0,0:0:0:0:
254,268,90377,70,0,P|254:230|239:196,1,75,0|2,0:0|0:0,0:0:0:0:
160,156,90839,2,0,L|80:164,1,75,8|2,0:0|0:0,0:0:0:0:
228,92,91300,2,0,L|308:100,1,75,0|2,0:0|0:0,0:0:0:0:
384,140,91762,1,8,0:0:0:0:
448,80,91992,1,2,0:0:0:0:
488,192,92223,6,0,L|492:244,3,37.5,0|0|2|0,0:0|0:0|0:0|0:0,0:0:0:0:
476,260,92685,2,0,L|480:312,3,37.5,8|0|2|0,0:0|0:0|0:0|0:0,0:0:0:0:
452,316,93146,2,0,L|400:320,3,37.5,0|0|0|0,0:0|0:0|0:0|0:0,0:0:0:0:
384,304,93608,2,0,L|346:301,3,37.5,8|0|0|0,0:0|0:0|0:0|0:0,0:0:0:0:
320,308,94069,5,4,0:0:0:0:
320,308,96607,70,0,P|216:340|196:184,1,300,2|2,0:0|0:0,0:0:0:0:
188,190,98563,1,2,0:0:0:0:
256,248,98872,1,2,0:0:0:0:
320,308,99181,6,0,L|472:296,1,150,2|2,0:0|0:0,0:0:0:0:
470,296,100485,2,0,B|461:244|461:244|473:204|473:204|461:136,1,150,0|2,0:0|0:0,0:0:0:0:
400,88,101452,1,2,0:0:0:0:
320,124,101775,6,0,P|248:128|192:72,1,150,2|2,0:0|0:0,0:0:0:0:
276,44,102764,1,2,0:0:0:0:
320,124,103093,2,0,B|320:200|320:200|288:272,1,150,2|2,0:0|0:0,0:0:0:0:
290,267,104426,70,0,L|153:256,1,125,0|2,0:0|0:0,0:0:0:0:
136,252,105093,2,0,P|152:200|144:120,1,125,0|2,0:0|0:0,0:0:0:0:
136,104,105759,2,0,L|296:116,1,150,0|2,0:0|0:0,0:0:0:0:
285,115,107122,22,0,P|358:133|292:28,1,300,2|2,0:0|0:0,0:0:0:0:
290,29,109100,1,2,0:0:0:0:
285,115,109429,1,2,0:0:0:0:
280,200,109759,70,0,P|224:176|208:80,1,150,2|2,0:0|0:0,0:0:0:0:
202,95,111022,2,0,L|32:96,1,150,0|2,0:0|0:0,0:0:0:0:
0,168,112022,1,2,0:0:0:0:
56,248,112364,6,0,P|116:264|200:208,1,150,2|2,0:0|0:0,0:0:0:0:
256,164,113355,1,2,0:0:0:0:
321,224,113702,2,0,P|384:262|456:248,1,150,2|2,0:0|0:0,0:0:0:0:
456,247,115295,1,2,0:0:0:0:
256,192,115480,12,0,119484,0:0:0:0:
192,152,119920,6,0,P|118:154|48:120,2,150,0|0|0,1:0|1:0|1:0,0:0:0:0:
256,100,121073,1,0,0:0:0:0:
320,152,121304,2,0,L|312:248,1,75,0|0,1:0|0:0,0:0:0:0:
392,256,121766,70,0,L|400:160,1,75,0|0,1:0|0:0,0:0:0:0:
468,296,122227,2,0,P|428:336|332:320,1,150,0|0,1:0|1:0,0:0:0:0:
224,284,123035,1,0,1:0:0:0:
224,284,123150,2,0,L|144:292,1,75,0|0,1:0|1:0,0:0:0:0:
88,236,123612,6,0,P|72:172|100:80,1,150,2|2,1:2|1:2,0:0:0:0:
208,132,124420,1,0,0:0:0:0:
208,132,124536,2,0,L|388:120,1,150,2|2,1:2|1:2,0:0:0:0:
420,228,125342,1,0,0:0:0:0:
420,228,125458,2,0,L|240:240,1,150,2|2,1:2|1:2,0:0:0:0:
248,360,126266,1,0,0:0:0:0:
248,360,126382,2,0,L|392:352,1,112.5,2|0,1:2|0:0,0:0:0:0:
392,364,126843,2,0,L|488:359,1,75,2|0,1:2|1:0,0:0:0:0:
508,280,127304,5,6,1:2:0:0:
468,200,127535,1,0,0:0:0:0:
508,120,127766,2,0,P|504:80|480:40,1,75,2|0,1:2|0:0,0:0:0:0:
400,28,128227,2,0,L|312:32,1,75,2|0,1:2|0:0,0:0:0:0:
224,92,128689,70,0,L|156:96,2,50,4|8|8,3:0|3:0|3:0,0:0:0:0:
288,136,129150,5,6,1:2:0:0:
336,212,129381,1,0,0:0:0:0:
272,276,129612,2,0,P|232:276|192:260,1,75,2|0,1:2|0:0,0:0:0:0:
336,212,130073,2,0,P|376:212|416:228,1,75,2|0,1:2|0:0,0:0:0:0:
468,280,130535,38,0,L|460:144,1,112.500004291535,0|0,0:0|1:0,0:0:0:0:
444,80,131227,69,0,0:0:0:0:
360,48,131458,2,0,P|312:52|284:68,1,75,2|2,1:2|1:2,0:0:0:0:
333,202,131920,2,0,L|340:128,2,75,2|0|2,1:2|0:0|1:2,0:0:0:0:
272,268,132612,1,2,1:2:0:0:
144,224,132843,70,0,L|76:232,2,50,0|0|2,0:0|0:0|0:0,0:0:0:0:
204,168,133304,86,0,L|272:176,2,55.0000016784668,2|0|0,0:0|0:0|0:0,0:0:0:0:
144,120,133766,86,0,L|80:128,4,44.999998626709,2|2|2|2|8,0:0|0:0|0:0|0:0|0:0,0:0:0:0:
144,120,134689,69,2,1:0:0:0:
232,60,134920,2,0,P|328:60|384:148,1,179.999994506836,0|0,0:0|1:0,0:0:0:0:
364,228,135612,2,0,L|472:216,1,89.9999972534181,8|0,1:2|0:0,0:0:0:0:
440,324,136073,2,0,L|332:336,1,89.9999972534181,2|0,1:2|0:0,0:0:0:0:
256,280,136535,21,2,1:0:0:0:
161,333,136766,2,0,P|148:256|220:176,1,179.999994506836,0|0,0:0|1:0,0:0:0:0:
316,192,137458,2,0,P|364:192|416:168,1,89.9999972534181,8|0,1:2|0:0,0:0:0:0:
428,72,137920,2,0,P|380:72|328:96,1,89.9999972534181,2|0,1:2|0:0,0:0:0:0:
316,192,138381,6,0,P|344:280|436:312,1,179.999994506836,2|2,1:0|1:0,0:0:0:0:
512,256,139073,1,0,0:0:0:0:
508,148,139304,2,0,P|480:108|424:84,1,89.9999972534181,2|0,1:0|0:0,0:0:0:0:
316,192,139766,1,0,1:0:0:0:
316,192,140227,54,0,L|176:184,1,134.999995880127,2|0,1:0|0:0,0:0:0:0:
181,184,140689,2,0,P|168:224|176:280,1,89.9999972534181,2|0,1:0|0:0,0:0:0:0:
276,308,141150,2,0,L|348:296,2,59.9999981689454,8|0|0,1:2|0:0|0:0,0:0:0:0:
224,356,141612,2,0,L|152:344,2,59.9999981689454,2|0|0,1:2|0:0|0:0,0:0:0:0:
292,384,142073,21,2,0:0:0:0:
400,368,142304,2,0,P|432:320|392:212,1,179.999994506836,0|0,0:0|0:0,0:0:0:0:
292,176,142996,2,0,L|244:180,3,44.999998626709,2|2|2|2,0:0|0:0|0:0|0:0,0:0:0:0:
224,200,143458,2,0,P|232:164|216:108,1,89.9999972534181,0|0,0:0|0:0,0:0:0:0:
116,148,143920,6,0,P|104:204|140:288,1,134.999995880127,2|0,1:0|0:0,0:0:0:0:
129,275,144381,2,0,L|24:272,1,89.9999972534181,0|0,0:0|1:0,0:0:0:0:
76,376,144843,2,0,L|181:379,1,89.9999972534181,8|0,1:2|0:0,0:0:0:0:
268,344,145304,1,2,1:2:0:0:
232,244,145535,1,0,0:0:0:0:
304,164,145766,54,0,L|380:152,2,59.9999981689454,0|2|2,0:0|0:0|0:0,0:0:0:0:
240,120,146227,2,0,L|164:108,2,59.9999981689454,0|2|2,0:0|0:0|0:0,0:0:0:0:
308,76,146689,22,0,L|388:64,2,64.9999970245363,8|2|2,1:0|0:0|0:0,0:0:0:0:
244,32,147150,2,0,L|168:20,2,64.9999970245363,0|2|2,0:0|0:0|0:0,0:0:0:0:
308,76,147612,5,0,0:0:0:0:
412,52,147843,1,2,0:0:0:0:
380,152,148073,2,0,P|376:208|400:284,1,112.5,2|2,0:0|0:0,0:0:0:0:
389,262,148535,2,0,L|236:256,1,150,0|0,1:0|1:0,0:0:0:0:
239,256,149458,54,0,P|176:280|84:208,1,179.999994506836,2|8,1:0|0:0,0:0:0:0:
60,116,150150,1,2,0:0:0:0:
180,52,150381,22,0,B|248:52|248:52|288:76|288:76|364:76,1,179.999994506836,2|8,1:0|0:0,0:0:0:0:
452,36,151073,1,2,0:1:0:0:
412,164,151304,6,0,L|420:348,1,179.999994506836,2|8,1:0|0:0,0:0:0:0:
316,372,151996,1,2,0:0:0:0:
204,296,152227,54,0,L|200:188,1,89.9999972534181,2|0,1:0|0:0,0:0:0:0:
256,112,152689,2,0,L|252:56,3,44.999998626709,8|2|2|0,0:0|0:0|0:0|0:0,0:0:0:0:
232,40,153150,6,0,L|352:36,1,112.500004291535,2|8,0:0|0:0,0:0:0:0:
390,114,153843,37,0,0:0:0:0:
344,192,154073,2,0,L|268:188,1,75,0|0,3:0|0:0,0:0:0:0:
396,268,154535,1,8,0:0:0:0:
344,192,154766,6,0,P|304:252|328:332,1,150,2|2,0:0|0:0,0:0:0:0:
396,268,155458,1,8,0:0:0:0:
444,344,155689,2,0,P|484:284|460:204,1,150,2|2,0:0|0:0,0:0:0:0:
412,140,156381,2,0,P|400:104|408:48,1,75,8|0,0:0|0:0,0:0:0:0:
300,28,156843,22,0,P|224:36|168:116,1,179.999994506836,2|8,1:0|0:0,0:0:0:0:
192,220,157535,1,2,0:0:0:0:
272,328,157766,22,0,L|468:316,1,179.999994506836,2|8,1:0|0:0,0:0:0:0:
512,228,158458,1,2,0:1:0:0:
448,108,158689,6,0,P|368:132|288:88,1,179.999994506836,2|8,1:0|0:0,0:0:0:0:
212,12,159381,1,2,0:0:0:0:
104,92,159612,54,0,L|100:196,1,89.9999972534181,2|0,1:0|0:0,0:0:0:0:
172,264,160073,2,0,L|168:332,3,44.999998626709,8|2|2|0,0:0|0:0|0:0|0:0,0:0:0:0:
152,340,160535,6,0,P|212:332|272:344,1,112.500004291535,2|8,0:0|0:0,0:0:0:0:
348,368,161227,69,0,0:0:0:0:
324,280,161458,2,0,P|324:232|336:200,1,75,0|0,3:0|0:0,0:0:0:0:
380,128,161920,1,8,0:0:0:0:
304,52,162150,86,0,L|152:64,1,150,2|2,0:0|0:0,0:0:0:0:
92,132,162843,1,8,0:0:0:0:
44,208,163073,2,0,P|120:216|176:160,1,150,2|2,0:0|0:0,0:0:0:0:
92,132,163766,1,8,0:0:0:0:
44,208,163996,1,0,0:0:0:0:
88,308,164227,54,0,L|284:304,1,179.999994506836,2|8,1:0|0:0,0:0:0:0:
368,348,164920,1,2,0:0:0:0:
448,240,165150,6,0,P|456:168|404:76,1,179.999994506836,2|8,1:0|0:0,0:0:0:0:
304,40,165843,1,2,0:1:0:0:
200,124,166073,54,0,L|208:316,1,179.999994506836,2|8,1:0|0:0,0:0:0:0:
128,380,166766,1,2,0:0:0:0:
28,288,166996,22,0,P|16:248|20:196,1,89.9999972534181,2|0,1:0|0:0,0:0:0:0:
68,104,167458,2,0,L|56:44,2,59.9999981689454,8|8|8,3:0|3:0|3:0,0:0:0:0:
140,140,167920,86,0,P|188:148|248:124,1,112.500004291535,2|8,0:0|0:0,0:0:0:0:
308,60,168612,37,0,0:0:0:0:
380,112,168843,2,0,P|414:104|464:104,2,75,0|0|8,3:0|0:0|0:0,0:0:0:0:
312,200,169535,6,0,L|324:368,1,150,2|2,0:0|0:0,0:0:0:0:
408,384,170227,1,8,0:0:0:0:
484,336,170458,2,0,L|472:168,1,150,2|2,0:0|0:0,0:0:0:0:
464,96,171150,1,8,0:0:0:0:
392,148,171381,1,0,0:0:0:0:
296,96,171612,22,0,B|232:96|232:96|188:120|188:120|104:120,1,179.999994506836,2|8,1:0|0:0,0:0:0:0:
28,68,172304,1,2,0:0:0:0:
32,204,172535,22,0,P|56:248|176:280,1,179.999994506836,2|8,1:0|0:0,0:0:0:0:
272,236,173227,1,2,0:1:0:0:
400,280,173458,6,0,B|420:236|400:192|400:192|380:152|400:104,1,179.999994506836,2|8,1:0|0:0,0:0:0:0:
476,28,174150,1,2,0:0:0:0:
340,44,174381,54,0,L|240:40,1,89.9999972534181,2|0,1:0|0:0,0:0:0:0:
160,104,174843,2,0,L|104:100,3,44.999998626709,8|2|2|0,0:0|0:0|0:0|0:0,0:0:0:0:
92,84,175304,53,2,0:0:0:0:
48,160,175535,1,0,0:0:0:0:
112,224,175766,2,0,L|200:220,1,75,8|0,0:0|0:0,0:0:0:0:
256,276,176227,1,2,0:0:0:0:
325,220,176458,1,2,0:0:0:0:
325,220,176573,1,2,0:0:0:0:
325,220,176689,2,0,L|400:224,1,75,8|0,0:0|0:0,0:0:0:0:
492,160,177150,5,2,0:0:0:0:
476,72,177381,1,0,0:0:0:0:
400,120,177612,2,0,L|316:116,1,75,8|0,0:0|0:0,0:0:0:0:
300,32,178073,2,0,L|384:36,2,75,2|0|8,0:0|0:0|0:0,0:0:0:0:
224,80,178766,1,0,0:0:0:0:
144,40,178996,6,0,P|132:88|208:168,1,150,2|0,0:0|1:0,0:0:0:0:
204,160,179689,1,0,1:0:0:0:
220,156,179920,1,0,1:0:0:0:
236,152,180150,1,0,1:0:0:0:
252,148,180381,1,0,1:0:0:0:
268,144,180612,1,0,1:0:0:0:
284,140,180843,85,4,1:2:0:0:
