osu file format v14

[General]
AudioFilename: 16. Rameses B - Dream Catcher (feat. Charlotte Haining).mp3
AudioLeadIn: 0
PreviewTime: 53887
Countdown: 1
SampleSet: Normal
StackLeniency: 0.7
Mode: 0
LetterboxInBreaks: 1
WidescreenStoryboard: 0

[Editor]
DistanceSpacing: 1.2
BeatDivisor: 4
GridSize: 4
TimelineZoom: 1

[Metadata]
Title:Dream Catcher (feat. Charlotte Haining)
TitleUnicode:Dream Catcher (feat. Charlotte Haining)
Artist:Rameses B
ArtistUnicode:Rameses B
Creator:Gangsterkill
Version:Insane
Source:Monstercat
Tags:Monstercat Rameses B Dream Catcher Charlotte Haining EDM Drum and Bass
BeatmapID:564552
BeatmapSetID:244968

[Difficulty]
HPDrainRate:7
CircleSize:4
OverallDifficulty:7
ApproachRate:9.2
SliderMultiplier:1.5
SliderTickRate:2

[Events]
//Background and Video events
0,0,"dream-catcher-dreamcatcher-light-paint-long-exposure-shooting-stars-Favim.com-453853.jpg",0,0
//Break Periods
//Storyboard Layer 0 (Background)
//Storyboard Layer 1 (Fail)
//Storyboard Layer 2 (Pass)
//Storyboard Layer 3 (Foreground)
//Storyboard Sound Samples

[TimingPoints]
8,344.827586206897,4,1,0,100,1,0
22076,-100,4,1,0,34,0,0
30870,-100,4,1,0,34,0,0
31214,-100,4,1,0,54,0,0
31559,-100,4,1,0,74,0,0
32335,-100,4,1,0,5,0,0
32508,-100,4,1,0,74,0,0
52421,-166.666666666667,4,1,0,74,0,0
54145,-100,4,1,0,74,0,0
55180,-83.3333333333333,4,1,0,74,0,1
60352,-66.6666666666667,4,1,0,74,0,1
60697,-83.3333333333333,4,1,0,74,0,1
99318,-100,4,1,0,74,0,0

[HitObjects]
104,168,11042,6,0,L|252:132,1,150
416,108,11732,2,0,P|428:184|408:260,1,150
328,264,12249,2,0,P|256:243|179:274,1,150
104,92,12939,1,0,0:0:0:0:
104,172,13111,2,0,L|252:116,1,150
376,72,13801,1,0,0:0:0:0:
432,260,14145,1,0,0:0:0:0:
244,316,14490,1,0,0:0:0:0:
188,128,14835,2,0,B|138:110|110:59|110:59|99:30|63:30|46:61|52:92|66:108|82:112|93:109|102:100,1,225,0|0,0:0|0:0,2:0:0:0:
160,260,15870,6,0,L|316:232,1,150
420,200,16387,1,0,0:0:0:0:
364,128,16559,1,0,0:0:0:0:
329,212,16904,1,0,0:0:0:0:
502,204,17249,1,0,0:0:0:0:
408,48,17594,2,0,B|352:12|300:40|300:40|248:80|184:44,1,225
112,32,18283,2,0,P|88:88|20:148,1,150
22,237,18801,2,0,P|79:284|111:352,1,150
192,352,19318,5,0,0:0:0:0:
133,180,19663,1,0,0:0:0:0:
276,72,20007,1,0,0:0:0:0:
425,176,20352,1,0,0:0:0:0:
256,192,20697,12,0,21732,0:0:0:0:
168,56,22076,6,0,P|148:132|168:216,1,150
392,104,22766,2,0,P|316:84|232:104,1,150
120,280,23456,2,0,P|196:300|280:280,1,150
343,328,24145,2,0,P|363:256|351:182,1,150
220,80,24835,5,0,0:0:0:0:
76,128,25180,1,0,0:0:0:0:
360,208,25525,5,0,0:0:0:0:
504,256,25870,1,0,0:0:0:0:
92,320,26214,5,0,0:0:0:0:
16,176,26559,1,0,0:0:0:0:
312,228,26904,5,0,0:0:0:0:
388,84,27249,1,0,0:0:0:0:
388,84,27421,1,0,0:0:0:0:
388,84,27594,6,0,B|360:80|360:80|336:84|336:84|312:80|312:80|280:88|280:88|256:80|256:80|236:80|236:80,1,150
148,72,28111,1,0,0:0:0:0:
148,72,28283,2,0,L|64:56,1,75
104,156,28628,2,0,L|188:172,1,75
208,264,28973,6,0,P|252:216|260:128,1,150
236,40,29490,1,0,0:0:0:0:
416,112,29663,2,0,P|432:152|428:192,1,75
360,272,30008,2,0,P|344:232|348:192,1,75
328,60,30352,6,0,L|172:100,1,150
44,200,30870,2,0,L|36:304,1,75
228,204,31214,2,0,L|236:100,1,75
412,204,31559,2,0,L|420:308,2,75,0|0|0,0:0|0:0|0:0,0:0:0:0:
384,112,32076,1,0,0:0:0:0:
276,12,32249,1,0,0:0:0:0:
304,155,32421,1,0,0:0:0:0:
365,23,32594,1,0,0:0:0:0:
237,94,32766,1,0,0:0:0:0:
60,176,33111,6,0,L|24:328,1,150
136,292,33628,1,0,0:0:0:0:
220,160,33801,2,0,P|216:208|196:248,1,75
132,144,34145,2,0,P|136:96|156:56,1,75
288,92,34490,2,0,P|308:176|264:244,1,150
220,160,35008,1,0,0:0:0:0:
144,232,35180,2,0,L|188:320,1,75
292,260,35525,2,0,L|368:280,1,75
448,216,35870,6,0,B|468:140|468:140|472:96|456:64,1,150
348,52,36387,1,0,0:0:0:0:
120,72,36559,2,0,L|220:88,1,75
344,176,36904,2,0,L|244:192,1,75,0|0,0:0|0:0,0:0:0:0:
48,204,37249,2,0,P|124:180|208:208,1,150
124,261,37766,1,0,2:0:0:0:
99,142,37939,1,0,2:0:0:0:
203,82,38111,1,0,2:0:0:0:
292,163,38283,1,0,2:0:0:0:
243,272,38456,1,0,2:0:0:0:
189,182,38628,6,0,L|290:58,1,150
433,120,39145,1,0,0:0:0:0:
408,202,39318,2,0,P|357:160|367:73,1,150
360,81,39835,1,0,0:0:0:0:
217,47,40008,2,0,B|182:64|161:102|161:102|140:144|100:163,1,150
49,234,40525,1,0,0:0:0:0:
138,305,40697,5,0,0:0:0:0:
244,272,40870,1,0,0:0:0:0:
480,207,41042,1,0,0:0:0:0:
374,174,41215,1,0,0:0:0:0:
256,203,41387,2,0,P|198:208|134:144,1,150
219,129,41904,1,0,0:0:0:0:
293,64,42076,2,0,L|370:56,1,75
511,138,42421,2,0,L|434:146,1,75
103,157,42766,5,0,0:0:0:0:
67,229,42939,1,0,0:0:0:0:
146,221,43111,1,0,0:0:0:0:
216,70,43456,5,0,0:0:0:0:
310,290,43629,1,0,0:0:0:0:
445,96,43801,1,0,0:0:0:0:
310,290,43973,1,0,0:0:0:0:
216,70,44145,6,0,B|144:101|144:101|90:162,1,150
134,273,44663,2,0,L|212:281,1,75
361,222,45008,1,0,0:0:0:0:
267,175,45180,1,0,0:0:0:0:
107,93,45352,2,0,L|185:101,1,75
356,80,45697,1,0,0:0:0:0:
260,32,45870,5,0,0:0:0:0:
132,128,46042,1,0,0:0:0:0:
228,256,46214,1,0,0:0:0:0:
357,160,46559,1,0,0:0:0:0:
85,218,46904,6,0,B|120:219|154:239|154:239|191:259|238:255,1,150
360,248,47421,1,0,0:0:0:0:
112,136,47594,2,0,B|147:137|181:157|181:157|218:177|265:173,1,150
368,72,48283,1,0,0:0:0:0:
180,140,48456,1,0,0:0:0:0:
248,328,48628,1,0,0:0:0:0:
180,140,48973,1,0,0:0:0:0:
104,64,49145,1,0,0:0:0:0:
76,168,49318,1,0,0:0:0:0:
148,288,49663,6,0,P|196:296|236:288,1,75
360,152,50008,2,0,P|312:144|272:152,1,75
152,184,50352,2,0,P|119:159|98:118,1,75
388,72,50697,2,0,P|420:96|441:137,1,75
328,264,51042,5,0,0:0:0:0:
184,284,51214,1,0,0:0:0:0:
288,182,51387,5,0,0:0:0:0:
143,190,51559,1,0,0:0:0:0:
246,102,51732,5,0,0:0:0:0:
100,96,51904,1,0,0:0:0:0:
208,18,52076,5,0,0:0:0:0:
64,0,52248,1,0,0:0:0:0:
29,110,52421,6,0,B|45:158|22:198|22:198|12:252|49:276|90:279|122:259|125:215,1,269.999991760254
157,71,53801,5,0,0:0:0:0:
178,77,53887,1,0,0:0:0:0:
200,83,53973,1,0,0:0:0:0:
222,89,54059,1,0,0:0:0:0:
249,98,54145,1,0,0:0:0:0:
259,134,54231,1,0,0:0:0:0:
269,170,54317,1,0,0:0:0:0:
279,206,54403,1,0,0:0:0:0:
289,237,54490,5,0,0:0:0:0:
263,263,54576,1,0,0:0:0:0:
227,272,54662,1,0,0:0:0:0:
191,261,54748,1,0,0:0:0:0:
161,243,54834,1,0,0:0:0:0:
130,265,54921,1,0,0:0:0:0:
94,276,55007,1,0,0:0:0:0:
58,270,55093,1,0,0:0:0:0:
27,245,55180,6,0,P|11:171|63:74,1,179.999994506836
107,174,55697,1,0,0:0:0:0:
187,105,55870,2,0,P|203:179|151:276,1,179.999994506836
256,330,56387,1,0,0:0:0:0:
343,254,56559,2,0,P|310:220|286:176,1,89.9999972534181
373,63,56904,2,0,P|406:97|430:141,1,89.9999972534181
343,253,57249,1,0,0:0:0:0:
170,267,57421,2,0,L|78:279,2,89.9999972534181,0|0|0,0:0|0:0|0:0,0:0:0:0:
343,253,57939,6,0,P|354:205|343:156,1,89.9999972534181
269,69,58283,1,0,0:0:0:0:
246,71,58369,1,0,0:0:0:0:
224,74,58455,1,0,0:0:0:0:
71,102,58628,2,0,P|50:159|99:288,2,179.999994506836,0|0|0,0:0|0:0|0:0,0:0:0:0:
187,145,59490,2,0,P|233:152|283:146,1,89.9999972534181
375,100,59835,1,0,0:0:0:0:
401,120,59921,1,0,0:0:0:0:
423,146,60007,1,0,0:0:0:0:
439,175,60093,1,0,0:0:0:0:
449,208,60179,1,0,0:0:0:0:
387,323,60352,6,0,B|334:293|283:299|283:299|224:305|165:267,1,225.000008583069
58,197,60870,2,0,P|78:147|115:126,1,89.9999972534181
253,80,61214,1,0,0:0:0:0:
253,80,61301,1,0,0:0:0:0:
253,80,61387,1,0,0:0:0:0:
454,197,61559,2,0,P|434:147|397:126,1,89.9999972534181
184,88,61904,6,0,L|84:132,1,89.9999972534181
32,176,62249,1,0,0:0:0:0:
264,56,62421,2,0,P|310:45|364:60,1,89.9999972534181
455,197,62766,2,0,P|409:208|355:193,1,89.9999972534181
97,131,63111,1,0,0:0:0:0:
195,182,63283,1,0,0:0:0:0:
286,252,63456,6,0,L|393:265,1,89.9999972534181
503,279,63801,1,0,0:0:0:0:
255,218,63973,2,0,L|351:266,1,89.9999972534181
319,103,64318,1,0,0:0:0:0:
289,87,64404,1,0,0:0:0:0:
256,77,64490,1,0,0:0:0:0:
223,75,64576,1,0,0:0:0:0:
190,81,64662,1,0,0:0:0:0:
76,139,64835,6,0,P|64:191|76:242,1,89.9999972534181
131,333,65180,1,0,0:0:0:0:
196,58,65352,1,0,0:0:0:0:
196,58,65439,1,0,0:0:0:0:
196,58,65525,1,0,0:0:0:0:
196,58,65611,1,0,0:0:0:0:
196,58,65697,1,0,0:0:0:0:
265,335,65870,2,0,L|370:322,1,89.9999972534181
447,260,66214,5,0,0:0:0:0:
444,175,66387,1,0,0:0:0:0:
370,221,66559,1,0,0:0:0:0:
249,234,66732,1,0,0:0:0:0:
221,241,66818,1,0,0:0:0:0:
191,243,66904,1,0,0:0:0:0:
162,240,66990,1,0,0:0:0:0:
133,233,67076,1,0,0:0:0:0:
71,119,67249,2,0,L|58:66,1,44.999998626709
168,70,67421,2,0,L|176:16,1,44.999998626709
275,62,67594,6,0,P|326:41|448:83,1,179.999994506836
444,223,68111,1,0,0:0:0:0:
444,223,68197,1,0,0:0:0:0:
444,223,68283,1,0,0:0:0:0:
256,300,68456,1,0,0:0:0:0:
256,300,68542,1,0,0:0:0:0:
256,300,68628,1,0,0:0:0:0:
136,258,68801,1,0,0:0:0:0:
73,144,68973,6,0,B|119:128|161:135|161:135|205:153|257:146,1,179.999994506836
432,64,69490,1,0,0:0:0:0:
388,52,69576,1,0,0:0:0:0:
343,53,69662,1,0,0:0:0:0:
300,65,69748,1,0,0:0:0:0:
268,88,69835,2,0,L|212:168,1,89.9999972534181
316,292,70180,6,0,L|372:212,1,89.9999972534181
428,140,70525,1,0,0:0:0:0:
368,360,70697,2,0,P|296:368|232:292,1,179.999994506836
324,116,71214,1,0,0:0:0:0:
88,88,71387,2,0,P|94:174|169:216,1,179.999994506836
324,116,71904,5,0,0:0:0:0:
424,72,72076,2,0,P|436:124|420:168,1,89.9999972534181
248,224,72421,2,0,P|236:172|252:128,1,89.9999972534181
396,284,72766,1,0,0:0:0:0:
240,336,72939,1,0,0:0:0:0:
92,188,73111,1,0,0:0:0:0:
248,136,73284,1,0,0:0:0:0:
424,72,73456,2,0,P|444:160|424:256,1,179.999994506836
288,336,73973,1,0,0:0:0:0:
152,248,74145,2,0,P|135:160|155:72,1,179.999994506836
280,40,74663,5,0,0:0:0:0:
408,64,74835,2,0,P|444:104|452:156,1,89.9999972534181
416,288,75180,1,0,0:0:0:0:
104,64,75352,2,0,P|68:104|60:156,1,89.9999972534181
96,288,75697,1,0,0:0:0:0:
256,284,75870,6,0,B|264:232|256:192|256:192|248:152|256:104,1,179.999994506836
324,48,76387,2,0,P|352:96|352:144,1,89.9999972534181
157,129,76732,2,0,P|163:85|188:48,1,89.9999972534181
188,47,77076,1,0,0:0:0:0:
354,129,77249,6,0,P|364:180|352:236,1,89.9999972534181
84,160,77594,2,0,P|84:104|196:64,1,179.999994506836
153,128,78111,1,0,0:0:0:0:
269,279,78283,2,0,P|228:297|184:299,1,89.9999972534181
301,54,78628,6,0,P|358:41|406:51,1,89.9999972534181
371,312,78973,2,0,B|345:293|345:293|353:261|335:210|285:191|242:210,1,179.999994506836
270,279,79490,1,0,0:0:0:0:
175,118,79663,1,0,0:0:0:0:
92,285,79835,1,0,0:0:0:0:
