osu file format v12

[General]
AudioFilename: Baka Lally.mp3
AudioLeadIn: 1000
PreviewTime: 24447
Countdown: 0
SampleSet: Soft
StackLeniency: 0.4
Mode: 0
LetterboxInBreaks: 0

[Editor]
DistanceSpacing: 1
BeatDivisor: 4
GridSize: 4

[Metadata]
Title:Electronic Bitch (Nightcore Mix)
TitleUnicode:Electronic Bitch (Nightcore Mix)
Artist:Rakshan
ArtistUnicode:Rakshan
Creator:Lally
Version:Normal
Source:
Tags:osuplayer111 Andrea remix
BeatmapID:220395
BeatmapSetID:78889

[Difficulty]
HPDrainRate:5
CircleSize:3
OverallDifficulty:5
ApproachRate:5
SliderMultiplier:1
SliderTickRate:1

[Events]
//Background and Video events
0,0,"bitch.png",0,0
//Break Periods
2,49449,59311
//Storyboard Layer 0 (Background)
//Storyboard Layer 1 (Fail)
//Storyboard Layer 2 (Pass)
//Storyboard Layer 3 (Foreground)
//Storyboard Sound Samples
//Background Colour Transformations
3,100,255,255,128

[TimingPoints]
1550,352.205688121863,4,2,0,50,1,0
12820,-100,4,2,0,60,0,0
23386,-100,4,2,0,30,0,0
24091,-100,4,2,0,35,0,0
25499,-100,4,1,1,50,0,1
25544,-100,4,1,1,65,0,1
36418,-100,4,1,1,65,0,0
36770,-100,4,1,1,65,0,1
48041,-100,4,1,1,30,0,0
60720,-100,4,2,0,40,0,0
61072,-100,4,2,0,50,0,0
61424,-100,4,2,0,60,0,0
61777,-100,4,2,0,70,0,0
62129,-100,4,2,0,80,0,0
62481,-100,4,2,0,90,0,0
62833,-100,4,2,0,100,0,0
63185,-100,4,2,0,70,0,0
66003,-100,4,2,0,80,0,0
66355,-100,4,2,0,100,0,0
67060,-100,4,2,0,70,0,0
73399,-100,4,1,1,50,0,1
73443,-100,4,1,1,60,0,0
84670,-100,4,1,1,65,0,0
95941,-100,4,1,1,70,0,1
107211,-100,4,1,1,30,0,0
107916,-100,4,1,1,70,0,0
108268,-100,4,1,1,30,0,0
108620,-100,4,1,1,40,0,0

[Colours]
Combo1 : 51,112,172
Combo2 : 83,213,197
Combo3 : 221,47,82
Combo4 : 159,81,159
Combo5 : 77,215,118

[HitObjects]
69,247,1550,2,0,B|153:263|153:263|169:339|221:355,1,200,4|2,0:0|0:0,0:0:0:0:
257,263,2606,1,0,0:0:0:0:
296,354,2958,2,0,B|342:339|358:263|358:263|442:247,1,200,2|2,0:0|0:0,0:0:0:0:
468,152,4015,6,0,P|424:92|392:80,1,100,0|2,0:0|0:0,0:0:0:0:
344,164,4719,2,0,L|316:268,1,100,0|2,0:0|0:0,0:0:0:0:
256,340,5424,1,0,0:0:0:0:
193,260,5776,2,0,L|168:164,1,100,2|0,0:0|0:0,0:0:0:0:
168,64,6480,5,2,0:0:0:0:
260,28,6833,2,0,P|320:24|352:48,1,100,0|2,0:0|0:0,0:0:0:0:
360,144,7537,2,0,P|376:208|420:224,1,100,0|2,0:0|0:0,0:0:0:0:
480,284,8241,2,0,P|464:352|428:360,1,100,0|2,0:0|0:0,0:0:0:0:
344,332,8946,6,0,P|272:296|260:268,1,100,0|2,0:0|0:0,0:0:0:0:
212,196,9650,1,0,0:0:0:0:
152,116,10002,2,0,P|116:72|56:68,1,100,2|0,0:0|0:0,0:0:0:0:
12,140,10707,1,2,0:0:0:0:
44,236,11059,1,0,0:0:0:0:
136,276,11411,1,6,0:0:0:0:
304,160,12116,6,0,P|328:108|376:88,1,100,2|0,0:0|0:0,0:0:0:0:
460,68,12820,1,4,0:0:0:0:
432,164,13172,2,0,P|428:216|460:252,2,100,8|2|8,0:0|0:0|0:0,0:0:0:0:
384,76,14229,1,2,0:0:0:0:
308,12,14581,1,8,0:0:0:0:
212,36,14933,6,0,P|156:64|136:104,1,100,2|8,0:0|0:0,0:0:0:0:
100,188,15638,1,2,0:0:0:0:
124,284,15990,2,0,P|172:276|216:324,1,100,8|2,0:0|0:0,0:0:0:0:
284,372,16694,1,8,0:0:0:0:
384,352,17047,2,0,P|456:324|432:212,1,200,2|2,0:0|0:0,0:0:0:0:
400,192,17927,6,0,P|364:180|340:160,1,50,0|8,0:0|0:0,0:0:0:0:
280,104,18455,1,4,0:0:0:0:
168,256,19160,2,0,P|100:256|72:220,1,100,2|8,0:0|0:0,0:0:0:0:
64,136,19864,1,0,0:0:0:0:
164,136,20216,2,0,P|216:128|232:68,1,100,8|2,0:0|0:0,0:0:0:0:
148,44,20921,6,0,L|96:16,2,50,8|0|4,0:0|0:0|0:0,0:0:0:0:
236,88,21625,1,8,0:0:0:0:
316,144,21977,1,2,0:0:0:0:
332,244,22330,1,8,0:0:0:0:
256,192,22682,12,4,24091,0:0:0:0:
308,340,25499,6,0,P|360:336|400:288,1,100,4|8,0:0|0:0,0:0:0:0:
440,216,26204,1,0,0:0:0:0:
376,136,26556,2,0,P|320:120|272:140,1,100,8|0,0:0|0:0,0:0:0:0:
184,124,27261,6,0,P|108:108|88:80,2,100,8|0|8,0:0|0:0|0:0,0:0:0:0:
256,52,28317,1,0,0:0:0:0:
328,124,28669,2,0,P|404:108|424:80,2,100,8|0|8,0:0|0:0|0:0,0:0:0:0:
256,192,29726,1,0,0:0:0:0:
176,252,30078,5,8,0:0:0:0:
132,280,30254,1,0,0:0:0:0:
84,296,30430,2,0,P|8:312|-20:300,2,100,0|8|4,0:0|0:0|0:0,0:0:0:0:
176,252,31487,1,8,0:0:0:0:
240,176,31839,2,0,P|276:140|340:140,2,100,0|8|0,0:0|0:0|0:0,0:0:0:0:
176,252,32896,5,8,0:0:0:0:
128,240,33072,1,0,0:0:0:0:
84,216,33248,2,0,P|24:176|20:144,1,100,0|8,0:0|0:0,0:0:0:0:
44,56,33952,1,0,0:0:0:0:
128,112,34305,2,0,P|176:128|228:116,1,100,8|0,0:0|0:0,0:0:0:0:
312,72,35009,2,0,P|352:56|416:68,1,100,8|4,0:0|0:0,0:0:0:0:
408,264,36066,6,0,P|380:316|336:336,1,100,4|8,0:0|0:0,0:0:0:0:
256,288,36770,1,0,0:0:0:0:
166,334,37122,2,0,P|132:316|104:264,1,100,8|0,0:0|0:0,0:0:0:0:
92,216,37651,2,0,P|88:180|96:160,1,50,0|8,0:0|0:0,0:0:0:0:
108,68,38179,2,0,P|144:28|196:28,2,100,0|8|0,0:0|0:0|0:0,0:0:0:0:
36,136,39236,5,8,0:0:0:0:
16,180,39412,1,0,0:0:0:0:
4,228,39588,2,0,P|-8:272|20:324,2,100,0|8|0,0:0|0:0|0:0,0:0:0:0:
36,136,40644,5,8,0:0:0:0:
108,68,40997,2,0,P|152:56|192:104,1,100,0|8,0:0|0:0,0:0:0:0:
210,136,41525,1,0,0:0:0:0:
236,180,41701,2,0,P|256:216|320:220,1,100,0|8,0:0|0:0,0:0:0:0:
356,200,42229,5,0,0:0:0:0:
392,168,42405,2,0,P|432:140|480:152,1,100,4|8,0:0|0:0,0:0:0:0:
492,252,43110,2,0,P|476:308|440:336,1,100,0|8,0:0|0:0,0:0:0:0:
348,352,43814,1,0,0:0:0:0:
296,268,44166,2,0,P|276:208|236:188,1,100,8|0,0:0|0:0,0:0:0:0:
152,160,44871,5,8,0:0:0:0:
112,132,45047,1,0,0:0:0:0:
68,108,45223,2,0,P|24:76|8:32,2,100,4|8|0,0:0|0:0|0:0,0:0:0:0:
152,160,46280,1,8,0:0:0:0:
256,192,46632,12,0,48041,0:0:0:0:
169,257,60720,6,0,L|101:173,1,100,4|8,0:0|0:0,0:0:0:0:
176,108,61424,2,0,L|265:45,1,100,4|8,0:0|0:0,0:0:0:0:
328,120,62129,2,0,L|396:204,1,100,2|8,0:0|0:0,0:0:0:0:
320,268,62833,2,0,L|231:331,1,100,2|8,0:0|0:0,0:0:0:0:
192,348,63362,5,0,0:0:0:0:
143,356,63538,2,0,P|87:344|55:308,2,100,4|8|2,0:0|0:0|0:0,0:0:0:0:
239,326,64594,1,8,0:0:0:0:
284,304,64770,1,0,0:0:0:0:
328,284,64947,2,0,P|376:264|408:224,1,100,2|8,0:0|0:0,0:0:0:0:
428,184,65475,2,0,P|444:148|444:132,1,50,0|2,0:0|0:0,0:0:0:0:
412,44,66003,6,0,P|384:16|368:8,2,50,0|0|4,0:0|0:0|0:0,0:0:0:0:
452,240,67060,2,0,P|432:292|384:300,1,100,2|8,0:0|0:0,0:0:0:0:
332,224,67764,2,0,P|320:192|256:164,1,100,2|8,0:0|0:0,0:0:0:0:
164,156,68469,1,2,0:0:0:0:
76,108,68821,6,0,P|44:88|32:72,2,50,8|0|4,0:0|0:0|0:0,0:0:0:0:
164,156,69525,2,0,P|232:160|272:144,1,100,8|2,0:0|0:0,0:0:0:0:
356,116,70230,1,8,0:0:0:0:
440,64,70582,2,0,P|496:80|512:120,2,100,2|8|6,0:0|0:0|0:0,0:0:0:0:
256,192,71638,12,4,73399,0:0:0:0:
200,284,74104,6,0,P|156:256|144:200,2,100,0|8|0,0:0|0:0|0:0,0:0:0:0:
256,200,75160,1,8,0:0:0:0:
312,284,75513,2,0,P|356:256|368:200,2,100,0|8|0,0:0|0:0|0:0,0:0:0:0:
256,368,76569,1,8,0:0:0:0:
200,284,76922,6,0,P|176:244|112:224,1,100,0|8,0:0|0:0,0:0:0:0:
32,200,77626,1,0,0:0:0:0:
96,124,77978,2,0,P|136:88|192:88,1,100,8|0,0:0|0:0,0:0:0:0:
280,84,78683,2,0,P|336:76|368:36,2,100,8|0|8,0:0|0:0|0:0,0:0:0:0:
180,84,79739,6,0,P|148:96|120:160,1,100,0|8,0:0|0:0,0:0:0:0:
108,252,80444,2,0,P|104:312|132:352,2,100,0|8|0,0:0|0:0|0:0,0:0:0:0:
120,152,81500,1,8,0:0:0:0:
176,68,81852,6,0,P|228:36|264:40,1,100,0|8,0:0|0:0,0:0:0:0:
248,140,82557,2,0,P|296:168|344:172,1,100,0|8,0:0|0:0,0:0:0:0:
420,112,83261,2,0,P|440:168|428:220,1,100,0|8,0:0|0:0,0:0:0:0:
464,300,83966,1,0,0:0:0:0:
376,352,84318,6,0,P|312:372|280:364,1,100,8|4,0:0|0:0,0:0:0:0:
188,324,85022,1,8,0:0:0:0:
156,228,85374,2,0,P|136:168|100:136,2,100,0|8|4,0:0|0:0|0:0,0:0:0:0:
88,300,86431,1,8,0:0:0:0:
4,356,86783,2,0,P|-12:304|4:252,1,100,0|8,0:0|0:0,0:0:0:0:
52,176,87488,5,4,0:0:0:0:
140,128,87840,2,0,B|200:120|200:120|216:100|240:88,2,100,8|0|8,0:0|0:0|0:0,0:0:0:0:
52,76,88897,1,4,0:0:0:0:
52,176,89249,2,0,P|60:224|116:252,1,100,8|0,0:0|0:0,0:0:0:0:
188,300,89953,1,8,0:0:0:0:
256,228,90305,6,0,P|292:168|336:160,1,100,4|8,0:0|0:0,0:0:0:0:
416,140,91010,2,0,P|468:128|492:84,2,100,0|8|4,0:0|0:0|0:0,0:0:0:0:
328,92,92066,1,8,0:0:0:0:
232,64,92419,2,0,B|172:44|172:44|124:44,1,100,0|8,0:0|0:0,0:0:0:0:
36,64,93123,5,4,0:0:0:0:
0,156,93475,2,0,B|36:156|36:156|96:136,1,100,8|0,0:0|0:0,0:0:0:0:
188,96,94180,1,8,0:0:0:0:
256,192,94532,12,4,95941,0:0:0:0:
312,296,96645,6,0,P|316:240|372:216,1,100,0|8,0:0|0:0,0:0:0:0:
448,200,97349,2,0,P|488:176|484:124,1,100,0|8,0:0|0:0,0:0:0:0:
392,92,98054,2,0,P|348:80|316:32,2,100,0|8|0,0:0|0:0|0:0,0:0:0:0:
487,126,99110,1,8,0:0:0:0:
436,212,99463,2,0,P|368:240|352:272,1,100,0|8,0:0|0:0,0:0:0:0:
296,340,100167,1,4,0:0:0:0:
212,284,100519,6,0,P|144:276|124:240,1,100,8|0,0:0|0:0,0:0:0:0:
76,168,101224,1,8,0:0:0:0:
168,124,101576,2,0,P|212:112|242:69,2,100,4|8|0,0:0|0:0|0:0,0:0:0:0:
76,168,102633,1,8,0:0:0:0:
116,260,102985,2,0,P|140:316|188:324,1,100,0|8,0:0|0:0,0:0:0:0:
256,272,103689,5,0,0:0:0:0:
316,192,104041,2,0,B|348:152|348:152|392:132|404:112,2,100,8|0|8,0:0|0:0|0:0,0:0:0:0:
256,272,105098,1,0,0:0:0:0:
196,192,105450,2,0,B|164:152|164:152|120:132|108:112,2,100,8|4|8,0:0|0:0|0:0,0:0:0:0:
256,272,106507,1,4,0:0:0:0:
256,192,107211,12,4,108620,0:0:0:0:
