osu file format v14

[General]
AudioFilename: 10 00003.mp3
AudioLeadIn: 0
PreviewTime: 4016
Countdown: 0
SampleSet: Normal
StackLeniency: 0.7
Mode: 0
LetterboxInBreaks: 1
WidescreenStoryboard: 0

[Editor]
DistanceSpacing: 1
BeatDivisor: 6
GridSize: 8
TimelineZoom: 2.999999

[Metadata]
Title:Elegant Summer
TitleUnicode:Elegant Summer
Artist:Raito Kate & James Harris
ArtistUnicode:Raito Kate & James Harris
Creator:NeonLick
Version:Hard
Source:Melty Blood Act Cadenza
Tags:Video Game, Instrumental
BeatmapID:598275
BeatmapSetID:223832

[Difficulty]
HPDrainRate:6
CircleSize:4
OverallDifficulty:6
ApproachRate:7
SliderMultiplier:0.7
SliderTickRate:1

[Events]
//Background and Video events
0,0,"383077.jpg",0,0
//Break Periods
//Storyboard Layer 0 (Background)
//Storyboard Layer 1 (Fail)
//Storyboard Layer 2 (Pass)
//Storyboard Layer 3 (Foreground)
//Storyboard Sound Samples

[TimingPoints]
3540,285.714285714286,4,1,0,76,1,0
43540,-100,4,1,0,76,0,1
61825,-100,4,1,0,76,0,0

[Colours]
Combo1 : 121,0,0
Combo2 : 245,165,16
Combo3 : 241,81,20
Combo4 : 204,0,0

[HitObjects]
192,308,2968,6,0,B|100:320|90:230,1,140,0|0,2:2|2:2,2:2:0:0:
96,120,4016,6,0,L|112:104,1,23.3333333333333,0|8,2:2|3:3,2:2:0:0:
180,64,4397,1,8,3:3:0:0:
256,52,4682,2,0,P|296:60|312:84,1,70,2|0,3:2|2:2,3:2:0:0:
320,160,5254,1,0,2:2:0:0:
400,192,5540,1,0,2:2:0:0:
408,240,5730,6,0,L|400:264,1,23.3333333333333,0|0,2:2|2:2,2:2:0:0:
360,296,6016,1,0,2:2:0:0:
296,336,6301,2,0,B|243:356|213:315,1,93.3333333333333,0|0,2:2|2:2,2:2:0:0:
192,240,6968,2,0,B|160:216|128:248,1,70,0|0,2:2|2:2,2:2:0:0:
96,288,7444,1,0,2:2:0:0:
184,336,7825,5,0,2:2:0:0:
240,280,8111,1,0,2:2:0:0:
296,336,8397,1,0,2:2:0:0:
352,280,8682,1,0,2:2:0:0:
392,240,8873,6,0,L|393:217,1,23.3333333333333,0|0,2:2|2:2,2:2:0:0:
424,176,9159,1,0,3:2:0:0:
408,160,9254,2,0,L|407:90,1,70,0|0,3:2|2:2,2:2:0:0:
352,72,9730,1,0,2:2:0:0:
178,76,10016,6,0,L|178:104,1,23.3333333333333,0|0,2:2|2:2,2:2:0:0:
139,132,10301,1,0,2:2:0:0:
158,148,10397,2,0,L|158:228,1,70,0|0,2:2|2:2,2:2:0:0:
226,253,10968,2,0,L|268:317,1,70,0|0,2:2|2:2,2:2:0:0:
337,336,11540,1,0,2:2:0:0:
324,260,11825,2,0,L|297:218,1,46.6666666666667,0|0,2:2|2:2,2:2:0:0:
234,139,12397,5,0,2:2:0:0:
180,83,12682,1,0,2:2:0:0:
104,69,12968,1,0,2:2:0:0:
82,196,13159,6,0,L|95:223,1,23.3333333333333,0|0,2:3|2:3,2:3:0:0:
139,277,13540,1,0,2:2:0:0:
213,295,13825,2,0,P|253:287|274:267,1,70,2|0,3:2|2:2,3:2:0:0:
319,205,14397,1,0,2:2:0:0:
358,138,14683,1,0,2:2:0:0:
385,94,14873,6,0,L|377:70,1,23.3333333333333,0|0,2:2|2:2,2:2:0:0:
331,48,15159,1,0,2:2:0:0:
254,42,15444,2,0,B|201:22|171:63,1,93.3333333333333,0|0,2:2|2:2,2:2:0:0:
224,120,16111,2,0,B|206:154|163:141,1,70,0|0,2:2|2:2,2:2:0:0:
120,112,16587,1,0,2:2:0:0:
40,176,16968,5,0,2:2:0:0:
96,232,17254,1,0,2:2:0:0:
40,288,17540,1,0,2:2:0:0:
96,344,17825,1,0,2:2:0:0:
136,312,18016,6,0,L|167:312,1,23.3333333333333,0|0,2:2|2:2,2:2:0:0:
200,336,18302,1,0,3:2:0:0:
216,312,18397,2,0,L|269:260,1,70,2|0,3:2|2:2,2:2:0:0:
312,280,18873,1,0,2:2:0:0:
384,101,19159,6,0,L|356:90,1,23.3333333333333,0|0,2:2|2:2,2:2:0:0:
332,50,19444,1,0,2:2:0:0:
304,56,19540,2,0,L|242:87,1,70,0|0,2:2|2:2,2:2:0:0:
176,40,20111,2,0,L|134:104,1,70,0|0,2:2|2:2,2:2:0:0:
72,136,20683,1,0,2:2:0:0:
56,184,20873,2,0,L|65:215,1,23.3333333333333,0|0,2:2|2:2,2:2:0:0:
104,240,21159,1,0,2:2:0:0:
184,305,21540,5,0,2:2:0:0:
257,327,21825,1,2,3:2:0:0:
382,300,22301,6,0,L|392:274,1,23.3333333333333,0|8,2:2|3:3,2:2:0:0:
418,206,22682,1,8,3:3:0:0:
408,125,22968,2,0,P|402:84|378:67,1,70,2|0,3:2|3:2,3:2:0:0:
303,57,23539,1,0,2:2:0:0:
233,89,23825,1,0,3:2:0:0:
182,99,24015,6,0,L|156:83,1,23.3333333333333,0|0,2:2|2:2,2:2:0:0:
112,88,24301,2,0,L|96:112,1,23.3333333333333,0|0,2:2|3:2,2:2:0:0:
96,160,24586,2,0,B|105:215|160:218,1,93.3333333333333,0|0,2:2|3:2,2:2:0:0:
225,252,25253,2,0,B|264:256|266:301,1,70,0|0,2:2|3:2,2:2:0:0:
231,337,25729,1,0,2:2:0:0:
129,322,26110,5,0,3:2:0:0:
104,303,26396,1,0,2:2:0:0:
92,276,26682,1,0,3:2:0:0:
88,250,26967,1,0,2:2:0:0:
83,198,27158,6,0,L|94:177,1,23.3333333333333,0|0,2:2|3:2,2:2:0:0:
91,125,27444,1,0,3:2:0:0:
112,111,27540,2,0,L|182:112,1,70,2|0,3:2|3:2,2:2:0:0:
222,143,28015,1,0,2:2:0:0:
300,280,28301,6,0,L|323:276,1,23.3333333333333,0|0,2:2|3:2,2:2:0:0:
372,295,28587,1,0,2:2:0:0:
392,280,28682,2,0,L|415:213,1,70,0|0,2:2|3:2,2:2:0:0:
416,136,29254,2,0,L|373:79,1,70,0|0,2:2|3:2,2:2:0:0:
304,48,29825,1,0,2:2:0:0:
248,104,30111,2,0,L|220:146,1,46.6666666666667,0|0,3:2|2:2,2:2:0:0:
168,232,30682,5,0,3:2:0:0:
111,284,30967,1,0,2:2:0:0:
98,208,31253,1,0,3:2:0:0:
102,156,31444,6,0,L|106:128,1,23.3333333333333,0|0,2:2|2:2,2:2:0:0:
112,56,31825,1,0,3:2:0:0:
192,48,32110,2,0,P|232:44|264:56,1,70,2|0,3:2|3:2,3:2:0:0:
328,88,32682,1,0,2:2:0:0:
384,144,32968,1,0,3:2:0:0:
402,198,33158,6,0,L|392:226,1,23.3333333333333,0|0,2:2|2:2,2:2:0:0:
392,272,33444,2,0,L|368:296,1,23.3333333333333,0|0,2:2|3:2,2:2:0:0:
328,312,33730,2,0,B|275:332|245:291,1,93.3333333333333,0|0,2:2|3:2,2:2:0:0:
188,245,34396,2,0,B|170:210|207:183,1,70,0|0,2:2|3:2,2:2:0:0:
256,192,34872,1,0,2:2:0:0:
351,155,35253,5,0,3:2:0:0:
368,141,35539,1,0,2:2:0:0:
380,123,35825,1,0,3:2:0:0:
383,102,36110,1,0,2:2:0:0:
345,67,36301,6,0,L|314:67,1,23.3333333333333,0|0,2:2|3:2,2:2:0:0:
289,107,36587,1,0,2:2:0:0:
289,107,36682,2,0,L|222:133,1,70,0|0,2:2|3:2,2:2:0:0:
175,150,37158,1,0,2:2:0:0:
76,275,37444,6,0,L|105:291,1,23.3333333333333,0|0,2:2|3:2,2:2:0:0:
134,320,37729,1,0,2:2:0:0:
134,320,37825,2,0,L|205:307,1,70,0|0,2:2|3:2,2:2:0:0:
272,273,38397,2,0,L|341:254,1,70,0|0,2:2|3:2,2:2:0:0:
393,198,38968,1,0,2:2:0:0:
384,152,39159,2,0,L|361:129,1,23.3333333333333,0|0,2:2|3:2,2:2:0:0:
320,120,39444,1,0,2:2:0:0:
256,192,40111,12,0,42397,3:3:0:0:
71,259,42968,6,0,B|111:227,1,46.6666666666667,12|8,3:3|3:3,2:2:0:0:
127,246,43254,2,8,B|201:227,1,70,0|2,3:3|3:2,2:2:0:0:
246,174,43825,1,0,3:2:0:0:
286,279,44111,1,0,2:2:0:0:
190,216,44397,1,0,3:2:0:0:
305,213,44682,1,0,2:2:0:0:
214,280,44968,1,0,3:2:0:0:
247,225,45159,2,0,P|242:191|279:147,1,93.3333333333333,0|0,2:2|3:2,2:2:0:0:
338,107,45825,5,0,2:2:0:0:
310,218,46110,1,0,3:2:0:0:
396,154,46396,1,0,2:2:0:0:
284,155,46682,1,0,3:2:0:0:
375,216,46968,2,0,P|376:256|352:280,1,70,0|0,2:2|3:2,2:2:0:0:
312,304,47444,2,0,P|264:312|240:272,1,93.3333333333333,0|0,2:2|3:2,2:2:0:0:
224,200,48111,6,0,P|216:168|184:160,1,70,0|0,2:2|3:2,3:2:0:0:
136,176,48587,1,0,2:2:0:0:
64,104,48968,1,0,3:2:0:0:
136,72,49254,6,0,P|166:56|201:76,1,70,0|0,2:2|3:2,3:2:0:0:
232,104,49730,1,0,2:2:0:0:
304,176,50111,1,0,3:2:0:0:
376,192,50397,5,0,2:2:0:0:
384,288,50682,1,0,3:2:0:0:
288,248,50968,1,0,2:2:0:0:
376,192,51254,1,0,3:2:0:0:
384,288,51540,5,0,2:2:0:0:
288,248,51825,1,0,3:2:0:0:
312,192,52016,2,0,L|248:120,1,93.3333333333333,0|0,2:2|3:2,2:2:0:0:
176,128,52682,6,0,B|128:184,1,70,2|0,2:2|3:2,2:2:0:0:
80,184,53159,2,0,P|86:229|129:231,1,93.3333333333333,0|0,2:2|3:2,2:2:0:0:
192,272,53825,6,0,B|248:224,1,70,0|0,2:2|3:2,2:2:0:0:
248,176,54301,2,0,P|291:176|300:218,1,93.3333333333333,0|0,2:2|3:2,2:2:0:0:
336,288,54968,6,0,B|400:248,1,70,0|0,2:2|3:2,2:2:0:0:
448,256,55444,2,0,P|455:213|414:197,1,93.3333333333333,0|0,2:2|3:2,2:2:0:0:
344,232,56111,2,0,P|288:248|232:224,1,116.666666666667,0|0,2:2|3:2,2:2:0:0:
296,144,56968,1,0,2:2:0:0:
304,64,57254,1,0,3:2:0:0:
256,192,57540,12,0,59540,3:2:0:0:
289,39,60682,5,0,3:2:0:0:
273,114,60968,1,0,1:2:0:0:
244,185,61254,2,0,L|263:211,1,23.3333333333333,0|0,3:2|1:2,1:2:0:0:
222,241,61540,2,0,L|239:291,1,46.6666666666667,0|0,3:2|1:1,2:2:0:0:
223,306,61825,1,0,3:3:0:0:
