osu file format v14

[General]
AudioFilename: 10 00003.mp3
AudioLeadIn: 0
PreviewTime: 4016
Countdown: 0
SampleSet: Normal
StackLeniency: 0.7
Mode: 0
LetterboxInBreaks: 1
WidescreenStoryboard: 0

[Editor]
DistanceSpacing: 1
BeatDivisor: 6
GridSize: 4
TimelineZoom: 1.900001

[Metadata]
Title:Elegant Summer
TitleUnicode:Elegant Summer
Artist:Raito Kate & James Harris
ArtistUnicode:Raito Kate & James Harris
Creator:NeonLick
Version:BLOOD HEAT
Source:Melty Blood Act Cadenza
Tags:Video Game, Instrumental
BeatmapID:522713
BeatmapSetID:223832

[Difficulty]
HPDrainRate:7.5
CircleSize:4
OverallDifficulty:7
ApproachRate:8.5
SliderMultiplier:1.4
SliderTickRate:1

[Events]
//Background and Video events
0,0,"383077.jpg",0,0
//Break Periods
//Storyboard Layer 0 (Background)
//Storyboard Layer 1 (Fail)
//Storyboard Layer 2 (Pass)
//Storyboard Layer 3 (Foreground)
//Storyboard Sound Samples

[TimingPoints]
3540,285.714285714286,4,1,0,76,1,0
43540,-100,4,1,0,76,0,1
61825,-100,4,1,0,76,0,0

[Colours]
Combo1 : 121,0,0
Combo2 : 245,165,16
Combo3 : 241,81,20
Combo4 : 204,0,0

[HitObjects]
256,192,2397,12,0,3539,2:2:0:0:
48,48,4016,6,0,L|68:100,1,46.6666666666667,0|8,3:3|3:3,3:3:0:0:
150,202,4397,1,8,3:3:0:0:
272,269,4682,2,0,P|338:291|412:257,1,140,2|0,3:2|2:2,2:2:0:0:
286,338,5254,2,0,P|347:282|422:270,1,140,0|0,2:2|2:2,2:2:0:0:
451,190,5730,6,0,L|435:142,1,46.6666666666667,0|0,2:2|2:2,2:2:0:0:
363,86,6016,1,0,2:2:0:0:
226,58,6301,2,0,P|157:137|208:203,1,186.666666666667,0|0,2:2|2:2,2:2:0:0:
329,222,6968,1,0,2:2:0:0:
239,329,7254,1,0,2:2:0:0:
240,235,7444,2,0,P|187:183|241:93,1,186.666666666667,0|0,2:2|2:2,2:2:0:0:
372,79,8111,5,0,2:2:0:0:
449,195,8397,1,0,2:2:0:0:
309,200,8682,1,0,2:2:0:0:
375,265,8873,6,0,L|331:289,1,46.6666666666667,0|0,2:2|2:2,2:2:0:0:
256,339,9159,1,0,3:2:0:0:
265,316,9254,2,0,P|274:248|202:243,1,140,2|0,3:2|2:2,2:2:0:0:
146,295,9730,1,0,2:2:0:0:
68,52,10016,6,0,L|128:64,1,46.6666666666667,0|0,2:2|2:2,2:2:0:0:
204,44,10302,1,0,2:2:0:0:
189,61,10397,2,0,P|185:127|257:126,1,140,0|0,2:2|2:2,2:2:0:0:
354,48,10968,2,0,P|410:83|387:144,1,140,0|0,2:2|2:2,2:2:0:0:
257,194,11540,1,0,2:2:0:0:
367,279,11825,1,0,2:2:0:0:
274,266,12016,2,0,B|194:230|194:334|94:274,1,186.666666666667,0|0,2:2|2:2,2:2:0:0:
46,147,12682,1,0,2:2:0:0:
185,163,12968,1,0,2:2:0:0:
144,78,13159,6,0,L|200:50,1,46.6666666666667,0|0,2:2|2:2,3:3:0:0:
325,62,13540,1,0,2:2:0:0:
407,174,13825,2,0,P|395:246|357:308,1,140,2|0,3:2|2:2,2:2:0:0:
407,173,14397,2,0,P|383:241|315:273,1,140,0|0,2:2|2:2,2:2:0:0:
238,304,14873,6,0,L|178:308,1,46.6666666666667,0|0,2:2|2:2,2:2:0:0:
98,295,15159,1,0,2:2:0:0:
62,160,15444,2,0,P|114:88|197:115,1,186.666666666667,0|0,2:2|2:2,2:2:0:0:
313,191,16111,1,0,2:2:0:0:
183,245,16397,1,0,2:2:0:0:
222,160,16587,2,0,P|276:94|362:129,1,186.666666666667,0|0,2:2|2:2,2:2:0:0:
356,264,17254,5,0,2:2:0:0:
217,243,17540,1,0,2:2:0:0:
301,131,17825,1,0,2:2:0:0:
375,74,18016,6,0,L|407:118,1,46.6666666666667,0|0,2:2|2:2,2:2:0:0:
443,195,18301,1,0,3:2:0:0:
441,212,18397,2,0,P|437:272|381:232,1,140,2|0,3:2|2:2,2:2:0:0:
335,167,18873,1,0,2:2:0:0:
60,124,19159,6,0,L|88:168,1,46.6666666666667,0|0,2:2|2:2,2:2:0:0:
127,246,19445,1,0,2:2:0:0:
139,265,19540,2,0,P|193:289|187:225,1,140,0|0,2:2|2:2,2:2:0:0:
129,105,20111,2,0,P|145:49|201:93,1,140,0|0,2:2|2:2,2:2:0:0:
256,208,20683,5,0,2:2:0:0:
244,303,20873,1,0,2:2:0:0:
268,304,20968,1,0,2:2:0:0:
256,211,21159,2,0,B|256:190|256:190|248:186|248:186|260:186|260:186|247:182|247:182|260:182|260:182|247:178|247:178|260:178|260:178|248:175|248:175|259:175|259:175|247:171|247:171|259:171|259:171|247:166|247:166|259:167|259:167|248:163|248:163|260:163|260:163|248:159|248:159|259:158|259:158|247:154|247:154|255:142|255:142|256:55,1,326.666666666667,0|2,2:2|3:2,2:2:0:0:
58,326,22302,6,0,L|119:318,1,46.6666666666667,0|8,3:3|3:3,3:3:0:0:
243,309,22683,1,8,3:3:0:0:
381,289,22968,2,0,L|445:157,1,140,2|0,3:2|3:2,2:2:0:0:
473,300,23540,2,0,L|376:189,1,140,0|0,2:2|3:2,2:2:0:0:
363,102,24016,6,0,L|311:74,1,46.6666666666667,0|0,2:2|2:2,2:2:0:0:
229,72,24301,2,0,L|181:112,1,46.6666666666667,0|0,2:2|3:2,2:2:0:0:
131,172,24587,2,0,B|117:231|186:227|186:227|172:290|211:317,1,186.666666666667,0|0,2:2|3:2,2:2:0:0:
340,343,25254,1,0,2:2:0:0:
275,218,25540,1,0,3:2:0:0:
242,305,25730,2,0,P|163:283|157:185,1,186.666666666667,0|0,2:2|3:2,2:2:0:0:
235,75,26397,5,0,2:2:0:0:
372,100,26683,1,0,3:2:0:0:
425,229,26968,1,0,2:2:0:0:
344,280,27159,6,0,L|284:280,1,46.6666666666667,0|0,2:2|3:2,2:2:0:0:
212,316,27444,1,0,3:2:0:0:
196,312,27540,2,0,L|108:200,1,140,2|0,3:2|3:2,2:2:0:0:
76,116,28016,1,0,2:2:0:0:
344,68,28302,6,0,L|344:132,1,46.6666666666667,0|0,2:2|3:2,2:2:0:0:
384,200,28588,1,0,2:2:0:0:
384,224,28682,2,0,L|264:304,1,140,0|0,2:2|3:2,2:2:0:0:
136,348,29254,2,0,L|260:272,1,140,0|0,2:2|3:2,2:2:0:0:
384,216,29826,1,0,2:2:0:0:
388,76,30111,1,0,3:2:0:0:
296,76,30302,2,0,B|240:82|240:82|271:134|271:134|192:148,1,186.666666666667,0|0,2:2|3:2,2:2:0:0:
65,175,30968,1,0,2:2:0:0:
57,314,31254,1,0,3:2:0:0:
152,304,31445,6,0,L|216:284,1,46.6666666666667,0|0,2:2|2:2,3:3:0:0:
328,244,31826,1,0,3:2:0:0:
456,188,32111,2,0,L|388:48,1,140,2|0,3:2|3:2,2:2:0:0:
456,188,32682,2,0,L|312:128,1,140,0|0,2:2|3:2,2:2:0:0:
239,99,33159,6,0,L|174:117,1,46.6666666666667,0|0,2:2|2:2,2:2:0:0:
138,185,33444,2,0,L|163:239,1,46.6666666666667,0|0,2:2|3:2,2:2:0:0:
238,274,33730,2,0,B|297:261|259:208|259:208|349:223|359:187,1,186.666666666667,0|0,2:2|3:2,2:2:0:0:
414,73,34397,1,0,2:2:0:0:
273,73,34683,1,0,3:2:0:0:
340,137,34873,2,0,P|273:194|192:147,1,186.666666666667,0|0,2:2|3:2,2:2:0:0:
99,50,35540,5,0,2:2:0:0:
238,53,35825,1,0,3:2:0:0:
378,56,36111,1,0,2:2:0:0:
414,141,36301,6,0,L|414:193,1,46.6666666666667,0|0,2:2|3:2,2:2:0:0:
408,280,36587,1,0,2:2:0:0:
384,292,36682,2,0,B|365:246|365:246|330:275|276:260,1,140,0|0,2:2|3:2,2:2:0:0:
199,311,37159,1,0,2:2:0:0:
80,72,37445,6,0,L|128:72,1,46.6666666666667,0|0,2:2|3:2,2:2:0:0:
220,72,37731,1,0,2:2:0:0:
207,88,37825,2,0,B|171:122|171:122|211:144|217:200,1,140,0|0,2:2|3:2,2:2:0:0:
344,136,38397,2,0,B|382:166|382:166|345:192|344:248,1,140,0|0,2:2|3:2,2:2:0:0:
230,325,38969,1,0,2:2:0:0:
144,288,39159,1,0,2:2:0:0:
127,279,39254,1,0,3:2:0:0:
71,204,39444,2,0,B|130:189|90:138|90:138|181:150|189:113,1,186.666666666667,0|0,2:2|3:2,2:2:0:0:
311,70,40111,5,0,2:2:0:0:
396,181,40397,1,0,3:2:0:0:
257,201,40682,1,0,2:2:0:0:
311,71,40968,1,0,3:2:0:0:
374,195,41254,5,0,2:2:0:0:
237,161,41540,1,0,3:2:0:0:
336,62,41825,1,0,2:2:0:0:
374,196,42111,1,0,3:2:0:0:
237,162,42397,2,0,L|123:248,1,140,4|0,3:3|1:2,2:2:0:0:
263,270,42968,6,0,B|156:266,1,93.3333333333333,12|8,3:3|3:3,2:2:0:0:
201,335,43254,2,8,B|113:267,1,93.3333333333333,0|8,3:3|3:3,2:2:0:0:
121,223,43540,6,0,P|61:163|62:100,1,140,0|0,3:3|1:1,2:2:0:0:
171,194,44111,2,0,P|139:115|170:77,1,140,0|0,3:3|1:1,2:2:0:0:
227,205,44682,2,0,P|224:138|288:96,1,140,0|0,3:3|1:1,2:2:0:0:
370,111,45159,6,0,L|418:127,1,46.6666666666667,0|0,2:2|2:2,2:2:0:0:
428,217,45444,1,0,2:2:0:0:
416,244,45540,2,0,L|332:300,1,93.3333333333333,0|0,1:2|2:2,2:2:0:0:
308,288,45825,6,0,P|245:310|180:272,1,140,0|0,3:3|1:1,2:2:0:0:
320,248,46397,2,0,P|255:234|216:176,1,140,0|0,3:3|1:1,2:2:0:0:
352,212,46968,2,0,P|301:168|293:97,1,140,0|0,3:3|1:1,2:2:0:0:
360,164,47444,6,0,P|369:98|301:40,1,140,0|0,3:3|3:3,2:2:0:0:
276,52,47825,1,0,1:2:0:0:
144,96,48111,6,0,P|84:156|85:219,1,140,0|0,3:3|1:1,2:2:0:0:
164,164,48587,2,0,P|148:220|196:284,1,140,0|0,3:3|3:2,2:2:0:0:
240,288,48968,1,0,1:2:0:0:
376,252,49254,6,0,P|312:227|288:156,1,140,0|0,3:3|1:1,2:2:0:0:
380,188,49730,2,0,P|347:139|374:64,1,140,0|0,3:3|3:2,2:2:0:0:
416,52,50111,1,0,1:2:0:0:
436,192,50397,6,0,P|398:247|322:243,1,140,0|0,3:3|1:1,2:2:0:0:
384,172,50873,2,0,P|318:187|265:131,1,140,0|0,3:3|3:2,2:2:0:0:
296,104,51254,2,0,B|200:136|136:40|136:40|76:72|88:124,1,280,0|0,1:2|1:2,2:2:0:0:
96,204,52016,6,0,L|128:248,1,46.6666666666667,0|0,2:2|3:2,2:2:0:0:
196,300,52301,1,0,2:2:0:0:
224,312,52397,2,0,L|312:260,1,93.3333333333333,0|0,1:2|3:2,2:2:0:0:
280,224,52682,6,0,P|224:180|248:108,1,140,2|0,3:2|1:2,2:2:0:0:
309,60,53159,1,0,3:2:0:0:
434,88,53444,1,0,3:3:0:0:
398,56,53540,1,0,1:2:0:0:
296,156,53825,6,0,P|359:135|412:196,1,140,0|0,3:2|1:2,2:2:0:0:
404,280,54302,1,0,3:2:0:0:
284,352,54587,1,0,3:3:0:0:
330,350,54683,1,0,1:2:0:0:
344,208,54968,6,0,P|314:266|241:257,1,140,0|0,3:2|1:2,2:2:0:0:
162,219,55445,1,0,3:2:0:0:
226,95,55730,1,0,3:3:0:0:
182,113,55826,1,0,1:2:0:0:
318,83,56111,6,0,L|198:171,1,140,0|0,3:2|1:2,2:2:0:0:
295,141,56587,2,0,L|215:261,1,140,0|0,3:2|3:2,2:2:0:0:
257,282,56968,1,0,1:2:0:0:
256,192,57254,12,0,59540,1:2:0:0:
228,80,60682,5,0,3:2:0:0:
120,168,60968,1,0,1:2:0:0:
208,280,61254,2,0,L|272:296,1,46.6666666666667,0|0,2:2|3:2,2:2:0:0:
312,224,61540,2,0,L|400:188,1,93.3333333333333,0|0,3:2|1:2,2:2:0:0:
400,144,61825,1,2,3:2:0:0:
