osu file format v9

[General]
AudioFilename: 22 - Tatakae! Bokura no Mech Hisui!.mp3
AudioLeadIn: 2000
PreviewTime: 31037
Countdown: 0
SampleSet: Normal
StackLeniency: 0.7
Mode: 0
LetterboxInBreaks: 0

[Editor]
DistanceSpacing: 1.2
BeatDivisor: 2
GridSize: 8

[Metadata]
Title:Tatakae! Bokura no Mech Hisui!
Artist:Raito
Creator:Faust
Version:New Moon
Source:Melty Blood
Tags:TYPE MOON Actress Again Mech Hisui

[Difficulty]
HPDrainRate:2
CircleSize:3
OverallDifficulty:2
ApproachRate:3
SliderMultiplier:0.8
SliderTickRate:1

[Events]
//Background and Video events
0,0,"Kohaku Garage.png"
//Break Periods
//Storyboard Layer 0 (Background)
//Storyboard Layer 1 (Fail)
//Storyboard Layer 2 (Pass)
//Storyboard Layer 3 (Foreground)
//Storyboard Sound Samples
//Background Colour Transformations
3,100,0,0,0

[TimingPoints]
685,352.941176470588,4,1,1,50,1,0
1390,-100,4,1,1,50,0,1
7567,-100,4,1,1,50,0,0
9508,-100,4,1,1,50,0,0
9860,352.941176470588,4,1,1,50,1,0
32448,-100,4,1,1,50,0,1
55036,-100,4,1,1,50,0,0
68801,-100,4,1,1,30,0,0

[Colours]
Combo1 : 100,50,45
Combo2 : 183,84,231
Combo3 : 232,233,207
Combo4 : 245,18,69

[HitObjects]
192,72,685,2,0,B|208:32|256:20|304:32|320:72,1,160,8|6
296,152,1743,1,8
216,152,2096,1,2
256,224,2449,2,2,B|256:384,2,160,8|2|8
256,192,4214,12,0,7567
48,192,8449,5,0
144,216,8802,1,0
240,208,9155,1,0
328,176,9508,1,0
416,136,9860,6,2,B|438:210|440:296,2,160,6|0|0
344,96,11624,2,0,B|338:51|344:16,2,80,8|2|8
280,152,12683,6,2,B|232:104|240:24,2,120,6|2|8
360,176,14095,1,2
384,296,14624,2,2,B|328:272|256:288,1,120,2|8
192,320,15507,5,4
120,280,15859,2,10,B|168:200|120:120,1,160,10|8
72,64,16918,1,2
44,140,17271,2,10,B|124:188|204:140,1,160,8|10
272,176,18330,6,0,B|280:304,2,120,4|2|8
336,120,19742,2,0,B|328:-8,2,120,2|2|8
408,160,21154,6,2,B|456:224|432:320,2,160,6|0|0
336,120,22918,2,0,B|256:112,2,80,8|2|8
336,200,23977,6,2,B|312:264|360:264|336:328,1,120,6|2
256,344,24859,2,2,B|200:320|136:336,1,120,2|2
56,216,25918,5,2
136,240,26271,2,0,B|192:272|256:248,1,120,2|4
336,208,27154,6,0,B|416:168|504:224,2,160,10|0|10
256,136,28918,2,0,B|168:136,1,80,0|8
256,192,29624,12,6,31742
408,40,32448,2,2,B|312:96|200:48,1,200,2|2
120,64,33683,2,2,B|64:160|112:272,1,200,2|2
200,304,34918,1,8
264,232,35271,6,2,B|360:224|416:296,2,160,2|2|2
200,184,37036,2,0,B|192:144|200:104,2,80,8|2|8
152,248,38095,6,2,B|152:336|256:396|360:336|360:248,2,320,6|2|6
80,152,41448,6,0,B|240:152,1,160,2|2
304,104,42507,1,2
368,152,42859,2,2,B|424:256|320:344,1,200,2|4
256,360,44095,6,2,B|96:368,2,160,10|10|10
296,288,45859,2,2,B|384:296,2,80,2|10|4
256,216,46918,6,10,B|242:131|256:48,2,160
192,272,48683,2,2,B|152:288|112:280,1,80,2|10
48,232,49389,6,2,B|0:144|32:32,2,200,6|2|8
120,192,51507,1,0
192,232,51859,6,10,B|352:240,2,160
256,192,53448,12,6,55036
88,48,55918,6,0,B|48:176,1,120,2|2
104,224,56801,1,8
112,304,57154,2,0,B|160:288|216:296,1,80,2|8
256,240,57859,6,0,B|320:272|400:256,2,120,6|2|8
208,176,59271,2,0,B|144:144|64:160,2,120,2|2|8
256,112,60683,5,4
320,64,61036,2,10,B|376:128|472:104,1,160,10|8
480,184,62095,1,2
416,232,62448,2,10,B|360:168|264:192,1,160,8|8
192,216,63507,6,0,B|64:264,2,120,4|2|8
152,144,64918,2,2,B|27:87,2,120,2|2|8
220,100,66330,1,6
256,192,66683,12,4,69154
