osu file format v6

[General]
AudioFilename: Sky-Blue Melody.mp3
AudioLeadIn: 0
PreviewTime: -1
Countdown: 0
SampleSet: Normal
StackLeniency: 0.7
Mode: 0
LetterboxInBreaks: 1

[Editor]
DistanceSpacing: 0.800000011920929
BeatDivisor: 8
GridSize: 32

[Metadata]
Title:Sky-Blue Melody
Artist:Raito
Creator:Deklowaz
Version:Hard
Source:Ragnarok Battle Offline
Tags:Ragnarok

[Difficulty]
HPDrainRate:10
CircleSize:6
OverallDifficulty:8
SliderMultiplier:1.5
SliderTickRate:1

[Events]
//Background and Video events
0,0,"rbo_logo.jpg"
//Break Periods
2,65177,71783
//Storyboard Layer 0 (Background)
//Storyboard Layer 1 (Fail)
//Storyboard Layer 2 (Pass)
//Storyboard Layer 3 (Foreground)
//Storyboard Sound Samples
//Background Colour Transformations
3,100,255,255,255

[TimingPoints]
7200.04714783568,444.444444444444,4,1,0,100,1,0

[HitObjects]
192,224,3088,2,0,B|288:224|288:160,1,112.5
256,160,3644,2,0,B|192:96|256:64,1,112.5
288,64,4311,1,0
320,64,4533,2,0,C|416:128|320:192|352:256|288:288,1,375
256,256,5866,1,8
228,244,5978,1,8
200,244,6090,1,8
173,256,6200,1,8
155,280,6311,1,12
256,256,7200,5,0
256,192,7644,1,0
256,128,8088,1,4
192,160,8533,5,0
160,192,8977,2,0,B|128:224|128:256|160:288|224:288,1,150
260,288,9644,1,0
288,288,9866,2,0,C|320:256|256:224|288:192,2,150
306,321,10977,1,0
288,352,11200,1,0
224,320,11422,5,0
224,288,11644,2,0,B|192:224|128:224|128:256,1,112.5
128,192,12311,1,0
128,160,12533,2,0,C|64:128|160:96|128:64,1,225
192,64,13422,1,0
160,128,13866,6,0,B|224:128|224:160,1,75
256,192,14311,2,0,B|288:192|288:128,2,75
224,192,14977,1,0
192,192,15200,1,4
160,96,15644,5,0
224,96,16088,2,0,C|256:32|288:160|320:64,1,300
352,96,17311,2,0,B|416:160|352:192,1,112.5
320,192,17866,1,0
256,192,18088,2,0,B|224:160,2,37.5
192,128,18533,6,0,B|256:96|192:64,1,75
160,64,19088,1,0
128,96,19311,1,0
160,128,19422,1,0
128,160,19644,2,0,B|160:224|256:224,1,150
288,192,20311,1,0
320,160,20533,1,0
320,64,20977,6,0,B|256:64|256:96,1,75
256,128,21422,1,0
256,192,21866,1,0
288,224,22088,1,0
256,256,22311,1,4
192,256,22755,5,0
160,256,23422,1,0
128,224,23644,1,0
128,192,23866,1,0
160,160,24088,1,0
192,160,24422,1,0
224,192,24755,1,0
224,224,24977,2,0,B|320:224|320:128,1,150
288,96,25644,5,0
256,96,25755,1,0
224,96,25866,1,0
192,64,26200,1,0
192,64,26533,1,0
224,32,26755,2,0,B|256:32|256:128|224:128,2,112.5
224,64,27644,2,0,B|224:160|352:160|384:64,1,225
416,64,28755,1,4
448,64,28977,1,4
448,96,29200,6,8,L|384:160,1,75
352,160,29755,1,8
320,160,29977,2,8,L|288:128,1,37.5
256,128,30311,2,8,B|192:128|192:32,1,112.5
160,64,30977,2,8,B|128:64|128:128,1,75
160,160,31533,1,8
192,160,31866,2,8,B|256:96,1,75
288,96,32311,1,12
320,96,32533,1,12
320,160,32977,6,0,C|256:256|192:160,1,225
192,128,33977,1,8
224,96,34088,1,8
256,96,34311,1,8
320,96,34533,5,8
352,128,34755,2,0,B|352:224|256:224,1,150
256,192,35422,12,4,36533
256,128,36977,5,0
256,192,37422,1,0
320,128,37866,1,0
352,160,38088,1,0
384,192,38311,2,8,L|320:256|256:128,1,225
224,128,39200,1,0
202,149,39311,1,8
224,170,39422,1,8
192,192,39644,1,8
213,213,39755,1,8
192,234,39866,1,8
224,256,40088,5,8
256,288,40311,2,0,L|320:224,1,75
320,256,40755,1,8
352,224,40977,1,8
369,199,41088,1,8
369,169,41200,1,8
351,111,41422,1,8
330,90,41533,1,8
303,78,41644,1,8
256,96,41866,6,0,L|192:160,2,75
288,128,42533,2,8,C|320:160|224:128|320:256,1,300
288,256,43533,1,8
266,234,43644,1,12
192,192,44088,6,0,C|192:32|288:128|416:32|480:160,2,600
96,192,48088,2,8,C|96:256|192:256,1,150
224,224,48755,2,8,C|192:192|224:160,1,75
288,160,49200,6,8,L|352:224,1,75
320,256,49644,1,8
298,277,49755,1,8
268,277,49866,1,8
247,298,50088,1,8
268,319,50199,1,8
290,340,50310,1,8
350,340,50533,2,12,L|269:340,1,75
384,96,51200,5,8
352,96,51422,1,0
320,96,51644,1,0
288,160,51866,2,0,B|256:96|160:96,1,150
128,96,52533,1,0
128,96,52866,1,8
96,128,53200,1,8
96,160,53422,1,0
128,192,53644,2,0,L|96:224,2,37.5
224,192,54088,6,0,L|256:160,1,37.5
256,192,54311,2,0,B|352:192|320:128,1,112.5
224,64,54977,1,0
288,64,55200,1,0
288,128,55533,1,0
288,192,55866,2,0,B|224:256,1,75
224,192,56311,1,8
288,192,56533,2,8,B|256:256|256:320|320:320,1,150
224,320,57200,1,8
305,318,57422,1,8
256,192,57866,5,0
256,128,58088,1,8
256,64,58311,1,8
192,64,58533,2,0,B|160:96|224:128,1,75
256,128,58977,1,8
256,128,59200,1,8
352,128,59422,6,0,L|320:160,1,37.5
320,192,59644,2,8,L|384:128,1,75
320,192,60088,1,8
373,138,60311,1,8
384,192,60533,2,8,B|320:256,1,75
320,192,60977,1,12
256,192,61422,6,0,L|192:256,1,75
160,256,61866,1,8
96,256,62088,1,8
96,192,62311,2,0,C|128:224|160:192,1,75
160,160,62755,1,8
128,160,62977,1,8
96,160,63200,1,0
64,128,63422,2,8,L|128:192,1,75
160,160,63866,1,0
160,192,64088,1,8
160,224,64311,1,8
160,256,64533,1,0
160,288,64644,1,8
160,320,64755,1,8
160,352,64866,1,8
160,384,64977,1,12
256,320,72533,6,0,L|128:32,1,300
128,224,73866,2,0,C|288:224|320:128|352:160,1,300
352,192,75200,2,0,L|192:192,1,150
160,160,75866,1,0
128,192,76088,1,0
128,128,76311,1,0
96,160,76533,1,0
64,128,76755,1,0
32,96,76977,1,0
53,74,77088,1,0
74,53,77200,1,0
128,96,77422,5,0
192,96,77755,2,0,L|288:160,1,112.5
320,192,78311,2,0,L|352:160,2,37.5
384,192,78755,2,4,B|352:128|288:64,1,150
256,32,79644,2,0,L|192:96|256:128,1,150
160,160,80533,1,0
181,181,80644,1,0
202,160,80755,1,0
223,181,80866,1,0
244,160,80977,1,4
320,96,81422,5,0
320,160,81866,1,0
384,160,82311,1,0
384,224,82755,2,0,C|352:192|320:224|320:192,1,112.5
320,160,83422,1,0
256,192,83644,1,0
256,128,84088,1,0
256,64,84533,1,0
256,192,85866,5,0
192,192,86311,2,0,B|128:224|128:288|192:320,1,150
256,192,87200,2,0,B|320:224|320:288|256:320,1,150
224,320,88088,1,0
224,256,88366,5,0
224,192,88700,1,0
224,64,88977,1,0
224,128,89311,1,0
288,64,89644,1,0
309,85,89755,1,0
330,106,89866,1,0
416,128,90311,2,0,L|352:192,1,75
320,224,90755,1,0
256,224,91200,1,0
128,224,91422,1,0
192,96,91644,1,0
224,192,92088,2,0,B|128:192|96:128,1,150
96,192,92866,5,0
256,192,93144,1,0
416,192,93422,1,0
192,224,93866,2,0,B|288:224|320:160,1,150
288,96,94755,2,0,L|224:160,2,75
256,192,96533,5,8
352,96,96755,1,8
160,96,96977,1,8
256,192,97422,12,0,99200
192,192,100533,6,0,B|224:256|256:224|288:192,1,112.5
320,160,101200,1,0
341,181,101311,1,0
320,202,101422,1,0
341,223,101533,1,0
320,244,101644,2,0,B|224:320|128:192,1,225
96,160,103644,1,0
256,192,103866,1,0
416,224,104088,1,4
224,160,105422,5,0
320,96,105644,1,0
320,224,105866,1,0
256,192,106311,12,0,107644
320,96,108311,5,0
320,128,108977,1,8
320,160,109088,1,8
320,192,109200,1,8
320,224,109311,1,8
320,256,109422,1,8
320,224,109644,6,0,B|256:160|96:160|64:256|224:352,1,375
256,352,110866,1,0
288,352,110977,1,0
352,352,111200,6,0,B|416:224|352:96|160:96|96:192,1,450
96,224,112755,1,8
96,256,112977,1,8
128,256,113200,1,8
160,256,113311,1,8
192,256,113422,1,8
256,192,113644,12,4,114755
288,192,114977,5,0
320,192,115088,1,0
352,192,115200,1,0
384,192,115422,1,0
416,192,115644,1,0
416,128,116088,5,0
352,128,116311,1,0
288,128,116533,1,0
224,128,116977,1,0
224,192,117422,1,0
256,224,117866,1,0
256,224,117977,1,0
256,224,118088,1,0
192,224,118311,1,0
128,192,118755,2,0,C|160:160|128:128|128:64,1,150
192,64,119477,5,0
320,64,119811,1,0
448,64,120088,1,4
256,192,120755,5,0
277,213,120866,1,0
298,234,120977,1,0
340,276,121200,1,0
288,288,121422,2,0,L|224:224,1,75
192,192,121866,1,0
256,160,122533,1,0
352,64,123422,1,0
256,192,123644,12,0,124977
320,128,125422,5,4
256,128,126088,1,0
256,64,126533,1,0
256,128,126866,1,0
192,128,127200,1,0
192,192,127644,5,8
192,224,127755,1,8
192,256,127866,1,8
224,256,128088,1,8
256,256,128311,1,8
288,224,128422,1,8
288,192,128533,1,8
352,192,128755,6,0,B|416:192|416:224,1,75
448,192,129422,1,0
448,128,129644,1,0
448,64,130088,1,0
448,0,130533,1,0
384,0,130977,1,8
384,29,131088,1,8
362,51,131200,1,8
352,96,131422,1,8
352,128,131644,1,8
320,160,131866,1,8
341,181,131977,1,8
371,181,132088,1,8
384,256,132311,5,0
320,256,132533,1,4
320,192,132978,1,0
320,128,133200,1,8
320,96,133311,1,0
320,64,133422,1,0
320,64,133644,1,8
290,58,133755,1,0
261,64,133866,1,0
235,79,133977,1,0
219,104,134088,1,8
256,192,134755,12,4,136088
