osu file format v12

[General]
AudioFilename: Raito - Basilica.mp3
AudioLeadIn: 2000
PreviewTime: 5469
Countdown: 0
SampleSet: Soft
StackLeniency: 0.3
Mode: 0
LetterboxInBreaks: 0

[Editor]
Bookmarks: 40740
DistanceSpacing: 2
BeatDivisor: 4
GridSize: 8

[Metadata]
Title:Basilica
TitleUnicode:Basilica
Artist:Raito
ArtistUnicode:Raito
Creator:Melt
Version:Half Moon
Source:Melty Blood
Tags:Type Moon Ciel Actress Again tsukihime MBAACC
BeatmapID:259062
BeatmapSetID:95607

[Difficulty]
HPDrainRate:5
CircleSize:4
OverallDifficulty:5
ApproachRate:7
SliderMultiplier:1.6
SliderTickRate:1

[Events]
//Background and Video events
0,0,"Basilica BG.jpg",0,0
//Break Periods
//Storyboard Layer 0 (Background)
//Storyboard Layer 1 (Fail)
//Storyboard Layer 2 (Pass)
//Storyboard Layer 3 (Foreground)
//Storyboard Sound Samples
//Background Colour Transformations
3,100,163,162,255

[TimingPoints]
596,405.405405405405,4,2,1,20,1,0
5359,-100,4,1,0,25,0,0
7082,-90.9090909090909,4,2,1,30,0,1
7183,-90.9090909090909,4,2,1,40,0,1
19954,-90.9090909090909,4,2,1,40,0,0
20055,-90.9090909090909,4,2,1,40,0,1
34650,-100,4,2,1,20,0,0
35004,-100,4,2,1,40,0,0
41085,-133.333333333333,4,2,1,40,0,0
42099,-100,4,2,1,40,0,0
44329,-133.333333333333,4,2,1,40,0,0
45545,-100,4,2,1,40,0,0
60595,-90.9090909090909,4,2,1,40,0,1
68653,-90.9090909090909,4,2,1,35,0,1
70275,-90.9090909090909,4,2,1,30,0,1
71947,-100,4,2,1,25,0,0
72707,-100,4,2,1,20,0,0
76761,-100,4,2,1,5,0,0

[Colours]
Combo1 : 171,46,46
Combo2 : 60,60,60
Combo3 : 170,170,170
Combo4 : 125,210,251
Combo5 : 169,233,209

[HitObjects]
256,112,596,1,4,0:0:0:0:
256,136,2285,1,4,0:0:0:0:
256,160,3839,1,4,0:0:0:0:
50,67,5460,6,0,P|19:140|65:230,2,160,4|0|4,0:0|0:0|0:0,0:0:0:0:
109,142,6474,2,0,L|213:142,1,80,0|4,0:0|0:0,0:0:0:0:
388,70,7082,6,0,P|313:36|210:97,1,176.000005371094,6|8,0:0|0:0,0:0:0:0:
308,140,7690,1,0,0:0:0:0:
230,212,7893,2,0,P|305:246|408:185,1,176.000005371094,2|8,0:0|0:0,0:0:0:0:
484,25,8704,2,0,L|464:147,1,88.000002685547,2|0,0:0|0:0,0:0:0:0:
495,214,9109,2,0,P|474:316|389:352,1,176.000005371094,10|0,0:0|0:0,0:0:0:0:
311,344,9717,6,0,L|208:376,2,88.000002685547,0|10|2,0:0|0:0|0:0,0:0:0:0:
226,280,10325,2,0,B|145:312|89:260|89:260|28:290,1,176.000005371094,2|8,0:0|0:0,0:0:0:0:
63,273,10933,1,0,0:0:0:0:
40,170,11136,2,0,L|22:77,1,88.000002685547,2|0,0:0|0:0,0:0:0:0:
92,3,11541,2,0,L|110:96,1,88.000002685547,10|0,0:0|0:0,0:0:0:0:
184,163,11947,2,0,P|227:173|271:162,2,88.000002685547,2|0|10,0:0|0:0|0:0,0:0:0:0:
496,109,12960,22,0,L|514:202,2,88.000002685547,2|8|2,0:0|0:0|0:0,0:0:0:0:
431,25,13568,2,0,P|348:-6|263:32,1,176.000005371094,6|8,0:0|0:0,0:0:0:0:
249,128,14177,1,0,0:0:0:0:
349,98,14379,2,0,L|349:195,1,88.000002685547,2|0,0:0|0:0,0:0:0:0:
248,305,14785,2,0,L|248:218,1,88.000002685547,10|0,0:0|0:0,0:0:0:0:
248,305,15190,6,0,P|161:338|72:286,1,176.000005371094,6|8,0:0|0:0,0:0:0:0:
89,307,15798,1,0,0:0:0:0:
169,237,16001,2,0,L|169:133,1,88.000002685547,2|0,0:0|0:0,0:0:0:0:
307,71,16406,2,0,L|307:159,1,88.000002685547,10|0,0:0|0:0,0:0:0:0:
204,34,16812,2,0,P|325:71|480:14,1,264.000008056641,2|0,0:0|0:0,0:0:0:0:
487,134,17623,2,0,P|475:183|513:249,3,88.000002685547,2|0|10|0,0:0|0:0|0:0|0:0,0:0:0:0:
400,280,18433,5,2,0:0:0:0:
400,280,18636,1,0,0:0:0:0:
256,344,18839,1,10,0:0:0:0:
256,344,19041,1,0,0:0:0:0:
112,280,19244,1,2,0:0:0:0:
112,280,19447,1,0,0:0:0:0:
256,216,19650,1,10,0:0:0:0:
336,100,20055,6,0,P|228:71|162:120,1,176.000005371094,6|8,0:0|0:0,0:0:0:0:
78,63,20663,1,0,0:0:0:0:
2,137,20866,2,0,P|-13:235|48:319,1,176.000005371094,2|8,0:0|0:0,0:0:0:0:
229,344,21677,2,0,P|264:336|319:346,1,88.000002685547,2|0,0:0|0:0,0:0:0:0:
418,367,22082,2,0,P|457:283|414:191,1,176.000005371094,10|0,0:0|0:0,0:0:0:0:
400,107,22690,22,0,P|440:102|489:120,2,88.000002685547,0|10|2,0:0|0:0|0:0,0:0:0:0:
346,15,23298,2,0,P|295:76|339:192,1,176.000005371094,2|8,0:0|0:0,0:0:0:0:
310,165,23906,1,0,0:0:0:0:
204,166,24109,2,0,L|106:166,1,88.000002685547,2|0,0:0|0:0,0:0:0:0:
184,85,24514,2,0,L|86:85,1,88.000002685547,10|0,0:0|0:0,0:0:0:0:
29,167,24920,1,2,0:0:0:0:
96,248,25123,1,0,0:0:0:0:
168,324,25325,2,0,P|251:296|341:332,1,176.000005371094,10|0,0:0|0:0,0:0:0:0:
331,324,25933,6,0,L|331:236,2,88.000002685547,2|10|0,0:0|0:0|0:0,0:0:0:0:
409,164,26541,2,0,L|409:353,1,176.000005371094,6|8,0:0|0:0,0:0:0:0:
486,267,27150,1,0,0:0:0:0:
486,267,27352,2,0,L|486:179,1,88.000002685547,2|0,0:0|0:0,0:0:0:0:
409,4,27758,2,0,L|409:105,1,88.000002685547,10|0,0:0|0:0,0:0:0:0:
486,179,28163,6,0,P|396:207|312:155,1,176.000005371094,6|8,0:0|0:0,0:0:0:0:
246,103,28771,1,0,0:0:0:0:
149,146,28974,2,0,P|102:155|62:145,3,88.000002685547,2|0|8|0,0:0|0:0|0:0|0:0,0:0:0:0:
24,47,29785,2,0,P|63:140|15:303,1,264.000008056641,2|0,0:0|0:0,0:0:0:0:
106,357,30595,2,0,P|175:339|256:376,2,132.00000402832,2|2|0,0:0|0:0|0:0,0:0:0:0:
106,357,31406,5,2,0:0:0:0:
51,266,31609,1,0,0:0:0:0:
132,198,31812,2,0,P|261:237|398:184,1,264.000008056641,10|0,0:0|0:0,0:0:0:0:
325,107,32623,1,8,0:0:0:0:
186,106,33028,1,2,0:0:0:0:
256,8,33433,1,10,0:0:0:0:
256,188,34244,21,8,0:0:0:0:
256,188,34650,1,0,1:0:0:0:
38,233,35055,2,0,P|107:256|203:216,2,160,0|0|8,0:0|0:0|0:0,0:0:0:0:
210,152,36271,2,0,P|187:218|219:315,1,160,2|8,0:0|0:0,0:0:0:0:
284,363,36879,1,0,0:0:0:0:
359,303,37082,2,0,P|430:324|531:291,2,160,2|8|2,0:0|0:0|0:0,0:0:0:0:
484,67,38298,6,0,L|502:235,2,160,8|2|8,0:0|0:0|0:0,0:0:0:0:
484,67,39514,1,2,0:0:0:0:
256,24,40123,1,2,0:0:0:0:
336,64,40325,2,0,L|295:145,1,80,2|0,0:0|0:0,0:0:0:0:
176,64,40731,2,0,L|217:145,1,80,10|0,0:0|0:0,0:0:0:0:
367,209,41136,38,0,P|268:248|139:204,1,240.000009155274,2|0,0:0|0:0,0:0:0:0:
88,130,42150,6,0,P|95:91|78:45,2,80,0|10|2,0:0|0:0|0:0,0:0:0:0:
54,221,42758,2,0,P|11:287|18:373,1,160,2|8,0:0|0:0,0:0:0:0:
146,209,43568,2,0,P|189:143|182:57,1,160,2|8,0:0|0:0,0:0:0:0:
76,28,44379,54,0,P|182:64|301:26,1,240.000009155274,2|0,0:0|0:0,0:0:0:0:
300,27,45595,5,8,0:0:0:0:
482,2,46001,2,0,P|482:86|430:153,1,160,2|8,0:0|0:0,0:0:0:0:
364,208,46609,1,0,0:0:0:0:
380,302,46812,2,0,L|392:382,1,80,2|0,0:0|0:0,0:0:0:0:
303,342,47217,2,0,L|291:262,1,80,10|0,0:0|0:0,0:0:0:0:
278,167,47623,6,0,P|192:156|119:204,1,160,6|8,0:0|0:0,0:0:0:0:
364,208,48433,2,0,P|450:219|523:171,1,160,2|8,0:0|0:0,0:0:0:0:
278,167,49244,2,0,P|250:244|278:327,2,160,2|8|2,0:0|0:0|0:0,0:0:0:0:
278,167,50460,1,8,0:0:0:0:
99,96,50866,6,0,P|167:72|259:96,1,160,0|8,0:0|0:0,0:0:0:0:
180,270,51677,2,0,P|112:294|20:270,1,160,2|8,0:0|0:0,0:0:0:0:
99,96,52487,1,2,0:0:0:0:
99,96,52893,2,0,P|168:64|257:97,1,160,8|0,0:0|0:0,0:0:0:0:
177,165,53501,2,0,L|182:257,2,80,0|10|2,0:0|0:0|0:0,0:0:0:0:
246,87,54109,5,2,0:0:0:0:
389,72,54514,1,8,0:0:0:0:
266,297,54920,1,2,0:0:0:0:
123,312,55325,1,8,0:0:0:0:
14,222,55731,2,0,P|-15:288|5:384,2,160,2|8|2,0:0|0:0|0:0,0:0:0:0:
14,222,56947,1,10,0:0:0:0:
107,92,57352,22,0,P|254:43|426:108,1,320,6|0,0:0|0:0,0:0:0:0:
406,91,58568,1,10,0:0:0:0:
480,233,58974,2,0,P|401:259|325:227,1,160,2|8,0:0|0:0,0:0:0:0:
248,184,59582,1,0,0:0:0:0:
172,244,59785,2,0,L|76:252,1,80,2|0,0:0|0:0,0:0:0:0:
28,178,60190,2,0,L|108:172,1,80,10|0,0:0|0:0,0:0:0:0:
176,60,60595,6,0,P|252:30|337:61,1,176.000005371094,6|8,0:0|0:0,0:0:0:0:
256,129,61204,1,0,0:0:0:0:
336,197,61406,2,0,P|260:227|175:196,1,176.000005371094,2|8,0:0|0:0,0:0:0:0:
1,75,62217,2,0,L|8:178,1,88.000002685547,2|0,0:0|0:0,0:0:0:0:
0,266,62623,2,0,P|88:265|145:325,1,176.000005371094,10|0,0:0|0:0,0:0:0:0:
250,338,63231,6,0,L|332:368,2,88.000002685547,0|10|2,0:0|0:0|0:0,0:0:0:0:
327,266,63839,2,0,P|413:292|512:249,1,176.000005371094,2|8,0:0|0:0,0:0:0:0:
492,266,64447,1,0,0:0:0:0:
464,163,64650,2,0,L|439:55,1,88.000002685547,2|0,0:0|0:0,0:0:0:0:
344,60,65055,2,0,L|364:146,1,88.000002685547,10|0,0:0|0:0,0:0:0:0:
264,129,65460,2,0,L|239:21,2,88.000002685547,2|0|10,0:0|0:0|0:0,0:0:0:0:
24,284,66474,6,0,L|49:392,2,88.000002685547,2|10|2,0:0|0:0|0:0,0:0:0:0:
0,181,67082,2,0,P|86:198|170:126,1,176.000005371094,4|8,0:0|0:0,0:0:0:0:
65,96,67690,1,0,0:0:0:0:
155,42,67893,2,0,L|262:54,1,88.000002685547,2|0,0:0|0:0,0:0:0:0:
348,171,68298,2,0,L|241:159,1,88.000002685547,10|0,0:0|0:0,0:0:0:0:
401,104,68704,22,0,P|432:175|362:257,1,176.000005371094,6|8,0:0|0:0,0:0:0:0:
433,342,69312,1,0,0:0:0:0:
327,343,69514,2,0,L|230:343,1,88.000002685547,2|0,0:0|0:0,0:0:0:0:
115,241,69920,2,0,L|212:241,1,88.000002685547,10|0,0:0|0:0,0:0:0:0:
73,344,70325,2,0,P|112:262|69:96,1,264.000008056641,2|0,0:0|0:0,0:0:0:0:
123,17,71136,2,0,L|29:17,1,88.000002685547,2|0,0:0|0:0,0:0:0:0:
174,105,71541,2,0,L|268:105,1,88.000002685547,10|0,0:0|0:0,0:0:0:0:
353,195,71947,5,2,0:0:0:0:
353,195,72150,1,0,0:0:0:0:
159,195,72352,1,10,0:0:0:0:
159,195,72555,1,0,0:0:0:0:
256,256,72758,2,0,L|256:361,2,80,2|0|10,0:0|0:0|0:0,0:0:0:0:
256,256,73568,1,4,0:0:0:0:
256,192,73670,12,0,76812,0:0:0:0:
