osu file format v12

[General]
AudioFilename: Raito - Basilica.mp3
AudioLeadIn: 2000
PreviewTime: 5469
Countdown: 0
SampleSet: Soft
StackLeniency: 0.3
Mode: 0
LetterboxInBreaks: 0

[Editor]
Bookmarks: 40740
DistanceSpacing: 1
BeatDivisor: 4
GridSize: 8

[Metadata]
Title:Basilica
TitleUnicode:Basilica
Artist:Raito
ArtistUnicode:Raito
Creator:Melt
Version:Full Moon
Source:Melty Blood
Tags:Type Moon Ciel Actress Again tsukihime MBAACC
BeatmapID:256670
BeatmapSetID:95607

[Difficulty]
HPDrainRate:6
CircleSize:4
OverallDifficulty:7
ApproachRate:8
SliderMultiplier:2
SliderTickRate:2

[Events]
//Background and Video events
0,0,"Basilica BG.jpg",0,0
//Break Periods
//Storyboard Layer 0 (Background)
//Storyboard Layer 1 (Fail)
//Storyboard Layer 2 (Pass)
//Storyboard Layer 3 (Foreground)
//Storyboard Sound Samples
//Background Colour Transformations
3,100,163,162,255

[TimingPoints]
596,405.405405405405,4,2,1,20,1,0
5359,-100,4,1,0,25,0,0
7082,-83.3333333333333,4,2,1,30,0,1
7183,-83.3333333333333,4,2,1,40,0,1
13518,-125,4,2,1,40,0,1
14126,-83.3333333333333,4,2,1,40,0,1
15139,-125,4,2,1,40,0,1
15748,-83.3333333333333,4,2,1,40,0,1
19954,-83.3333333333333,4,2,1,40,0,0
20055,-83.3333333333333,4,2,1,40,0,1
26491,-125,4,2,1,40,0,1
27099,-83.3333333333333,4,2,1,40,0,1
28112,-125,4,2,1,40,0,1
28720,-83.3333333333333,4,2,1,40,0,1
34650,-100,4,2,1,20,0,0
35004,-100,4,2,1,40,0,0
41085,-125,4,2,1,40,0,0
42099,-100,4,2,1,40,0,0
43315,-100,4,2,1,40,0,0
44329,-125,4,2,1,40,0,0
45545,-100,4,2,1,40,0,0
51626,-83.3333333333333,4,2,1,40,0,0
52437,-100,4,2,1,40,0,0
60595,-83.3333333333333,4,2,1,40,0,1
67031,-125,4,2,1,40,0,1
67639,-83.3333333333333,4,2,1,40,0,1
68653,-125,4,2,1,40,0,1
69261,-83.3333333333333,4,2,1,35,0,1
70275,-83.3333333333333,4,2,1,30,0,1
71085,-83.3333333333333,4,2,1,25,0,1
71947,-100,4,2,1,20,0,0
76761,-100,4,2,1,5,0,0

[Colours]
Combo1 : 171,46,46
Combo2 : 60,60,60
Combo3 : 170,170,170
Combo4 : 125,210,251
Combo5 : 169,233,209

[HitObjects]
256,40,596,1,4,0:0:0:0:
8,304,2285,1,4,0:0:0:0:
504,304,3839,1,4,0:0:0:0:
176,64,5460,6,0,L|120:160,1,100,4|0,0:0|0:0,0:0:0:0:
336,64,5866,2,0,L|392:160,1,100,4|0,0:0|0:0,0:0:0:0:
256,352,6271,1,4,0:0:0:0:
256,216,6474,2,0,L|256:157,2,50,0|0|4,0:0|0:0|0:0,0:0:0:0:
256,216,6879,1,4,0:0:0:0:
0,252,7082,6,0,P|74:306|219:279,1,239.999992675781,4|8,0:0|0:0,0:0:0:0:
374,312,7690,1,0,0:0:0:0:
512,150,7893,2,0,P|451:143|392:180,1,119.999996337891,2|0,0:0|0:0,0:0:0:0:
374,312,8298,1,10,2:0:0:0:
214,283,8501,1,0,0:0:0:0:
0,315,8704,2,0,P|54:333|129:308,1,119.999996337891,2|0,0:0|0:0,0:0:0:0:
158,159,9109,2,0,P|122:215|144:388,1,239.999992675781,10|0,0:0|0:0,0:0:0:0:
213,220,9717,6,2,P|189:278|222:353,2,119.999996337891,0|10|2,0:0|0:0|0:0,0:0:0:0:
500,278,10325,2,0,P|382:310|227:254,1,239.999992675781,0|8,0:0|0:0,0:0:0:0:
149,193,10933,1,0,0:0:0:0:
119,51,11136,2,0,P|63:35|-12:55,2,119.999996337891,2|0|10,0:0|0:0|0:0,0:0:0:0:
149,193,11744,1,0,0:0:0:0:
264,96,11947,1,2,0:0:0:0:
512,147,12150,1,2,0:0:0:0:
512,147,12251,1,0,0:0:0:0:
512,147,12352,2,0,P|405:188|273:163,1,239.999992675781,10|0,0:0|0:0,0:0:0:0:
31,44,12960,22,0,L|86:66,1,59.9999981689454,10|0,0:0|0:0,0:0:0:0:
57,138,13163,2,0,L|112:160,1,59.9999981689454,10|0,0:0|0:0,0:0:0:0:
83,232,13366,2,0,L|139:255,1,59.9999981689454,2|0,0:0|0:0,0:0:0:0:
178,330,13568,54,0,P|254:310|341:335,1,160,6|8,0:0|0:0,0:0:0:0:
512,238,14177,5,2,0:0:0:0:
500,246,14278,1,0,0:0:0:0:
487,251,14379,2,0,P|429:262|357:239,1,119.999996337891,2|0,0:0|0:0,0:0:0:0:
139,255,14785,2,0,P|197:244|268:266,1,119.999996337891,10|0,0:0|0:0,0:0:0:0:
281,16,15190,54,0,P|313:75|301:168,1,160,6|8,0:0|0:0,0:0:0:0:
255,373,15798,5,2,0:0:0:0:
255,373,15900,1,0,0:0:0:0:
255,373,16001,2,0,P|238:311|266:246,1,119.999996337891,2|0,0:0|0:0,0:0:0:0:
373,319,16406,1,8,0:0:0:0:
512,230,16609,5,2,0:0:0:0:
512,230,16710,1,0,0:0:0:0:
512,230,16812,2,0,P|392:240|296:171,1,239.999992675781,4|8,0:0|0:0,0:0:0:0:
473,165,17420,1,2,0:0:0:0:
473,165,17521,1,0,0:0:0:0:
473,165,17623,2,0,P|420:169|359:129,1,119.999996337891,2|0,0:0|0:0,0:0:0:0:
168,48,18028,1,10,0:0:0:0:
344,48,18231,1,0,0:0:0:0:
393,256,18433,6,0,L|434:313,3,59.9999981689454,2|0|0|0,0:0|0:0|0:0|0:0,0:0:0:0:
256,288,18839,2,0,L|256:348,3,59.9999981689454,10|0|0|0,0:0|0:0|0:0|0:0,0:0:0:0:
119,256,19244,2,0,L|83:304,4,59.9999981689454,2|0|0|0|2,0:0|0:0|0:0|0:0|0:0,0:0:0:0:
0,96,20055,6,0,P|104:146|244:91,1,239.999992675781,6|8,0:0|0:0,0:0:0:0:
378,77,20663,1,0,0:0:0:0:
283,24,20866,1,2,0:0:0:0:
315,167,21068,1,0,0:0:0:0:
219,114,21271,1,10,0:0:0:0:
337,260,21474,1,0,0:0:0:0:
199,306,21677,2,0,P|136:290|84:305,1,119.999996337891,2|0,0:0|0:0,0:0:0:0:
287,345,22082,2,0,P|410:366|507:314,1,239.999992675781,10|0,0:0|0:0,0:0:0:0:
430,136,22690,22,0,P|413:188|446:268,2,119.999996337891,0|10|2,0:0|0:0|0:0,0:0:0:0:
287,39,23298,2,0,P|410:18|507:69,1,239.999992675781,2|8,0:0|0:0,0:0:0:0:
504,192,23906,1,0,0:0:0:0:
343,172,24109,2,0,P|280:188|229:171,2,119.999996337891,2|2|8,0:0|0:0|0:0,0:0:0:0:
287,39,24717,1,0,0:0:0:0:
146,68,24920,1,2,0:0:0:0:
7,29,25123,1,2,0:0:0:0:
7,29,25224,1,0,0:0:0:0:
7,29,25325,2,0,B|-20:133|65:185|65:185|28:239,1,239.999992675781,10|8,0:0|0:0,0:0:0:0:
214,382,25933,6,0,L|249:333,1,59.9999981689454,2|0,0:0|0:0,0:0:0:0:
323,356,26136,2,0,L|358:307,1,59.9999981689454,10|0,0:0|0:0,0:0:0:0:
432,329,26339,2,0,L|467:280,1,59.9999981689454,2|0,0:0|0:0,0:0:0:0:
512,209,26541,38,0,P|518:116|469:50,1,160,6|8,0:0|0:0,0:0:0:0:
286,101,27150,21,2,0:0:0:0:
286,101,27251,1,0,0:0:0:0:
286,101,27352,2,0,P|350:117|423:85,1,119.999996337891,2|0,0:0|0:0,0:0:0:0:
200,61,27758,2,0,P|136:45|63:77,1,119.999996337891,10|0,0:0|0:0,0:0:0:0:
9,5,28163,38,0,B|-23:77|23:128|23:128|22:178,1,160,6|8,0:0|0:0,0:0:0:0:
19,346,28771,21,0,0:0:0:0:
19,346,28873,1,0,0:0:0:0:
19,346,28974,2,0,P|2:285|22:226,1,119.999996337891,2|0,0:0|0:0,0:0:0:0:
132,150,29379,1,8,0:0:0:0:
357,222,29582,1,0,0:0:0:0:
357,222,29683,1,0,0:0:0:0:
357,222,29785,2,0,P|271:296|142:287,1,239.999992675781,6|8,0:0|0:0,0:0:0:0:
447,163,30393,5,2,0:0:0:0:
447,163,30494,1,0,0:0:0:0:
447,163,30595,2,0,P|489:238|450:362,2,179.999994506836,2|2|0,0:0|0:0|0:0,0:0:0:0:
357,222,31406,2,0,P|337:157|366:91,1,119.999996337891,2|0,0:0|0:0,0:0:0:0:
466,28,31812,2,0,P|293:85|115:13,1,359.999989013672,8|0,0:0|0:0,0:0:0:0:
10,111,32623,38,0,P|51:110|136:169,1,119.999996337891,8|0,0:0|0:0,0:0:0:0:
256,192,33028,1,2,0:0:0:0:
256,311,33231,1,0,0:0:0:0:
246,326,33332,1,0,0:0:0:0:
236,341,33433,1,10,0:0:0:0:
256,192,33535,12,0,34244,0:0:0:0:
256,72,34650,37,4,1:0:0:0:
0,182,35055,2,0,L|123:129,1,100,8|0,0:0|0:0,0:0:0:0:
190,211,35460,2,0,L|98:250,1,100,2|0,0:0|0:0,0:0:0:0:
196,319,35866,2,0,L|288:280,1,100,8|0,0:0|0:0,0:0:0:0:
376,361,36271,2,0,P|417:279|361:184,1,200,2|8,0:0|0:0,0:0:0:0:
288,281,36879,1,0,0:0:0:0:
288,281,37082,2,0,P|192:319|99:283,2,200,2|8|0,0:0|0:0|0:0,0:0:0:0:
18,116,38298,22,0,P|63:132|139:115,1,100,8|0,0:0|0:0,0:0:0:0:
304,168,38704,2,0,P|256:157|206:167,1,100,2|0,0:0|0:0,0:0:0:0:
397,126,39109,2,0,P|448:131|493:115,1,100,8|0,0:0|0:0,0:0:0:0:
340,39,39514,2,0,P|295:125|372:227,1,200,2|8,0:0|0:0,0:0:0:0:
507,291,40123,2,0,L|428:317,1,50,2|0,0:0|0:0,0:0:0:0:
388,333,40325,1,2,0:0:0:0:
267,291,40528,1,0,0:0:0:0:
124,51,40731,1,10,0:0:0:0:
245,93,40933,1,0,0:0:0:0:
444,57,41136,54,0,P|292:59|194:186,1,320,2|0,0:0|0:0,0:0:0:0:
91,264,42150,22,0,P|135:278|186:264,2,100,2|10|0,0:0|0:0|0:0,0:0:0:0:
58,357,42758,2,0,P|87:233|53:169,1,200,2|8,0:0|0:0,0:0:0:0:
20,95,43366,1,2,0:0:0:0:
35,97,43467,1,0,0:0:0:0:
50,99,43568,2,0,L|169:111,1,100,2|0,0:0|0:0,0:0:0:0:
386,38,43974,2,0,L|267:26,1,100,10|0,0:0|0:0,0:0:0:0:
249,122,44379,38,0,P|278:241|451:348,1,320,2|0,0:0|0:0,0:0:0:0:
459,134,45595,37,8,0:0:0:0:
441,272,46001,2,0,P|359:226|323:114,1,200,2|8,0:0|0:0,0:0:0:0:
322,131,46609,1,0,0:0:0:0:
144,70,46812,1,2,0:0:0:0:
32,25,47014,1,0,0:0:0:0:
61,238,47217,1,10,0:0:0:0:
1,133,47420,1,0,0:0:0:0:
0,353,47623,6,0,P|99:361|177:291,1,200,6|8,0:0|0:0,0:0:0:0:
275,238,48231,1,0,0:0:0:0:
365,315,48433,2,0,L|503:284,1,100,2|0,0:0|0:0,0:0:0:0:
512,183,48839,2,0,L|374:214,1,100,8|0,0:0|0:0,0:0:0:0:
275,238,49244,1,2,0:0:0:0:
135,205,49447,1,0,0:0:0:0:
0,249,49650,2,0,P|13:297|6:348,2,100,8|2|2,0:0|0:0|0:0,0:0:0:0:
34,113,50258,22,0,P|21:65|27:13,2,100,2|10|0,0:0|0:0|0:0,0:0:0:0:
135,205,50866,1,2,0:0:0:0:
135,205,51068,2,0,P|185:215|261:186,1,100,0|8,0:0|0:0,0:0:0:0:
367,277,51474,1,0,0:0:0:0:
367,277,51575,1,0,0:0:0:0:
367,277,51677,22,0,L|308:171,1,119.999996337891,2|0,0:0|0:0,0:0:0:0:
386,0,52082,2,0,L|445:106,1,119.999996337891,10|0,0:0|0:0,0:0:0:0:
506,225,52487,1,2,0:0:0:0:
480,368,52690,1,0,0:0:0:0:
367,277,52893,2,0,P|266:249|144:305,1,200,10|0,0:0|0:0,0:0:0:0:
97,298,53501,54,0,P|48:309|-10:294,2,100,0|10|0,0:0|0:0|0:0,0:0:0:0:
49,168,54109,1,0,0:0:0:0:
0,40,54312,2,0,P|49:29|107:44,1,100,2|10,0:0|0:0,0:0:0:0:
256,48,54717,1,2,0:0:0:0:
256,48,54818,1,0,0:0:0:0:
256,48,54920,1,2,0:0:0:0:
400,112,55123,1,0,0:0:0:0:
256,48,55325,1,10,0:0:0:0:
112,112,55528,1,0,0:0:0:0:
256,336,55731,5,2,0:0:0:0:
112,272,55933,1,0,0:0:0:0:
256,336,56136,1,10,0:0:0:0:
400,272,56339,1,0,0:0:0:0:
256,48,56541,1,2,0:0:0:0:
256,48,56947,1,10,0:0:0:0:
431,130,57352,6,0,P|250:47|62:158,1,400,6|0,0:0|0:0,0:0:0:0:
256,192,58568,1,10,0:0:0:0:
346,291,58771,1,2,0:0:0:0:
346,291,58873,1,0,0:0:0:0:
346,291,58974,2,0,P|246:326|147:274,1,200,2|0,0:0|0:0,0:0:0:0:
1,324,59582,21,2,0:0:0:0:
17,305,59683,1,0,0:0:0:0:
30,283,59785,1,2,0:0:0:0:
40,260,59886,1,0,0:0:0:0:
47,236,59987,1,2,0:0:0:0:
49,210,60089,1,0,0:0:0:0:
49,185,60190,1,10,0:0:0:0:
45,160,60291,1,0,0:0:0:0:
38,135,60393,1,2,0:0:0:0:
28,112,60494,1,0,0:0:0:0:
19,89,60595,6,0,B|83:77|83:77|143:151|242:116,1,239.999992675781,6|8,0:0|0:0,0:0:0:0:
183,8,61204,1,0,0:0:0:0:
342,65,61406,1,2,0:0:0:0:
512,116,61609,1,0,0:0:0:0:
342,171,61812,1,10,0:0:0:0:
445,32,62014,1,0,0:0:0:0:
444,204,62217,2,0,P|485:255|477:317,1,119.999996337891,2|0,0:0|0:0,0:0:0:0:
182,311,62623,2,0,P|319:326|432:248,1,239.999992675781,10|0,0:0|0:0,0:0:0:0:
107,264,63231,6,0,P|96:328|121:374,2,119.999996337891,0|10|2,0:0|0:0|0:0,0:0:0:0:
0,152,63839,2,0,P|114:107|225:158,1,239.999992675781,2|8,0:0|0:0,0:0:0:0:
217,150,64447,1,0,0:0:0:0:
322,332,64650,1,2,0:0:0:0:
267,239,64852,1,0,0:0:0:0:
383,238,65055,1,10,0:0:0:0:
363,132,65258,1,0,0:0:0:0:
474,191,65460,1,2,0:0:0:0:
492,84,65663,1,2,0:0:0:0:
492,84,65764,1,0,0:0:0:0:
492,84,65866,2,0,P|387:24|271:55,1,239.999992675781,10|0,0:0|0:0,0:0:0:0:
7,64,66474,6,0,L|71:58,1,59.9999981689454,2|0,0:0|0:0,0:0:0:0:
20,137,66677,2,0,L|80:132,1,59.9999981689454,10|0,0:0|0:0,0:0:0:0:
33,211,66879,2,0,L|93:206,1,59.9999981689454,10|0,0:0|0:0,0:0:0:0:
82,292,67082,6,0,P|152:324|249:307,1,160,6|8,0:0|0:0,0:0:0:0:
425,270,67690,53,2,0:0:0:0:
425,270,67791,1,0,0:0:0:0:
425,270,67893,2,0,P|349:267|291:300,1,119.999996337891,2|0,0:0|0:0,0:0:0:0:
168,215,68298,2,0,P|244:218|302:185,1,119.999996337891,10|0,0:0|0:0,0:0:0:0:
110,140,68704,6,0,P|75:208|126:294,1,160,6|8,0:0|0:0,0:0:0:0:
204,130,69312,5,2,0:0:0:0:
204,130,69413,1,0,0:0:0:0:
204,130,69514,2,0,P|228:77|205:5,1,119.999996337891,2|0,0:0|0:0,0:0:0:0:
168,215,69920,1,10,0:0:0:0:
259,326,70123,1,0,0:0:0:0:
259,326,70224,1,0,0:0:0:0:
260,326,70325,2,0,P|360:349|481:269,1,239.999992675781,6|8,0:0|0:0,0:0:0:0:
325,99,70933,5,2,0:0:0:0:
325,99,71035,1,0,0:0:0:0:
325,99,71136,2,0,L|351:234,1,119.999996337891,2|0,0:0|0:0,0:0:0:0:
473,282,71541,2,0,L|447:147,1,119.999996337891,10|0,0:0|0:0,0:0:0:0:
348,217,71947,22,0,L|358:265,3,50,2|0|0|0,0:0|0:0|0:0|0:0,0:0:0:0:
164,217,72352,2,0,L|154:265,3,50,2|0|0|0,0:0|0:0|0:0|0:0,0:0:0:0:
256,280,72758,2,0,L|256:336,4,50,2|0|0|0|2,0:0|0:0|0:0|0:0|0:0,0:0:0:0:
256,176,73568,1,4,0:0:0:0:
256,192,73670,12,0,76812,0:0:0:0:
