osu file format v12

[General]
AudioFilename: Raito - Basilica.mp3
AudioLeadIn: 2000
PreviewTime: 5469
Countdown: 0
SampleSet: Soft
StackLeniency: 0.3
Mode: 0
LetterboxInBreaks: 0

[Editor]
Bookmarks: 40740
DistanceSpacing: 1
BeatDivisor: 4
GridSize: 16

[Metadata]
Title:Basilica
TitleUnicode:Basilica
Artist:Raito
ArtistUnicode:Raito
Creator:Melt
Version:Crescent Moon
Source:Melty Blood
Tags:Type Moon Ciel Actress Again tsukihime MBAACC
BeatmapID:259063
BeatmapSetID:95607

[Difficulty]
HPDrainRate:3
CircleSize:3
OverallDifficulty:3
ApproachRate:4
SliderMultiplier:1.3
SliderTickRate:1

[Events]
//Background and Video events
0,0,"Basilica BG.jpg",0,0
//Break Periods
//Storyboard Layer 0 (Background)
//Storyboard Layer 1 (Fail)
//Storyboard Layer 2 (Pass)
//Storyboard Layer 3 (Foreground)
//Storyboard Sound Samples
//Background Colour Transformations
3,100,163,162,255

[TimingPoints]
596,405.405405405405,4,2,1,40,1,0
5359,-100,4,1,0,25,0,0
7082,-100,4,2,1,30,0,1
7183,-100,4,2,1,40,0,1
19954,-100,4,2,1,40,0,0
20055,-100,4,2,1,40,0,1
34650,-100,4,2,1,40,0,0
60595,-100,4,2,1,40,0,1
68653,-100,4,2,1,35,0,1
70275,-100,4,2,1,30,0,1
71947,-100,4,2,1,25,0,0
72707,-100,4,2,1,20,0,0
76761,-100,4,2,1,5,0,0

[Colours]
Combo1 : 171,46,46
Combo2 : 60,60,60
Combo3 : 170,170,170
Combo4 : 125,210,251
Combo5 : 169,233,209

[HitObjects]
28,221,5460,2,0,P|74:341|214:351,1,260,4|4,0:0|0:0,0:0:0:0:
156,235,6677,1,4,0:0:0:0:
285,249,7082,6,0,P|239:129|99:119,1,260,6|0,0:0|0:0,0:0:0:0:
156,235,8298,1,8,0:0:0:0:
285,249,8704,2,0,P|314:322|370:349,1,130,0|8,0:0|0:0,0:0:0:0:
459,267,9514,2,0,P|430:194|374:167,1,130,0|8,0:0|0:0,0:0:0:0:
268,123,10325,5,2,0:0:0:0:
150,67,10731,1,8,0:0:0:0:
20,71,11136,2,0,P|28:134|81:179,1,130,0|8,0:0|0:0,0:0:0:0:
150,67,11947,2,0,P|217:50|288:77,2,130,2|8|0,0:0|0:0|0:0,0:0:0:0:
212,181,13163,1,8,0:0:0:0:
274,295,13568,6,0,P|328:313|408:287,2,130,6|8|0,0:0|0:0|0:0,0:0:0:0:
335,180,14785,1,8,0:0:0:0:
389,61,15190,2,0,P|452:43|535:78,1,130,6|8,0:0|0:0,0:0:0:0:
448,173,16001,2,0,P|443:242|501:293,1,130,0|8,0:0|0:0,0:0:0:0:
380,368,16812,21,2,0:0:0:0:
287,276,17217,1,8,0:0:0:0:
194,368,17623,1,0,0:0:0:0:
102,276,18028,1,8,0:0:0:0:
102,276,18433,6,0,L|17:316,2,65,2|0|8,0:0|0:0|0:0,0:0:0:0:
73,148,19244,2,0,L|2:149,2,65,2|0|8,0:0|0:0|0:0,0:0:0:0:
143,39,20055,6,0,P|257:81|407:21,1,260,6|0,0:0|0:0,0:0:0:0:
385,41,21271,1,8,0:0:0:0:
496,107,21677,2,0,L|512:236,3,130,2|8|0|8,0:0|0:0|0:0|0:0,0:0:0:0:
401,170,23298,6,0,L|385:41,1,130,2|8,0:0|0:0,0:0:0:0:
385,41,24109,1,0,0:0:0:0:
255,26,24514,1,8,0:0:0:0:
279,154,24920,2,0,P|282:220|329:284,3,130,2|8|0|8,0:0|0:0|0:0|0:0,0:0:0:0:
402,170,26541,22,0,P|399:104|352:40,3,130,6|8|0|8,0:0|0:0|0:0|0:0,0:0:0:0:
239,82,28163,2,0,P|166:97|102:75,3,130,6|8|0|8,0:0|0:0|0:0|0:0,0:0:0:0:
0,19,29785,5,2,0:0:0:0:
34,144,30190,1,8,0:0:0:0:
120,240,30595,2,0,P|80:269|25:272,2,97.5,2|0|0,0:0|0:0|0:0,0:0:0:0:
186,192,31406,2,0,L|273:192,2,65,2|0|0,0:0|0:0|0:0,0:0:0:0:
256,192,33028,12,0,34650,0:0:0:0:
256,160,35055,22,0,L|256:0,2,130,8|2|8,0:0|0:0|0:0,0:0:0:0:
316,275,36271,2,0,P|363:240|381:165,1,130,0|8,0:0|0:0,0:0:0:0:
318,50,37082,2,0,P|248:33|187:55,1,130,2|8,0:0|0:0,0:0:0:0:
256,164,37893,1,0,0:0:0:0:
126,165,38298,22,0,P|74:128|62:53,2,130,8|2|8,0:0|0:0|0:0,0:0:0:0:
256,164,39514,1,0,0:0:0:0:
369,99,39920,1,8,0:0:0:0:
378,228,40325,1,2,0:0:0:0:
354,356,40731,1,8,0:0:0:0:
354,356,41136,2,0,P|458:328|502:193,1,260,0|2,0:0|0:0,0:0:0:0:
490,117,42150,22,0,L|517:41,2,65,0|10|2,0:0|0:0|0:0,0:0:0:0:
429,166,42758,2,0,P|355:162|311:122,1,130,2|8,0:0|0:0,0:0:0:0:
409,38,43568,1,0,0:0:0:0:
278,41,43974,1,8,0:0:0:0:
175,120,44379,2,0,P|142:224|-12:250,1,260,2|0,0:0|0:0,0:0:0:0:
47,134,45595,1,8,0:0:0:0:
47,134,46001,1,2,0:0:0:0:
221,46,46609,5,0,0:0:0:0:
281,97,46812,2,0,L|361:97,1,65,2|0,0:0|0:0,0:0:0:0:
396,158,47217,2,0,L|476:158,1,65,10|0,0:0|0:0,0:0:0:0:
492,236,47623,22,0,L|340:236,1,130,6|8,0:0|0:0,0:0:0:0:
261,317,48433,2,0,L|131:317,1,130,0|8,0:0|0:0,0:0:0:0:
17,256,49244,2,0,P|0:331|18:379,2,130,2|8|0,0:0|0:0|0:0,0:0:0:0:
151,254,50460,5,8,0:0:0:0:
151,254,50866,2,0,P|168:179|150:131,3,130,2|8|0|8,0:0|0:0|0:0|0:0,0:0:0:0:
22,130,52487,2,0,P|5:56|23:8,2,130,2|8|0,0:0|0:0|0:0,0:0:0:0:
38,207,53501,6,0,L|16:271,2,65,0|10|2,0:0|0:0|0:0,0:0:0:0:
98,155,54109,2,0,P|153:128|226:141,3,130,2|8|0|8,0:0|0:0|0:0|0:0,0:0:0:0:
178,261,55731,1,2,0:0:0:0:
288,328,56136,1,8,0:0:0:0:
415,306,56541,1,0,0:0:0:0:
493,200,56947,1,8,0:0:0:0:
493,200,57352,6,0,B|400:132|400:132|315:174|239:119,1,260,6|0,0:0|0:0,0:0:0:0:
326,20,58568,1,8,0:0:0:0:
261,133,58974,2,0,P|141:80|31:164,1,260,6|0,0:0|0:0,0:0:0:0:
154,208,60190,1,8,0:0:0:0:
47,282,60595,22,0,P|167:335|266:271,1,260,4|0,0:0|0:0,0:0:0:0:
266,271,61812,1,8,0:0:0:0:
199,159,62217,2,0,P|177:91|195:30,3,130,2|8|0|8,0:0|0:0|0:0|0:0,0:0:0:0:
308,92,63839,6,0,P|368:114|457:90,1,130,2|8,0:0|0:0,0:0:0:0:
505,210,64650,1,0,0:0:0:0:
494,339,65055,1,8,0:0:0:0:
494,339,65460,2,0,P|426:355|350:326,1,130,2|8,0:0|0:0,0:0:0:0:
319,218,66271,2,0,P|262:202|194:218,1,130,0|8,0:0|0:0,0:0:0:0:
142,339,67082,22,0,P|86:355|18:339,3,130,6|8|0|8,0:0|0:0|0:0|0:0,0:0:0:0:
81,225,68704,2,0,P|64:166|85:94,3,130,6|8|0|8,0:0|0:0|0:0|0:0,0:0:0:0:
193,35,70325,21,2,0:0:0:0:
319,35,70731,1,8,0:0:0:0:
256,148,71136,2,0,P|228:203|243:282,1,130,0|8,0:0|0:0,0:0:0:0:
361,302,71947,6,0,L|358:389,2,65,2|0|8,0:0|0:0|0:0,0:0:0:0:
489,281,72758,2,0,L|511:359,2,65,2|0|8,0:0|0:0|0:0,0:0:0:0:
406,181,73568,1,4,0:0:0:0:
256,192,73670,12,0,76812,0:0:0:0:
