osu file format v7

[General]
AudioFilename: rainie_yang_-_youth_bucket.mp3
AudioLeadIn: 0
PreviewTime: 35798
Countdown: 0
SampleSet: Soft
StackLeniency: 0.4
Mode: 0
LetterboxInBreaks: 0

[Editor]
DistanceSpacing: 1.29999995231628
BeatDivisor: 4
GridSize: 8

[Metadata]
Title:Qing Chun Dou
Artist:Rainie Yang
Creator:simplistiC
Version:Normal
Source:Hi My Sweetheart
Tags:Hai Pai Tian Xin taiwanese drama orioncomet

[Difficulty]
HPDrainRate:6
CircleSize:3
OverallDifficulty:6
SliderMultiplier:1.2
SliderTickRate:2

[Events]
//Background and Video events
0,0,"himysweetheart.png"
//Break Periods
2,124523,135076
//Storyboard Layer 0 (Background)
//Storyboard Layer 1 (Fail)
//Storyboard Layer 2 (Pass)
//Storyboard Layer 3 (Foreground)
//Storyboard Sound Samples
//Background Colour Transformations
3,100,255,255,255

[TimingPoints]
389,491.803278688525,4,2,1,50,1,0
16003,-100,4,1,1,40,0,0
16249,-100,4,2,1,60,0,0
17970,-100,4,1,1,40,0,0
18216,-100,4,2,1,60,0,0
18462,-100,4,2,2,40,0,0
18831,-100,4,1,1,40,0,0
18954,-100,4,2,1,60,0,0
19938,-100,4,1,1,40,0,0
20184,-100,4,2,1,60,0,0
20429,-100,4,2,2,40,0,0
20675,-100,4,1,1,40,0,0
20921,-100,4,2,1,60,0,0
21905,-100,4,1,1,40,0,0
22151,-100,4,2,1,60,0,0
22397,-100,4,2,2,40,0,0
22643,-100,4,1,1,40,0,0
22889,-100,4,2,1,60,0,0
23872,-100,4,1,1,40,0,0
24118,-100,4,2,1,60,0,0
24610,-100,4,1,1,40,0,0
24856,-100,4,2,1,60,0,0
25839,-100,4,1,1,40,0,0
26085,-100,4,2,1,60,0,0
26577,-100,4,1,1,40,0,0
26823,-100,4,2,1,60,0,0
27069,-100,4,1,1,40,0,0
27315,-100,4,2,1,60,0,0
27807,-100,4,1,1,40,0,0
28052,-100,4,2,1,60,0,0
28298,-100,4,2,2,40,0,0
28544,-100,4,1,1,40,0,0
28790,-100,4,2,1,60,0,0
29774,-100,4,1,1,40,0,0
30020,-100,4,2,1,60,0,0
30266,-100,4,2,2,40,0,0
30511,-100,4,1,1,40,0,0
30757,-100,4,2,1,60,0,0
31495,-100,4,1,1,40,0,0
35798,-100,4,1,1,40,0,1
35921,-100,4,2,1,60,0,1
36167,-100,4,2,2,50,0,1
36413,-100,4,1,1,40,0,1
36659,-100,4,2,1,60,0,1
37643,-100,4,1,1,40,0,1
37889,-100,4,2,1,60,0,1
38380,-100,4,1,1,40,0,1
38626,-100,4,2,1,60,0,1
38872,-100,4,1,1,40,0,1
39118,-100,4,2,1,60,0,1
39610,-100,4,1,1,40,0,1
39856,-100,4,2,1,60,0,1
40348,-100,4,1,1,40,0,1
40593,-100,4,2,1,60,0,1
41577,-100,4,1,1,40,0,1
41823,-100,4,2,1,60,0,1
42315,-100,4,1,1,40,0,1
42561,-100,4,2,1,60,0,1
42807,-100,4,1,1,40,0,1
43052,-100,4,2,1,60,0,1
43298,-100,4,1,1,40,0,1
43790,-100,4,2,1,60,0,1
44036,-100,4,2,2,50,0,1
44282,-100,4,1,1,40,0,1
44528,-100,4,2,1,60,0,1
45511,-100,4,1,1,40,0,1
45757,-100,4,2,1,60,0,1
46003,-100,4,2,2,50,0,1
46249,-100,4,1,1,40,0,1
46495,-100,4,2,1,60,0,1
47479,-100,4,1,1,40,0,1
47725,-100,4,1,1,60,0,1
47970,-100,4,2,2,50,0,1
48216,-100,4,1,1,40,0,1
48462,-100,4,2,1,60,0,1
49446,-100,4,1,1,40,0,1
49692,-100,4,2,1,60,0,1
49938,-100,4,2,2,50,0,1
50307,-100,4,1,1,40,0,1
50429,-100,4,2,1,60,0,1
50675,-100,4,2,2,50,0,1
51167,-100,4,1,1,40,0,1
51536,-100,4,1,1,40,0,0
56085,-100,4,1,1,40,0,0
56331,-100,4,2,1,60,0,0
57315,-100,4,1,1,40,0,0
57561,-100,4,2,1,60,0,0
59282,-100,4,1,1,40,0,0
59528,-100,4,2,1,60,0,0
59774,-100,4,2,2,40,0,0
60020,-100,4,2,1,60,0,0
61249,-100,4,1,1,40,0,0
61495,-100,4,2,1,60,0,0
61741,-100,4,2,2,40,0,0
61987,-100,4,1,1,40,0,0
62233,-100,4,2,1,60,0,0
62970,-100,4,1,1,40,0,0
63462,-100,4,2,1,60,0,0
63708,-100,4,2,1,60,0,0
63954,-100,4,1,1,40,0,0
64200,-100,4,2,1,60,0,0
65184,-100,4,1,1,40,0,0
65429,-100,4,2,1,60,0,0
65921,-100,4,1,1,40,0,0
66167,-100,4,2,1,60,0,0
66413,-100,4,1,1,40,0,0
66659,-100,4,2,1,60,0,0
67151,-100,4,1,1,40,0,0
67397,-100,4,2,1,60,0,0
67889,-100,4,1,1,40,0,0
68134,-100,4,2,1,60,0,0
69118,-100,4,1,1,40,0,0
69364,-100,4,2,1,60,0,0
69856,-100,4,1,1,40,0,0
70102,-100,4,2,1,60,0,0
70348,-100,4,1,1,40,0,0
70593,-100,4,2,1,60,0,0
70839,-100,4,1,1,40,0,0
75266,-100,4,2,1,60,0,0
75511,-100,4,2,2,40,0,0
75757,-100,4,1,1,40,0,0
76003,-100,4,2,1,60,0,0
76987,-100,4,1,1,40,0,0
77233,-100,4,2,1,60,0,0
77479,-100,4,2,2,40,0,0
77725,-100,4,1,1,40,0,0
77970,-100,4,2,1,60,0,0
78216,-100,4,1,1,40,0,0
78462,-100,4,2,1,60,0,0
78954,-100,4,1,1,40,0,0
79200,-100,4,2,1,60,0,0
79446,-100,4,2,2,50,0,0
79692,-100,4,1,1,40,0,0
79938,-100,4,2,1,60,0,0
80921,-100,4,1,1,40,0,0
81167,-100,4,2,1,60,0,0
81413,-100,4,2,2,50,0,0
81659,-100,4,1,1,40,0,0
81905,-100,4,2,1,60,0,0
82151,-100,4,1,1,40,0,0
82397,-100,4,2,1,60,0,0
82643,-100,4,1,1,40,0,0
83134,-100,4,2,1,60,0,0
83380,-100,4,2,2,40,0,0
83626,-100,4,1,1,40,0,0
83872,-100,4,2,1,60,0,0
84979,-100,4,1,1,40,0,0
85102,-100,4,2,1,60,0,0
85348,-100,4,2,2,40,0,0
85593,-100,4,1,1,40,0,0
85839,-100,4,2,1,60,0,0
86823,-100,4,1,1,40,0,0
87069,-100,4,2,1,60,0,0
87315,-100,4,2,2,40,0,0
87561,-100,4,1,1,40,0,0
87807,-100,4,2,1,60,0,0
88790,-100,4,1,1,40,0,0
89036,-100,4,2,1,60,0,0
89282,-100,4,2,2,50,0,0
89528,-100,4,1,1,40,0,0
89774,-100,4,2,1,60,0,0
90020,-100,4,2,2,50,0,0
90266,-100,4,2,1,60,0,0
90757,-100,4,1,1,40,0,0
90880,-100,4,1,1,40,0,1
91003,-100,4,2,1,60,0,1
91249,-100,4,2,2,40,0,1
91495,-100,4,1,1,40,0,1
91741,-100,4,2,1,60,0,1
92725,-100,4,1,1,40,0,1
92970,-100,4,2,1,60,0,1
93216,-100,4,2,2,50,0,1
93462,-100,4,1,1,40,0,1
93708,-100,4,2,1,60,0,1
94692,-100,4,1,1,40,0,1
94938,-100,4,2,1,60,0,1
95429,-100,4,1,1,40,0,1
95675,-100,4,2,1,60,0,1
96659,-100,4,1,1,40,0,1
96905,-100,4,2,1,60,0,1
97397,-100,4,1,1,40,0,1
97643,-100,4,2,1,60,0,1
97889,-100,4,1,1,40,0,1
98134,-100,4,2,1,60,0,1
98380,-100,4,1,1,40,0,1
98872,-100,4,2,1,60,0,1
99118,-100,4,2,2,40,0,1
99364,-100,4,1,1,40,0,1
99610,-100,4,2,1,60,0,1
100593,-100,4,1,1,40,0,1
100839,-100,4,2,1,60,0,1
101085,-100,4,2,2,40,0,1
101331,-100,4,1,1,40,0,1
101577,-100,4,2,1,60,0,1
102561,-100,4,1,1,40,0,1
102684,-100,4,1,1,40,0,1
102807,-100,4,2,1,60,0,1
103052,-100,4,2,2,40,0,1
103298,-100,4,1,1,40,0,1
103544,-100,4,2,1,60,0,1
104528,-100,4,1,1,40,0,1
104774,-100,4,2,1,60,0,1
105020,-100,4,2,2,50,0,1
105389,-100,4,1,1,40,0,1
105511,-100,4,2,1,60,0,1
105757,-100,4,2,2,50,0,1
106003,-100,4,2,1,60,0,1
106249,-100,4,1,1,40,0,1
106372,-100,4,1,1,40,0,0
106495,-100,4,2,1,60,0,0
110429,-100,4,1,1,40,0,0
110675,-100,4,2,1,60,0,0
111167,-100,4,1,1,40,0,0
111413,-100,4,2,1,60,0,0
111659,-100,4,1,1,40,0,0
111905,-100,4,2,1,60,0,0
112397,-100,4,1,1,40,0,0
112643,-100,4,2,1,60,0,0
113134,-100,4,1,1,40,0,0
113380,-100,4,2,1,60,0,0
114364,-100,4,1,1,40,0,0
114610,-100,4,2,1,60,0,0
115102,-100,4,1,1,40,0,0
115348,-100,4,2,1,60,0,0
115593,-100,4,1,1,40,0,0
115839,-100,4,2,2,50,0,0
116085,-100,4,1,1,40,0,0
116577,-100,4,2,1,60,0,0
117069,-100,4,1,1,40,0,0
117315,-100,4,2,1,60,0,0
118298,-100,4,1,1,40,0,0
118544,-100,4,2,1,60,0,0
119036,-100,4,1,1,40,0,0
119774,-100,4,2,2,50,0,0
120266,-100,4,1,1,40,0,0
120511,-100,4,2,1,60,0,0
121003,-100,4,1,1,40,0,0
121249,-100,4,2,1,60,0,0
121741,-100,4,2,2,50,0,0
122233,-100,4,1,1,40,0,0
122479,-100,4,2,1,60,0,0
122725,-100,4,2,2,50,0,0
122970,-100,4,1,1,40,0,0
123216,-100,4,2,1,60,0,0
124200,-100,4,1,1,40,0,0
124323,-100,4,1,1,40,0,1
124446,-100,4,1,1,40,0,0
136249,-100,4,2,1,60,0,0
136495,-100,4,2,2,40,0,0
136741,-100,4,1,1,40,0,0
136987,-100,4,2,1,60,0,0
137970,-100,4,1,1,40,0,0
138216,-100,4,2,1,60,0,0
138462,-100,4,2,2,50,0,0
138831,-100,4,1,1,40,0,0
138954,-100,4,2,1,60,0,0
139200,-100,4,2,2,50,0,0
139446,-100,4,2,1,60,0,0
139692,-100,4,1,1,40,0,0
140061,-100,4,1,1,40,0,1
140184,-100,4,2,1,60,0,1
140429,-100,4,2,2,40,0,1
140675,-100,4,1,1,40,0,1
140921,-100,4,2,1,60,0,1
141905,-100,4,1,1,40,0,1
142151,-100,4,2,1,60,0,1
142397,-100,4,2,2,50,0,1
142643,-100,4,1,1,40,0,1
142889,-100,4,2,1,60,0,1
143872,-100,4,1,1,40,0,1
144118,-100,4,2,1,60,0,1
144610,-100,4,1,1,40,0,1
144856,-100,4,2,1,60,0,1
145839,-100,4,1,1,40,0,1
146085,-100,4,2,1,60,0,1
146577,-100,4,1,1,40,0,1
146823,-100,4,2,1,60,0,1
147069,-100,4,1,1,40,0,1
147315,-100,4,2,1,60,0,1
147561,-100,4,1,1,40,0,1
148052,-100,4,2,1,60,0,1
148298,-100,4,2,2,40,0,1
148544,-100,4,1,1,40,0,1
148790,-100,4,2,1,60,0,1
149897,-100,4,1,1,40,0,1
150020,-100,4,2,1,60,0,1
150266,-100,4,2,2,40,0,1
150511,-100,4,1,1,40,0,1
150757,-100,4,2,1,60,0,1
151741,-100,4,1,1,40,0,1
151864,-100,4,1,1,40,0,1
151987,-100,4,2,1,60,0,1
152233,-100,4,2,2,40,0,1
152479,-100,4,1,1,40,0,1
152725,-100,4,2,1,60,0,1
153708,-100,4,1,1,40,0,1
153954,-100,4,2,1,60,0,1
154200,-100,4,2,2,50,0,1
154569,-100,4,1,1,40,0,1
154692,-100,4,2,1,60,0,1
154938,-100,4,2,2,50,0,1
155184,-100,4,2,1,60,0,1
155429,-100,4,1,1,40,0,1
155798,-100,4,1,1,40,0,0

[Colours]
Combo1 : 1,202,228
Combo2 : 223,21,95
Combo3 : 234,218,8

[HitObjects]
96,296,16126,2,0,B|104:352|160:360|216:352|224:296,2,180,0|0|8
96,216,17848,1,0
160,168,18093,2,0,B|152:112|96:104|40:112|32:168,2,180,0|0|8
224,88,20061,6,0,B|232:32|288:24|344:32|352:88,2,180,0|0|8
224,168,21782,1,0
288,208,22028,2,0,B|280:264|224:272|168:264|160:208,2,180,0|0|8
448,208,23995,5,0
376,248,24241,1,0
304,208,24487,1,8
376,168,24733,2,0,B|376:88,2,60
376,248,25470,1,8
208,176,25962,5,0
136,136,26208,1,0
64,176,26454,1,8
136,216,26700,2,0,B|136:296,2,60
136,136,27437,1,8
264,312,27929,6,0,B|264:224|312:224|312:136,2,180,0|0|8
384,160,29897,2,0,B|384:248|336:248|336:336,2,180,0|0|8
256,56,31864,6,0,B|200:15|144:56,1,120
200,192,32848,1,0
144,328,33339,1,0
200,272,33585,1,0
256,328,33831,1,0
200,192,34323,2,0,B|336:192,2,120,0|0|2
344,128,35798,6,0,B|400:136|408:192|400:248|344:256,2,180,4|0|8
192,80,37766,2,0,B|128:80,2,60,0|0|8
256,120,38503,1,0
320,160,38749,2,0,B|384:160,2,60,0|0|8
320,304,39733,6,0,B|384:304,2,60,0|0|8
256,264,40470,1,0
192,224,40716,2,0,B|128:224,2,60,0|0|8
344,152,41700,5,0
344,72,41946,1,0
272,112,42192,1,8
192,112,42438,1,0
120,72,42684,1,0
120,152,42929,1,0
192,192,43175,1,8
120,232,43421,1,0
56,288,43667,6,0,B|64:344|120:352|176:344|184:288,2,180,0|0|8
120,232,45389,1,0
184,176,45634,2,0,B|176:120|120:112|64:120|56:176,2,180
256,328,47602,6,0,L|352:328|424:280,2,180,4|0|0
256,168,49569,2,0,L|160:168|88:216,2,180,0|0|8
416,168,51536,5,0
280,240,52028,1,0
144,168,52520,1,0
280,96,53011,1,0
416,168,53503,5,0
416,248,53749,1,0
352,296,53995,2,0,B|216:296,1,120
152,296,54733,1,0
88,248,54979,1,2
152,120,55470,6,0,B|240:88|240:152|336:120,2,180
120,192,57192,1,0
48,224,57438,2,0,B|64:264|96:280|152:272,2,120
256,192,58913,5,8
480,232,59405,6,0,L|424:192|360:192,2,120,0|8|0
408,264,60634,1,0
336,304,60880,1,8
264,264,61126,1,0
192,224,61372,2,0,B|136:216|128:160|136:104|192:96,2,180,0|0|8
240,160,63093,1,0
320,160,63339,5,0
256,16,63831,2,0,L|256:80,2,60,8|0|0
192,160,64815,1,8
256,304,65307,5,0
256,224,65552,1,0
328,184,65798,1,8
328,264,66044,1,0
400,224,66290,2,0,L|400:152,2,60,0|0|8
256,144,67274,6,0,L|136:144,1,120,0|8
80,200,68011,1,0
136,256,68257,2,0,L|256:256,1,120,0|8
312,312,68995,1,0
328,232,69241,6,0,B|321:164|384:136,1,120,0|8
408,216,69979,1,0
488,200,70225,2,0,B|495:268|432:296,1,120,0|8
256,64,71208,6,0,B|224:96|224:96|184:72|144:96,1,120
80,192,72192,2,0,B|112:160|112:160|152:184|192:160,1,120
256,320,73175,6,0,B|288:288|288:288|328:312|368:288,1,120
432,192,74159,2,0,B|400:224|400:224|360:200|320:224,1,120,0|2
256,320,75143,6,0,B|296:368|296:368|352:328|408:368,2,180,4|0|8
256,320,77110,2,0,B|216:272|216:272|160:312|104:272,1,180
160,208,78093,1,0
200,136,78339,1,0
120,136,78585,1,8
256,64,79077,6,0,B|216:16|216:16|160:56|104:16,2,180,0|0|8
256,64,81044,2,0,B|296:112|296:112|352:72|408:112,1,180
352,176,82027,1,0
392,248,82273,1,0
312,248,82519,1,8
352,320,82766,1,0
272,320,83011,6,0,B|160:320|160:208,2,180,0|0|8
240,64,84979,2,0,B|352:64|352:176,2,180,0|0|8
120,200,86946,6,0,L|120:232|168:261|216:240|216:200,2,180,4|0|8
216,80,88913,2,0,L|216:48|168:19|120:40|120:80,2,180,0|0|8
256,192,90880,6,0,L|288:136|352:136|384:88,2,180,4|0|8
256,192,92848,2,0,L|224:136|160:136|128:88,2,180,0|0|8
144,304,94815,6,0,L|80:304|40:248,1,120,0|8
120,224,95552,1,0
96,144,95798,2,0,L|160:144|200:200,1,120,0|8
368,304,96782,6,0,L|432:304|472:248,1,120,0|8
392,224,97520,1,0
312,224,97766,2,0,L|232:224,1,60
216,152,98257,2,0,L|296:152,1,60,8|0
312,80,98749,6,0,B|232:80|232:24|136:24,2,180,0|0|8
312,160,100470,1,0
312,240,100716,2,0,B|392:240|392:296|488:296,2,180,0|0|8
200,80,102684,6,0,B|280:80|280:24|376:24,2,180,4|0|8
200,160,104405,1,0
200,240,104651,2,0,B|120:240|120:296|24:296,2,180,0|0|8
280,240,106372,1,0
256,192,106618,12,4,108585
88,152,109077,6,0,L|144:174|200:152,1,120
312,256,110061,2,0,L|256:234|200:256,2,120,0|0|8
392,272,111290,1,0
392,112,111782,1,0
320,152,112028,1,8
120,112,112520,5,0
256,192,113011,2,0,B|256:256,2,60,8|0|0
336,168,113749,1,0
392,112,113995,2,0,B|433:168|392:224,2,120,8|0|8
336,168,115225,2,0,B|295:112|336:56,2,120
392,112,116454,5,0
256,192,116945,2,0,B|256:256,2,60,8|0|0
176,168,117684,1,0
120,112,117929,2,0,B|79:168|120:224,2,120,8|0|8
176,168,119159,2,0,B|217:112|176:56,2,120
120,112,120389,5,0
120,264,120880,2,0,B|200:264,1,60,8|0
328,208,121618,2,0,B|369:264|328:320,1,120
272,264,122356,1,0
216,320,122602,2,0,B|175:264|216:208,1,120
272,264,123339,2,0,B|272:136,1,120,0|8
272,352,124323,5,4
336,192,136126,6,0,L|257:234|176:192,2,180,4|0|8
256,328,138093,2,0,L|335:286|416:328,2,180,0|0|8
176,192,140061,6,0,L|255:234|336:192,2,180,0|0|8
256,328,142028,2,0,L|177:286|96:328,2,180,0|0|8
256,192,143995,5,0
328,152,144241,1,0
328,232,144487,1,8
400,192,144733,1,0
400,192,144979,2,0,B|480:192,2,60,0|0|8
288,112,145962,6,0,B|232:104|240:168|160:168,1,120,0|8
128,224,146700,1,0
184,280,146946,2,0,B|256:280,1,60
304,224,147438,2,0,B|376:224,1,60,8|0
360,144,147929,6,0,B|397:101|367:53|325:16|277:45,2,180,0|0|8
296,192,149651,1,0
360,240,149897,2,0,B|397:282|367:330|325:367|277:338,2,180,0|0|8
152,144,151864,6,0,B|114:101|144:53|186:16|234:45,2,180,4|0|8
216,192,153586,1,0
152,240,153832,2,0,B|114:282|144:330|186:367|234:338,2,180,0|0|8
216,192,155552,1,0
296,192,155798,5,0
432,272,156290,1,0
432,112,156782,1,0
296,192,157274,1,0
168,104,157766,5,0
104,152,158011,1,0
168,200,158257,2,0,B|168:328,1,120
248,304,158995,1,0
248,224,159241,1,2
400,264,159733,5,4
