osu file format v12

[General]
AudioFilename: 08-rainie_yang-happy_omen-tosk.mp3
AudioLeadIn: 0
PreviewTime: 95475
Countdown: 0
SampleSet: Soft
StackLeniency: 0.7
Mode: 0
LetterboxInBreaks: 0
EpilepsyWarning: 1
WidescreenStoryboard: 0

[Editor]
DistanceSpacing: 0.8
BeatDivisor: 4
GridSize: 8

[Metadata]
Title:Happy Omen
TitleUnicode:Happy Omen
Artist:Rainie Yang
ArtistUnicode:Rainie Yang
Creator:yzhbxiang
Version:Normal
Source:
Tags:Longing for YangWang XingFuYuZhao YangChengLin
BeatmapID:119218
BeatmapSetID:36979

[Difficulty]
HPDrainRate:5
CircleSize:3
OverallDifficulty:4
ApproachRate:6
SliderMultiplier:1.20000000596046
SliderTickRate:2

[Events]
//Background and Video events
0,0,"yangwang.jpg",0,0
//Break Periods
2,91295,94290
2,167846,178493
//Storyboard Layer 0 (Background)
//Storyboard Layer 1 (Fail)
//Storyboard Layer 2 (Pass)
//Storyboard Layer 3 (Foreground)
Sprite,Foreground,Centre,"white.jpg",320,240 F,0,53335,,0.5 F,0,53335,53594,0.5,0 F,0,53852,54111,0.5,0 F,0,54370,54628,0.5,0 F,0,70921,,0.5 F,0,70921,71180,0.5,0 F,0,129887,,0.5 F,0,129887,130146,0.5,0 F,0,130404,130663,0.5,0 F,0,130922,131180,0.5,0 F,0,147473,,0.5 F,0,147473,147732,0.5,0 F,0,179542,179801,0.5,0 F,0,180060,180318,0.5,0 F,0,180577,180835,0.5,0 F,0,197129,,0.5 F,0,197129,197387,0.5,0
//Storyboard Sound Samples
//Background Colour Transformations
3,100,163,162,255

[TimingPoints]
2646,517.242215135322,4,2,1,35,1,0
53335,-100,4,2,1,65,0,0
54370,-100,4,1,1,65,0,0
54887,-100,4,2,1,65,0,0
70921,-100,4,1,1,65,0,0
71439,-100,4,2,1,65,0,0
83335,-100,4,2,1,55,0,0
84370,-100,4,2,1,60,0,0
84628,-100,4,2,1,65,0,0
84887,-100,4,2,1,70,0,0
85146,-100,4,2,1,75,0,0
91094,-100,4,2,1,65,0,0
95490,-100,4,2,1,35,0,0
129887,-100,4,2,1,65,0,0
130922,-100,4,1,1,65,0,0
131439,-100,4,2,1,65,0,0
147473,-100,4,1,1,65,0,0
147991,-100,4,2,1,65,0,0
159887,-100,4,2,1,55,0,0
160922,-100,4,2,1,60,0,0
161180,-100,4,2,1,65,0,0
161439,-100,4,2,1,70,0,0
161697,-100,4,2,1,75,0,0
179542,-100,4,1,1,35,0,0
181094,-100,4,2,1,35,0,0
182387,-100,4,2,1,65,0,1
197129,-100,4,1,1,65,0,1
197646,-100,4,2,1,65,0,1
209542,-100,4,2,1,55,0,1
210835,-100,4,2,1,65,0,1
211094,-100,4,2,1,70,0,1
211353,-100,4,2,1,75,0,1
217301,-100,4,2,1,65,0,0

[Colours]
Combo1 : 255,140,143
Combo2 : 168,230,253
Combo3 : 65,254,113
Combo4 : 242,255,128

[HitObjects]
32,32,18940,1,0,0:0:0:0:
128,32,19198,1,2,0:0:0:0:
80,112,19457,1,0,0:0:0:0:
176,112,19715,2,0,B|176:176|176:176|176:160,2,60.0000002980232,0|0|0,0:0|0:0|0:0,0:0:0:0:
352,32,20750,5,0,0:0:0:0:
448,32,21008,1,0,0:0:0:0:
448,128,21266,2,0,B|448:192,1,60.0000002980232
448,280,21783,2,0,B|448:344,1,60.0000002980232
352,340,22302,1,0,0:0:0:0:
160,336,22819,5,0,0:0:0:0:
64,336,23077,1,0,0:0:0:0:
64,240,23336,2,0,B|64:176,1,60.0000002980232,2|0,0:0|0:0,0:0:0:0:
64,80,23853,1,0,0:0:0:0:
160,80,24112,1,0,0:0:0:0:
160,176,24371,2,0,B|160:248,1,60.0000002980232
272,80,25146,6,0,B|400:80,1,120.000000596046
488,80,25922,1,0,0:0:0:0:
392,80,26181,1,0,0:0:0:0:
448,264,26698,6,0,B|496:216,2,60.0000002980232
352,264,27473,1,2,0:0:0:0:
160,264,27991,1,0,0:0:0:0:
64,264,28250,1,0,0:0:0:0:
64,72,28767,6,0,B|104:136,1,60.0000002980232
176,72,29283,2,0,B|216:136,1,60.0000002980232,0|0,0:0|0:0,0:0:0:0:
288,72,29801,2,0,B|328:136,1,60.0000002980232
400,72,30319,1,0,0:0:0:0:
256,320,31095,5,0,0:0:0:0:
336,264,31353,1,0,0:0:0:0:
256,208,31612,2,0,B|256:144,1,60.0000002980232,2|0,0:0|0:0,0:0:0:0:
256,48,32129,1,0,0:0:0:0:
176,104,32388,1,0,0:0:0:0:
72,264,32905,6,0,B|72:192,1,60.000000298023
72,104,33422,1,0,0:0:0:0:
256,40,33939,1,0,0:0:0:0:
336,88,34197,1,0,0:0:0:0:
416,136,34456,2,0,B|456:208|376:256|416:320,1,180.000000894069,0|2,0:0|0:0,0:0:0:0:
256,200,35750,5,4,0:0:0:0:
168,160,36008,1,0,0:0:0:0:
256,120,36267,1,2,0:0:0:0:
344,160,36526,1,0,0:0:0:0:
256,200,36784,2,0,B|256:272,1,60.000000298023
304,344,37302,5,2,0:0:0:0:
208,344,37560,1,0,0:0:0:0:
256,260,37819,1,0,0:0:0:0:
160,260,38077,1,0,0:0:0:0:
64,260,38335,2,0,P|40:196|64:156,1,120.000000596046,2|0,0:0|0:0,0:0:0:0:
256,144,39371,5,2,0:0:0:0:
208,64,39629,1,0,0:0:0:0:
304,64,39888,1,0,0:0:0:0:
256,144,40146,1,0,0:0:0:0:
256,240,40405,2,0,B|256:312,2,60.000000298023,2|0|0,0:0|0:0|0:0,0:0:0:0:
440,192,41440,6,0,B|376:192,1,60.000000298023,2|0,0:0|0:0,0:0:0:0:
288,160,41956,1,0,0:0:0:0:
216,224,42215,1,0,0:0:0:0:
144,160,42474,1,2,0:0:0:0:
72,224,42733,1,0,0:0:0:0:
160,56,43250,5,0,0:0:0:0:
256,56,43509,1,2,0:0:0:0:
352,56,43767,2,0,B|352:128,1,60.000000298023,0|8,0:0|0:0,0:0:0:0:
328,304,44543,2,0,B|376:256,1,60.000000298023,2|0,0:0|0:0,0:0:0:0:
184,304,45319,6,0,B|136:256,2,60.000000298023,0|2|0,0:0|0:0|0:0,0:0:0:0:
256,128,46353,2,0,B|256:200,1,60.000000298023,0|2,0:0|0:0,0:0:0:0:
256,288,46871,1,0,0:0:0:0:
64,72,47646,5,2,0:0:0:0:
160,72,47905,1,0,0:0:0:0:
112,160,48164,2,0,B|112:224,1,60.000000298023
64,304,48681,1,2,0:0:0:0:
160,304,48940,1,0,0:0:0:0:
312,192,49456,6,0,B|232:192,2,60.000000298023,0|0|0,0:0|0:0|0:0,0:0:0:0:
256,192,50233,12,4,52302,0:0:0:0:
160,192,53336,5,2,0:0:0:0:
256,96,53853,1,2,0:0:0:0:
352,192,54371,1,4,0:0:0:0:
160,192,54888,5,8,0:0:0:0:
256,192,55146,1,0,0:0:0:0:
352,192,55405,1,0,0:0:0:0:
256,192,55663,2,0,B|256:256,1,60.000000298023,2|8,0:0|0:0,0:0:0:0:
256,352,56181,1,0,0:0:0:0:
448,368,56698,5,0,0:0:0:0:
384,296,56957,1,8,0:0:0:0:
448,224,57215,2,0,B|448:160,1,60.000000298023
384,96,57733,1,0,0:0:0:0:
448,24,57991,1,8,0:0:0:0:
384,96,58250,1,0,0:0:0:0:
256,240,58767,5,0,0:0:0:0:
344,192,59026,1,8,0:0:0:0:
256,144,59284,1,0,0:0:0:0:
72,104,59802,2,0,B|72:40,1,60.000000298023,0|8,0:0|0:0,0:0:0:0:
152,104,60319,1,0,0:0:0:0:
72,272,60836,2,0,B|72:336,1,60.000000298023,0|8,0:0|0:0,0:0:0:0:
152,272,61353,1,0,0:0:0:0:
424,192,62129,5,8,0:0:0:0:
384,104,62388,1,0,0:0:0:0:
344,192,62646,2,0,B|280:192,1,60.000000298023,4|0,0:0|0:0,0:0:0:0:
184,192,63164,1,8,0:0:0:0:
144,104,63422,2,0,B|96:144,1,60.000000298023
96,240,63940,2,0,B|144:280,1,60.000000298023,0|8,0:0|0:0,0:0:0:0:
184,192,64456,2,0,B|256:232|304:152|360:192,1,180.000000894069,0|8,0:0|0:0,0:0:0:0:
456,192,65491,5,0,0:0:0:0:
456,96,65750,1,0,0:0:0:0:
360,96,66009,2,0,B|360:32,1,60.000000298023,0|8,0:0|0:0,0:0:0:0:
264,36,66526,1,0,0:0:0:0:
264,320,67302,5,8,0:0:0:0:
280,224,67560,2,0,B|328:184,1,60.000000298023
360,280,68078,1,0,0:0:0:0:
416,200,68336,1,8,0:0:0:0:
416,104,68595,6,0,B|352:104,1,60.000000298023
256,104,69112,1,4,0:0:0:0:
168,144,69371,1,8,0:0:0:0:
112,224,69629,1,4,0:0:0:0:
256,352,70146,5,2,0:0:0:0:
256,256,70405,1,2,0:0:0:0:
256,160,70663,2,0,B|256:96,1,60.000000298023,2|4,0:0|0:0,0:0:0:0:
448,112,71440,5,8,0:0:0:0:
392,32,71698,1,0,0:0:0:0:
336,112,71957,1,0,0:0:0:0:
392,192,72215,2,0,B|392:256,1,60.000000298023,2|8,0:0|0:0,0:0:0:0:
392,352,72733,1,0,0:0:0:0:
200,352,73250,5,0,0:0:0:0:
200,256,73509,1,8,0:0:0:0:
112,216,73767,2,0,B|112:152,1,60.000000298023
200,128,74284,1,0,0:0:0:0:
200,32,74543,1,8,0:0:0:0:
200,128,74802,1,0,0:0:0:0:
368,32,75319,5,0,0:0:0:0:
464,32,75578,1,8,0:0:0:0:
416,120,75836,2,0,B|352:144,1,60.000000298023
272,184,76353,2,0,B|208:208,1,60.000000298023,0|8,0:0|0:0,0:0:0:0:
232,296,76871,2,0,B|296:272,1,60.000000298023
376,240,77388,2,0,B|440:216,1,60.000000298023,0|8,0:0|0:0,0:0:0:0:
416,120,77905,1,0,0:0:0:0:
136,192,78681,5,8,0:0:0:0:
232,192,78940,1,0,0:0:0:0:
248,96,79198,2,0,B|312:96,1,60.000000298023,4|0,0:0|0:0,0:0:0:0:
328,192,79715,1,8,0:0:0:0:
424,192,79974,2,0,B|400:248,1,60.000000298023
312,288,80491,2,0,B|240:288,1,60.000000298023,0|8,0:0|0:0,0:0:0:0:
168,248,81008,2,0,P|128:176|184:88,1,180.000000894069,0|8,0:0|0:0,0:0:0:0:
264,96,82043,5,0,0:0:0:0:
360,96,82302,1,0,0:0:0:0:
312,176,82560,1,0,0:0:0:0:
312,272,82819,2,0,B|312:344,1,60.000000298023,8|0,0:0|0:0,0:0:0:0:
216,328,83336,6,0,B|216:264,3,60.000000298023,8|8|0|8,0:0|0:0|0:0|0:0,0:0:0:0:
160,192,84371,1,0,0:0:0:0:
216,112,84629,1,0,0:0:0:0:
272,192,84888,1,0,0:0:0:0:
216,268,85147,1,4,0:0:0:0:
464,192,86181,5,0,0:0:0:0:
368,192,86440,2,2,B|304:192,1,60.000000298023
208,192,86957,1,0,0:0:0:0:
184,96,87215,1,0,0:0:0:0:
256,32,87474,1,0,0:0:0:0:
328,96,87733,1,0,0:0:0:0:
256,192,88250,12,4,91095,0:0:0:0:
256,192,95491,5,0,0:0:0:0:
160,192,95750,1,4,0:0:0:0:
256,192,96009,1,0,0:0:0:0:
352,192,96267,2,0,B|400:136,2,60.000000298023,2|0|0,0:0|0:0|0:0,0:0:0:0:
160,192,97302,5,2,0:0:0:0:
256,192,97560,1,0,0:0:0:0:
208,96,97819,2,0,B|160:48,1,60.000000298023
256,96,98336,2,0,B|304:48,1,60.000000298023,2|0,0:0|0:0,0:0:0:0:
416,52,98853,1,0,0:0:0:0:
416,248,99371,5,2,0:0:0:0:
416,152,99629,1,0,0:0:0:0:
416,248,99888,2,0,B|416:320,1,60.000000298023
328,272,100405,1,2,0:0:0:0:
328,176,100664,1,0,0:0:0:0:
248,224,100922,2,0,B|184:224,1,60.000000298023
32,112,101698,5,0,0:0:0:0:
96,184,101957,1,0,0:0:0:0:
160,112,102215,1,0,0:0:0:0:
224,184,102474,2,0,B|288:184,1,60.000000298023,2|0,0:0|0:0,0:0:0:0:
464,104,103250,6,0,B|464:40,2,60.000000298023,0|2|0,0:0|0:0|0:0,0:0:0:0:
464,200,104025,1,8,0:0:0:0:
296,288,104543,1,2,0:0:0:0:
296,192,104802,1,0,0:0:0:0:
104,192,105319,2,0,B|40:192,1,60.000000298023,0|2,0:0|0:0,0:0:0:0:
104,112,105836,2,0,B|168:112,1,60.000000298023
104,32,106353,2,0,B|32:32,1,60.000000298023,0|2,0:0|0:0,0:0:0:0:
104,112,106871,1,0,0:0:0:0:
304,328,107647,5,2,0:0:0:0:
232,264,107905,1,0,0:0:0:0:
312,208,108164,2,0,B|368:256,1,60.000000298023
440,192,108681,1,2,0:0:0:0:
368,128,108940,1,0,0:0:0:0:
184,192,109457,6,0,B|120:192,1,60.000000298023,0|2,0:0|0:0,0:0:0:0:
124,96,109974,1,0,0:0:0:0:
124,288,110492,1,0,0:0:0:0:
220,288,110749,1,2,0:0:0:0:
316,288,111008,2,0,B|316:216|404:216|404:136,1,180.000000894069,0|2,0:0|0:0,0:0:0:0:
232,48,112302,5,4,0:0:0:0:
136,48,112560,1,0,0:0:0:0:
184,128,112819,1,2,0:0:0:0:
136,208,113078,1,0,0:0:0:0:
232,208,113336,2,0,B|232:280,1,60.000000298023
320,312,113853,5,2,0:0:0:0:
400,256,114112,1,0,0:0:0:0:
400,160,114371,1,0,0:0:0:0:
320,216,114629,1,0,0:0:0:0:
320,120,114888,2,0,B|192:120,1,120.000000596046,2|0,0:0|0:0,0:0:0:0:
48,232,115922,5,2,0:0:0:0:
48,136,116181,1,0,0:0:0:0:
48,40,116440,1,0,0:0:0:0:
48,136,116698,1,0,0:0:0:0:
48,232,116957,2,0,B|48:296,2,60.000000298023,2|0|0,0:0|0:0|0:0,0:0:0:0:
232,192,117991,6,0,B|296:192,1,60.000000298023,2|0,0:0|0:0,0:0:0:0:
120,96,118767,1,0,0:0:0:0:
152,192,119026,1,2,0:0:0:0:
120,280,119284,1,0,0:0:0:0:
312,280,119802,5,0,0:0:0:0:
376,208,120060,1,2,0:0:0:0:
440,136,120319,2,0,B|440:72,1,60.000000298023,0|8,0:0|0:0,0:0:0:0:
256,128,121095,2,0,B|256:192,2,60.000000298023,2|0|0,0:0|0:0|0:0,0:0:0:0:
160,128,121871,1,0,0:0:0:0:
88,192,122128,1,0,0:0:0:0:
160,256,122388,6,0,B|208:296,1,60.000000298023
304,296,122905,2,0,B|352:256,1,60.000000298023,0|2,0:0|0:0,0:0:0:0:
416,192,123422,1,0,0:0:0:0:
176,40,124198,5,2,0:0:0:0:
112,112,124457,1,0,0:0:0:0:
176,184,124716,2,0,B|176:248,1,60.000000298023
256,304,125233,1,2,0:0:0:0:
256,208,125491,1,0,0:0:0:0:
344,40,126009,5,0,0:0:0:0:
400,112,126267,1,2,0:0:0:0:
344,184,126526,1,0,0:0:0:0:
256,192,126785,12,4,128854,0:0:0:0:
352,192,129888,5,2,0:0:0:0:
256,288,130405,1,2,0:0:0:0:
160,192,130922,1,4,0:0:0:0:
160,64,131440,5,8,0:0:0:0:
256,64,131698,1,0,0:0:0:0:
352,64,131957,1,0,0:0:0:0:
256,64,132215,2,0,B|256:128,1,60.000000298023,2|8,0:0|0:0,0:0:0:0:
256,224,132732,1,0,0:0:0:0:
408,344,133250,5,0,0:0:0:0:
360,264,133509,1,8,0:0:0:0:
304,344,133767,2,0,B|240:344,1,60.000000298023
144,344,134285,1,0,0:0:0:0:
200,264,134543,1,8,0:0:0:0:
280,208,134802,1,0,0:0:0:0:
424,80,135319,5,0,0:0:0:0:
424,176,135578,1,8,0:0:0:0:
344,128,135836,1,0,0:0:0:0:
152,128,136353,2,0,B|88:128,1,60.000000298023,0|8,0:0|0:0,0:0:0:0:
92,32,136871,1,0,0:0:0:0:
92,224,137388,2,0,B|156:224,1,60.000000298023,0|8,0:0|0:0,0:0:0:0:
152,320,137905,1,0,0:0:0:0:
440,320,138681,5,8,0:0:0:0:
368,256,138940,1,0,0:0:0:0:
296,192,139198,2,0,B|232:192,1,60.000000298023,4|0,0:0|0:0,0:0:0:0:
236,96,139716,1,8,0:0:0:0:
140,96,139974,2,0,B|100:152,1,60.000000298023
104,240,140491,2,0,B|144:288,1,60.000000298023,0|8,0:0|0:0,0:0:0:0:
168,192,141008,2,0,B|240:232|288:152|344:192,1,180.000000894069,0|8,0:0|0:0,0:0:0:0:
440,192,142043,5,0,0:0:0:0:
440,288,142302,1,0,0:0:0:0:
440,192,142560,2,0,B|440:120,1,60.000000298023,0|8,0:0|0:0,0:0:0:0:
440,32,143078,1,0,0:0:0:0:
152,32,143853,5,8,0:0:0:0:
152,128,144112,2,0,B|152:192,1,60.000000298023
152,288,144629,1,0,0:0:0:0:
248,288,144888,1,8,0:0:0:0:
248,192,145147,6,0,B|248:128,1,60.000000298023
248,32,145664,1,4,0:0:0:0:
328,88,145922,1,8,0:0:0:0:
408,32,146181,1,4,0:0:0:0:
408,224,146698,5,2,0:0:0:0:
328,280,146957,1,2,0:0:0:0:
248,224,147215,2,0,B|184:224,1,60.000000298023,2|4,0:0|0:0,0:0:0:0:
152,32,147991,5,8,0:0:0:0:
64,64,148250,1,0,0:0:0:0:
64,160,148509,1,0,0:0:0:0:
144,112,148766,2,0,B|208:112,1,60.000000298023,2|8,0:0|0:0,0:0:0:0:
152,192,149285,1,0,0:0:0:0:
344,192,149802,5,0,0:0:0:0:
440,192,150060,1,8,0:0:0:0:
392,112,150319,2,0,B|392:48,1,60.000000298023
296,52,150836,1,0,0:0:0:0:
208,92,151095,1,8,0:0:0:0:
121,133,151354,1,0,0:0:0:0:
48,312,151871,5,0,0:0:0:0:
135,271,152129,1,8,0:0:0:0:
222,230,152388,2,0,B|287:199,1,60.000000298023
376,204,152905,2,0,B|434:231,1,60.000000298023,0|8,0:0|0:0,0:0:0:0:
432,320,153422,2,0,B|373:347,1,60.000000298023
280,344,153939,2,0,B|221:316,1,60.000000298023,0|8,0:0|0:0,0:0:0:0:
134,276,154456,1,0,0:0:0:0:
344,80,155233,5,8,0:0:0:0:
248,80,155491,1,0,0:0:0:0:
168,136,155750,2,0,B|168:200,1,60.000000298023,4|0,0:0|0:0,0:0:0:0:
248,256,156267,1,8,0:0:0:0:
344,256,156526,2,0,B|344:192,1,60.000000298023
440,192,157043,2,0,B|440:128,1,60.000000298023,0|8,0:0|0:0,0:0:0:0:
440,32,157560,2,0,B|256:32,1,180.000000894069,0|8,0:0|0:0,0:0:0:0:
256,128,158595,5,0,0:0:0:0:
184,192,158854,1,0,0:0:0:0:
256,256,159112,1,0,0:0:0:0:
328,192,159371,2,0,B|392:192,1,60.000000298023,8|0,0:0|0:0,0:0:0:0:
388,288,159887,6,0,B|420:296|444:320|436:368,2,90.0000004470345,0|0|0,0:0|0:0|0:0,0:0:0:0:
292,288,160922,1,0,0:0:0:0:
224,220,161181,1,0,0:0:0:0:
292,288,161440,1,0,0:0:0:0:
224,220,161698,1,4,0:0:0:0:
416,48,162733,5,0,0:0:0:0:
331,43,162991,2,2,B|285:88,1,60.000000298023
280,184,163509,1,0,0:0:0:0:
376,212,163767,1,0,0:0:0:0:
473,240,164026,1,0,0:0:0:0:
444,144,164285,1,0,0:0:0:0:
256,192,164802,12,4,167646,0:0:0:0:
256,288,179543,5,2,0:0:0:0:
352,192,180060,1,2,0:0:0:0:
256,96,180578,1,2,0:0:0:0:
88,192,181095,5,8,0:0:0:0:
88,288,181354,1,0,0:0:0:0:
168,240,181612,1,0,0:0:0:0:
168,336,181870,2,4,B|232:336,1,60.000000298023,4|8,0:0|0:0,0:0:0:0:
328,336,182388,1,4,0:0:0:0:
328,144,182905,5,0,0:0:0:0:
264,72,183164,1,8,0:0:0:0:
168,72,183423,2,0,B|104:72,1,60.000000298023
40,144,183940,1,0,0:0:0:0:
136,168,184198,1,8,0:0:0:0:
232,168,184457,1,4,0:0:0:0:
384,288,184974,5,0,0:0:0:0:
424,200,185233,1,8,0:0:0:0:
464,112,185491,1,0,0:0:0:0:
376,64,185749,1,0,0:0:0:0:
280,64,186009,2,0,B|192:64,1,60.000000298023,0|8,0:0|0:0,0:0:0:0:
120,64,186526,1,0,0:0:0:0:
120,160,186784,1,0,0:0:0:0:
120,256,187043,2,0,B|184:256,1,60.000000298023,0|8,0:0|0:0,0:0:0:0:
280,256,187560,1,0,0:0:0:0:
464,32,188336,5,8,0:0:0:0:
368,48,188595,1,0,0:0:0:0:
272,64,188854,2,0,B|200:80,1,60.000000298023,4|0,0:0|0:0,0:0:0:0:
208,176,189371,1,8,0:0:0:0:
304,160,189629,2,0,B|368:144,1,60.000000298023
456,128,190147,2,0,B|456:192,1,60.000000298023,0|8,0:0|0:0,0:0:0:0:
456,280,190663,2,0,P|384:328|312:272,1,180.000000894069,0|8,0:0|0:0,0:0:0:0:
384,216,191698,5,0,0:0:0:0:
384,120,191957,1,0,0:0:0:0:
296,160,192216,2,0,B|296:96,1,60.000000298023,0|8,0:0|0:0,0:0:0:0:
200,96,192733,1,0,0:0:0:0:
384,320,193509,5,8,0:0:0:0:
288,320,193767,2,0,B|224:320,1,60.000000298023
128,320,194285,1,0,0:0:0:0:
176,240,194543,1,8,0:0:0:0:
224,160,194802,6,0,B|288:160,1,60.000000298023
336,240,195319,1,4,0:0:0:0:
384,160,195578,1,8,0:0:0:0:
480,160,195836,1,4,0:0:0:0:
304,80,196354,5,2,0:0:0:0:
208,80,196612,1,2,0:0:0:0:
256,160,196870,2,0,B|256:224,1,60.000000298023,2|4,0:0|0:0,0:0:0:0:
72,272,197647,5,8,0:0:0:0:
24,192,197905,1,0,0:0:0:0:
72,112,198164,1,0,0:0:0:0:
120,192,198422,2,0,B|184:192,1,60.000000298023,2|8,0:0|0:0,0:0:0:0:
280,192,198940,1,0,0:0:0:0:
472,192,199457,5,0,0:0:0:0:
424,272,199716,1,8,0:0:0:0:
376,192,199974,2,0,B|376:128,1,60.000000298023
424,48,200492,1,0,0:0:0:0:
328,48,200750,1,8,0:0:0:0:
424,48,201009,1,0,0:0:0:0:
232,48,201526,5,0,0:0:0:0:
144,88,201785,1,8,0:0:0:0:
232,128,202043,2,0,B|232:200,1,60.000000298023
144,232,202560,2,0,B|216:232,1,60.000000298023,0|8,0:0|0:0,0:0:0:0:
232,328,203078,2,0,B|232:264,1,60.000000298023
320,232,203595,2,0,B|384:232,1,60.000000298023,0|8,0:0|0:0,0:0:0:0:
480,232,204112,1,0,0:0:0:0:
256,56,204888,5,8,0:0:0:0:
336,104,205147,1,0,0:0:0:0:
256,152,205405,2,0,B|192:152,1,60.000000298023,4|0,0:0|0:0,0:0:0:0:
96,152,205923,1,8,0:0:0:0:
96,248,206181,2,0,B|160:248,1,60.000000298023
192,336,206698,2,0,B|264:336,1,60.000000298023,0|8,0:0|0:0,0:0:0:0:
296,248,207216,2,0,B|165:117,1,180.000000894069,0|8,0:0|0:0,0:0:0:0:
256,72,208250,5,0,0:0:0:0:
344,32,208509,1,0,0:0:0:0:
416,96,208767,1,0,0:0:0:0:
352,168,209026,2,0,B|352:240,1,60.000000298023,8|0,0:0|0:0,0:0:0:0:
352,328,209543,5,8,0:0:0:0:
256,328,209802,1,0,0:0:0:0:
160,328,210060,1,0,0:0:0:0:
256,328,210319,1,8,0:0:0:0:
256,136,210836,1,0,0:0:0:0:
256,40,211094,1,0,0:0:0:0:
256,136,211354,1,4,0:0:0:0:
328,128,212388,5,2,0:0:0:0:
424,111,212647,2,2,B|474:161,1,60.000000298023,2|2,0:0|0:0,0:0:0:0:
452,252,213164,1,0,0:0:0:0:
384,320,213423,1,0,0:0:0:0:
294,286,213681,1,4,0:0:0:0:
260,195,213940,1,0,0:0:0:0:
256,192,214457,12,4,217302,0:0:0:0:
